osu file format v14

[General]
AudioFilename: audio.mp3
AudioLeadIn: 0
PreviewTime: 124796
Countdown: 0
SampleSet: Normal
StackLeniency: 0.7
Mode: 1
LetterboxInBreaks: 0
WidescreenStoryboard: 0

[Editor]
Bookmarks: 115192
DistanceSpacing: 0.8
BeatDivisor: 4
GridSize: 32
TimelineZoom: 1.1

[Metadata]
Title:Six Acid Strings
TitleUnicode:Six Acid Strings
Artist:The Flashbulb
ArtistUnicode:The Flashbulb
Creator:Nardoxyribonucleic
Version:Sinister Oni
Source:osu!
Tags:Taiko Featured Artist FA Breakcore Benn Jordan Flexing Habitual Volta Greenshell
BeatmapID:2022931
BeatmapSetID:966451

[Difficulty]
HPDrainRate:6
CircleSize:5
OverallDifficulty:7
ApproachRate:7
SliderMultiplier:1.4
SliderTickRate:1

[Events]
//Background and Video events
0,0,"bg.jpg",0,0
//Break Periods
2,133996,138296
//Storyboard Layer 0 (Background)
//Storyboard Layer 1 (Fail)
//Storyboard Layer 2 (Pass)
//Storyboard Layer 3 (Foreground)
//Storyboard Sound Samples

[TimingPoints]
1196,300,4,1,0,60,1,0
14396,-100,4,1,0,75,0,0
15596,-100,4,1,0,85,0,0
23996,-100,4,1,0,100,0,1
43196,-100,4,1,0,85,0,0
43946,-128.205128205128,4,1,0,85,0,0
44396,-119.047619047619,4,1,0,85,0,0
44546,-116.279069767442,4,1,0,85,0,0
44696,-113.636363636364,4,1,0,85,0,0
44846,-111.111111111111,4,1,0,85,0,0
44996,-108.695652173913,4,1,0,85,0,0
45146,-106.382978723404,4,1,0,85,0,0
45296,-104.166666666667,4,1,0,85,0,0
45446,-102.040816326531,4,1,0,85,0,0
45596,-100,4,1,0,85,0,0
52796,-100,4,1,0,70,0,0
53996,-125,4,1,0,70,0,0
62396,-111.111111111111,4,1,0,80,0,0
67196,-105.263157894737,4,1,0,80,0,0
71696,-104.166666666667,4,1,0,80,0,0
71771,-103.092783505155,4,1,0,80,0,0
71846,-102.040816326531,4,1,0,80,0,0
71921,-101.010101010101,4,1,0,80,0,0
71996,-100,4,1,0,90,0,1
86396,-100,4,1,0,90,0,0
87596,-100,4,1,0,90,0,1
95846,-101.698362656361,4,1,0,90,0,1
95921,-103.444708803145,4,1,0,90,0,1
95996,-105.263157894737,4,1,0,80,0,0
105296,-106.382978723404,4,1,0,80,0,0
105371,-107.52688172043,4,1,0,80,0,0
105446,-108.695652173913,4,1,0,80,0,0
105521,-109.89010989011,4,1,0,80,0,0
105596,-111.111111111111,4,1,0,75,0,0
124496,-112.359550561798,4,1,0,75,0,0
124646,-114.942528735632,4,1,0,75,0,0
124721,-116.279069767442,4,1,0,75,0,0
124796,-117.647058823529,4,1,0,70,0,0
134396,-117.647058823529,4,1,0,60,0,0
139196,-100,4,1,0,60,0,0
143996,-100,4,1,0,85,0,0
154796,-100,4,1,0,100,0,1
163196,-100,4,1,0,80,0,0
164396,-100,4,1,0,100,0,1
182396,-100,4,1,0,100,0,0

[HitObjects]
256,192,2396,5,0,0:0:0:0:
256,192,2546,1,0,0:0:0:0:
256,192,2621,1,0,0:0:0:0:
256,192,2696,1,8,0:0:0:0:
256,192,2846,1,0,0:0:0:0:
256,192,2921,1,8,0:0:0:0:
256,192,2996,1,8,0:0:0:0:
256,192,3071,1,0,0:0:0:0:
256,192,3221,1,0,0:0:0:0:
256,192,3296,1,8,0:0:0:0:
256,192,3446,1,8,0:0:0:0:
256,192,3521,1,0,0:0:0:0:
256,192,3596,1,0,0:0:0:0:
256,192,3746,1,0,0:0:0:0:
256,192,3896,1,8,0:0:0:0:
256,192,3971,1,0,0:0:0:0:
256,192,4046,1,8,0:0:0:0:
256,192,4196,1,0,0:0:0:0:
256,192,4346,1,0,0:0:0:0:
256,192,4421,1,0,0:0:0:0:
256,192,4496,1,8,0:0:0:0:
256,192,4571,1,0,0:0:0:0:
256,192,4646,1,8,0:0:0:0:
256,192,4721,1,8,0:0:0:0:
256,192,4796,1,0,0:0:0:0:
256,192,4946,1,0,0:0:0:0:
256,192,5096,1,8,0:0:0:0:
256,192,5246,1,8,0:0:0:0:
256,192,5321,1,8,0:0:0:0:
256,192,5396,1,0,0:0:0:0:
256,192,5471,1,0,0:0:0:0:
256,192,5621,1,0,0:0:0:0:
256,192,5696,1,8,0:0:0:0:
256,192,5846,1,8,0:0:0:0:
256,192,5921,1,8,0:0:0:0:
256,192,5996,1,0,0:0:0:0:
256,192,6146,1,0,0:0:0:0:
256,192,6296,1,8,0:0:0:0:
256,192,6371,1,8,0:0:0:0:
256,192,6446,1,8,0:0:0:0:
256,192,6521,1,8,0:0:0:0:
256,192,6596,1,0,0:0:0:0:
256,192,6671,1,0,0:0:0:0:
256,192,6746,1,8,0:0:0:0:
256,192,6821,1,0,0:0:0:0:
256,192,6896,1,8,0:0:0:0:
256,192,7046,1,0,0:0:0:0:
256,192,7121,1,8,0:0:0:0:
256,192,7196,1,0,0:0:0:0:
256,192,7271,1,8,0:0:0:0:
256,192,7346,1,8,0:0:0:0:
256,192,7496,1,8,0:0:0:0:
256,192,7646,1,0,0:0:0:0:
256,192,7796,1,8,0:0:0:0:
256,192,7871,1,0,0:0:0:0:
256,192,7946,1,8,0:0:0:0:
256,192,8021,1,8,0:0:0:0:
256,192,8096,1,0,0:0:0:0:
256,192,8246,1,0,0:0:0:0:
256,192,8321,1,8,0:0:0:0:
256,192,8396,1,0,0:0:0:0:
256,192,8546,1,0,0:0:0:0:
256,192,8621,1,0,0:0:0:0:
256,192,8696,1,8,0:0:0:0:
256,192,8846,1,8,0:0:0:0:
256,192,8996,1,0,0:0:0:0:
256,192,9071,1,0,0:0:0:0:
256,192,9146,1,8,0:0:0:0:
256,192,9221,1,0,0:0:0:0:
256,192,9296,1,8,0:0:0:0:
256,192,9371,1,0,0:0:0:0:
256,192,9446,1,0,0:0:0:0:
256,192,9596,1,8,0:0:0:0:
256,192,9746,1,0,0:0:0:0:
256,192,9821,1,0,0:0:0:0:
256,192,9896,1,8,0:0:0:0:
256,192,10046,1,8,0:0:0:0:
256,192,10196,1,0,0:0:0:0:
256,192,10271,1,0,0:0:0:0:
256,192,10346,1,8,0:0:0:0:
256,192,10421,1,8,0:0:0:0:
256,192,10496,1,8,0:0:0:0:
256,192,10646,1,8,0:0:0:0:
256,192,10721,1,0,0:0:0:0:
256,192,10796,1,8,0:0:0:0:
256,192,10946,1,0,0:0:0:0:
256,192,11096,1,8,0:0:0:0:
256,192,11246,1,0,0:0:0:0:
256,192,11396,1,0,0:0:0:0:
256,192,11471,1,8,0:0:0:0:
256,192,11546,1,8,0:0:0:0:
256,192,11621,1,0,0:0:0:0:
256,192,11696,1,8,0:0:0:0:
256,192,11771,1,0,0:0:0:0:
256,192,11846,1,8,0:0:0:0:
256,192,11996,1,0,0:0:0:0:
256,192,12146,1,0,0:0:0:0:
256,192,12296,1,8,0:0:0:0:
256,192,12596,1,8,0:0:0:0:
256,192,12746,1,8,0:0:0:0:
256,192,12821,1,8,0:0:0:0:
256,192,12896,1,8,0:0:0:0:
256,192,12971,1,0,0:0:0:0:
256,192,13046,1,8,0:0:0:0:
256,192,13196,1,0,0:0:0:0:
256,192,13346,1,0,0:0:0:0:
256,192,13496,1,8,0:0:0:0:
256,192,13721,1,0,0:0:0:0:
256,192,13796,1,8,0:0:0:0:
256,192,13871,1,0,0:0:0:0:
256,192,14021,1,0,0:0:0:0:
256,192,14096,1,8,0:0:0:0:
256,192,14396,1,0,0:0:0:0:
256,192,14546,1,0,0:0:0:0:
256,192,14696,1,8,0:0:0:0:
256,192,14846,1,0,0:0:0:0:
256,192,14921,1,0,0:0:0:0:
256,192,14996,1,8,0:0:0:0:
256,192,15046,1,0,0:0:0:0:
256,192,15096,1,0,0:0:0:0:
256,192,15146,1,8,0:0:0:0:
256,192,15221,1,0,0:0:0:0:
256,192,15296,1,8,0:0:0:0:
256,192,15371,1,0,0:0:0:0:
256,192,15446,1,8,0:0:0:0:
256,192,15521,1,8,0:0:0:0:
256,192,15596,1,0,0:0:0:0:
256,192,15746,1,0,0:0:0:0:
256,192,15896,1,8,0:0:0:0:
256,192,16046,1,8,0:0:0:0:
256,192,16121,1,8,0:0:0:0:
256,192,16196,1,0,0:0:0:0:
256,192,16271,1,8,0:0:0:0:
256,192,16346,1,0,0:0:0:0:
256,192,16421,1,0,0:0:0:0:
256,192,16496,1,8,0:0:0:0:
256,192,16533,1,8,0:0:0:0:
256,192,16571,1,0,0:0:0:0:
256,192,16646,1,8,0:0:0:0:
256,192,16721,1,8,0:0:0:0:
256,192,16796,1,0,0:0:0:0:
256,192,16871,1,8,0:0:0:0:
256,192,16946,1,0,0:0:0:0:
256,192,17096,1,8,0:0:0:0:
256,192,17133,1,8,0:0:0:0:
256,192,17246,1,0,0:0:0:0:
256,192,17283,1,0,0:0:0:0:
256,192,17396,1,0,0:0:0:0:
256,192,17471,1,8,0:0:0:0:
256,192,17546,1,0,0:0:0:0:
256,192,17696,1,8,0:0:0:0:
256,192,17771,1,0,0:0:0:0:
256,192,17846,1,8,0:0:0:0:
256,192,17921,1,8,0:0:0:0:
256,192,17996,1,0,0:0:0:0:
256,192,18146,1,0,0:0:0:0:
256,192,18221,1,0,0:0:0:0:
256,192,18296,1,8,0:0:0:0:
256,192,18446,1,8,0:0:0:0:
256,192,18521,1,8,0:0:0:0:
256,192,18596,1,0,0:0:0:0:
256,192,18671,1,8,0:0:0:0:
256,192,18746,1,0,0:0:0:0:
256,192,18896,1,0,0:0:0:0:
256,192,18946,1,0,0:0:0:0:
256,192,18996,1,0,0:0:0:0:
256,192,19046,1,8,0:0:0:0:
256,192,19083,1,8,0:0:0:0:
256,192,19121,1,8,0:0:0:0:
256,192,19158,1,8,0:0:0:0:
256,192,19196,1,0,0:0:0:0:
256,192,19346,1,0,0:0:0:0:
256,192,19496,1,8,0:0:0:0:
256,192,19571,1,8,0:0:0:0:
256,192,19646,1,0,0:0:0:0:
256,192,19721,1,8,0:0:0:0:
256,192,19796,1,0,0:0:0:0:
256,192,19871,1,8,0:0:0:0:
256,192,19946,1,0,0:0:0:0:
256,192,20021,1,8,0:0:0:0:
256,192,20096,1,8,0:0:0:0:
256,192,20246,1,8,0:0:0:0:
256,192,20321,1,8,0:0:0:0:
256,192,20396,1,0,0:0:0:0:
256,192,20471,1,0,0:0:0:0:
256,192,20546,1,8,0:0:0:0:
256,192,20621,1,8,0:0:0:0:
256,192,20658,1,8,0:0:0:0:
256,192,20696,1,0,0:0:0:0:
256,192,20846,1,0,0:0:0:0:
256,192,20921,1,0,0:0:0:0:
256,192,20996,1,8,0:0:0:0:
256,192,21071,1,0,0:0:0:0:
256,192,21146,1,0,0:0:0:0:
256,192,21221,1,0,0:0:0:0:
256,192,21296,1,8,0:0:0:0:
256,192,21446,1,0,0:0:0:0:
256,192,21596,1,8,0:0:0:0:
256,192,21746,1,0,0:0:0:0:
256,192,21821,1,0,0:0:0:0:
256,192,21896,1,8,0:0:0:0:
256,192,22046,1,0,0:0:0:0:
256,192,22121,1,8,0:0:0:0:
256,192,22196,1,8,0:0:0:0:
256,192,22346,1,8,0:0:0:0:
256,192,22421,1,8,0:0:0:0:
256,192,22496,1,0,0:0:0:0:
256,192,22571,1,8,0:0:0:0:
256,192,22646,1,8,0:0:0:0:
256,192,22721,1,8,0:0:0:0:
256,192,22796,1,0,0:0:0:0:
256,192,22946,1,8,0:0:0:0:
256,192,23021,1,0,0:0:0:0:
256,192,23096,1,8,0:0:0:0:
256,192,23171,1,8,0:0:0:0:
256,192,23246,1,0,0:0:0:0:
256,192,23296,1,8,0:0:0:0:
256,192,23346,1,8,0:0:0:0:
256,192,23396,1,0,0:0:0:0:
256,192,23471,1,8,0:0:0:0:
256,192,23546,1,0,0:0:0:0:
256,192,23621,1,0,0:0:0:0:
256,192,23696,1,8,0:0:0:0:
256,192,23846,1,8,0:0:0:0:
256,192,23921,1,8,0:0:0:0:
256,192,23996,1,0,0:0:0:0:
256,192,24146,1,0,0:0:0:0:
256,192,24296,1,8,0:0:0:0:
256,192,24521,1,0,0:0:0:0:
256,192,24596,1,8,0:0:0:0:
256,192,24746,1,0,0:0:0:0:
256,192,25046,1,8,0:0:0:0:
256,192,25196,1,0,0:0:0:0:
256,192,25346,1,0,0:0:0:0:
256,192,25496,1,8,0:0:0:0:
256,192,25646,1,0,0:0:0:0:
256,192,25721,1,8,0:0:0:0:
256,192,25796,1,0,0:0:0:0:
256,192,25871,1,8,0:0:0:0:
256,192,25946,1,8,0:0:0:0:
256,192,26021,1,0,0:0:0:0:
256,192,26096,1,8,0:0:0:0:
256,192,26246,1,0,0:0:0:0:
256,192,26321,1,8,0:0:0:0:
256,192,26396,1,0,0:0:0:0:
256,192,26546,1,0,0:0:0:0:
256,192,26621,1,0,0:0:0:0:
256,192,26696,1,8,0:0:0:0:
256,192,26846,1,8,0:0:0:0:
256,192,26921,1,8,0:0:0:0:
256,192,26996,1,0,0:0:0:0:
256,192,27146,1,8,0:0:0:0:
256,192,27221,1,0,0:0:0:0:
256,192,27296,1,8,0:0:0:0:
256,192,27346,1,8,0:0:0:0:
256,192,27396,1,8,0:0:0:0:
256,192,27446,1,0,0:0:0:0:
256,192,27521,1,8,0:0:0:0:
256,192,27596,1,0,0:0:0:0:
256,192,27746,1,0,0:0:0:0:
256,192,27896,1,8,0:0:0:0:
256,192,28046,1,8,0:0:0:0:
256,192,28196,1,0,0:0:0:0:
256,192,28271,1,8,0:0:0:0:
256,192,28346,1,0,0:0:0:0:
256,192,28421,1,0,0:0:0:0:
256,192,28496,1,8,0:0:0:0:
256,192,28646,1,8,0:0:0:0:
256,192,28721,1,8,0:0:0:0:
256,192,28796,1,0,0:0:0:0:
256,192,28946,1,0,0:0:0:0:
256,192,28983,1,8,0:0:0:0:
256,192,29096,1,8,0:0:0:0:
256,192,29246,1,0,0:0:0:0:
256,192,29321,1,8,0:0:0:0:
256,192,29396,1,8,0:0:0:0:
256,192,29471,1,8,0:0:0:0:
256,192,29546,1,0,0:0:0:0:
256,192,29621,1,0,0:0:0:0:
256,192,29696,1,8,0:0:0:0:
256,192,29846,1,0,0:0:0:0:
256,192,29921,1,0,0:0:0:0:
256,192,29996,1,0,0:0:0:0:
256,192,30146,1,0,0:0:0:0:
256,192,30296,1,8,0:0:0:0:
256,192,30446,1,0,0:0:0:0:
256,192,30521,1,8,0:0:0:0:
256,192,30596,1,0,0:0:0:0:
256,192,30671,1,0,0:0:0:0:
256,192,30746,1,8,0:0:0:0:
256,192,30821,1,8,0:0:0:0:
256,192,30896,1,0,0:0:0:0:
256,192,30946,1,0,0:0:0:0:
256,192,30996,1,0,0:0:0:0:
256,192,31046,1,8,0:0:0:0:
256,192,31121,1,8,0:0:0:0:
256,192,31196,1,0,0:0:0:0:
256,192,31346,1,8,0:0:0:0:
256,192,31421,1,0,0:0:0:0:
256,192,31496,1,8,0:0:0:0:
256,192,31646,1,8,0:0:0:0:
256,192,31696,1,8,0:0:0:0:
256,192,31746,1,8,0:0:0:0:
256,192,31796,1,0,0:0:0:0:
256,192,31946,1,0,0:0:0:0:
256,192,32096,1,12,0:0:0:0:
256,192,32396,1,8,0:0:0:0:
256,192,32546,1,0,0:0:0:0:
256,192,32696,1,8,0:0:0:0:
256,192,32771,1,8,0:0:0:0:
256,192,32846,1,0,0:0:0:0:
256,192,32921,1,8,0:0:0:0:
256,192,32996,1,8,0:0:0:0:
256,192,33071,1,0,0:0:0:0:
256,192,33146,1,0,0:0:0:0:
256,192,33183,1,0,0:0:0:0:
256,192,33221,1,0,0:0:0:0:
256,192,33258,1,0,0:0:0:0:
256,192,33296,1,8,0:0:0:0:
256,192,33596,1,0,0:0:0:0:
256,192,33671,1,8,0:0:0:0:
256,192,33746,1,0,0:0:0:0:
256,192,33821,1,0,0:0:0:0:
256,192,33896,1,8,0:0:0:0:
256,192,34046,1,8,0:0:0:0:
256,192,34121,1,8,0:0:0:0:
256,192,34196,1,0,0:0:0:0:
256,192,34271,1,0,0:0:0:0:
256,192,34346,1,8,0:0:0:0:
256,192,34421,1,0,0:0:0:0:
256,192,34496,1,8,0:0:0:0:
256,192,34533,1,8,0:0:0:0:
256,192,34571,1,8,0:0:0:0:
256,192,34646,1,0,0:0:0:0:
256,192,34721,1,8,0:0:0:0:
256,192,34796,1,0,0:0:0:0:
256,192,34946,1,0,0:0:0:0:
256,192,35096,1,8,0:0:0:0:
256,192,35246,1,0,0:0:0:0:
256,192,35321,1,8,0:0:0:0:
256,192,35396,1,0,0:0:0:0:
256,192,35433,1,0,0:0:0:0:
256,192,35471,1,0,0:0:0:0:
256,192,35546,1,8,0:0:0:0:
256,192,35621,1,0,0:0:0:0:
256,192,35696,1,8,0:0:0:0:
256,192,35771,1,8,0:0:0:0:
256,192,35846,1,0,0:0:0:0:
256,192,35996,1,8,0:0:0:0:
256,192,36071,1,0,0:0:0:0:
256,192,36146,1,0,0:0:0:0:
256,192,36221,1,0,0:0:0:0:
256,192,36296,1,8,0:0:0:0:
256,192,36446,1,0,0:0:0:0:
256,192,36521,1,8,0:0:0:0:
256,192,36596,1,0,0:0:0:0:
256,192,36746,1,8,0:0:0:0:
256,192,36896,1,0,0:0:0:0:
256,192,36971,1,0,0:0:0:0:
256,192,37046,1,8,0:0:0:0:
256,192,37083,1,8,0:0:0:0:
256,192,37121,1,8,0:0:0:0:
256,192,37158,1,8,0:0:0:0:
256,192,37196,1,0,0:0:0:0:
256,192,37271,1,8,0:0:0:0:
256,192,37346,1,0,0:0:0:0:
256,192,37421,1,0,0:0:0:0:
256,192,37496,1,8,0:0:0:0:
256,192,37646,1,0,0:0:0:0:
256,192,37721,1,8,0:0:0:0:
256,192,37796,1,0,0:0:0:0:
256,192,37946,1,8,0:0:0:0:
256,192,38096,1,8,0:0:0:0:
256,192,38171,1,8,0:0:0:0:
256,192,38246,1,0,0:0:0:0:
256,192,38321,1,8,0:0:0:0:
256,192,38358,1,8,0:0:0:0:
256,192,38396,1,0,0:0:0:0:
256,192,38471,1,0,0:0:0:0:
256,192,38546,1,8,0:0:0:0:
256,192,38621,1,0,0:0:0:0:
256,192,38696,1,8,0:0:0:0:
256,192,38846,1,0,0:0:0:0:
256,192,38921,1,8,0:0:0:0:
256,192,38996,1,0,0:0:0:0:
256,192,39071,1,0,0:0:0:0:
256,192,39146,1,0,0:0:0:0:
256,192,39296,1,8,0:0:0:0:
256,192,39446,1,8,0:0:0:0:
256,192,39496,1,8,0:0:0:0:
256,192,39546,1,8,0:0:0:0:
256,192,39596,1,0,0:0:0:0:
256,192,39671,1,8,0:0:0:0:
256,192,39746,1,0,0:0:0:0:
256,192,39783,1,0,0:0:0:0:
256,192,39821,1,0,0:0:0:0:
256,192,39896,1,8,0:0:0:0:
256,192,40046,1,0,0:0:0:0:
256,192,40121,1,8,0:0:0:0:
256,192,40196,1,8,0:0:0:0:
256,192,40271,1,0,0:0:0:0:
256,192,40346,1,8,0:0:0:0:
256,192,40421,1,0,0:0:0:0:
256,192,40496,1,8,0:0:0:0:
256,192,40571,1,8,0:0:0:0:
256,192,40646,1,0,0:0:0:0:
256,192,40721,1,8,0:0:0:0:
256,192,40796,1,0,0:0:0:0:
256,192,40946,1,0,0:0:0:0:
256,192,40996,1,0,0:0:0:0:
256,192,41046,1,0,0:0:0:0:
256,192,41096,1,8,0:0:0:0:
256,192,41171,1,0,0:0:0:0:
256,192,41246,1,8,0:0:0:0:
256,192,41321,1,8,0:0:0:0:
256,192,41396,1,0,0:0:0:0:
256,192,41471,1,0,0:0:0:0:
256,192,41546,1,8,0:0:0:0:
256,192,41596,1,0,0:0:0:0:
256,192,41646,1,0,0:0:0:0:
256,192,41696,1,8,0:0:0:0:
256,192,41771,1,0,0:0:0:0:
256,192,41846,1,0,0:0:0:0:
256,192,41921,1,8,0:0:0:0:
256,192,41996,1,0,0:0:0:0:
256,192,42146,1,0,0:0:0:0:
256,192,42296,1,8,0:0:0:0:
256,192,42446,1,0,0:0:0:0:
256,192,42521,1,8,0:0:0:0:
256,192,42596,1,0,0:0:0:0:
256,192,42671,1,8,0:0:0:0:
256,192,42746,1,0,0:0:0:0:
256,192,42896,1,12,0:0:0:0:
256,192,43196,1,0,0:0:0:0:
256,192,43946,1,0,0:0:0:0:
256,192,44396,1,0,0:0:0:0:
256,192,44546,1,0,0:0:0:0:
256,192,44696,1,8,0:0:0:0:
256,192,44846,1,0,0:0:0:0:
256,192,44996,1,0,0:0:0:0:
256,192,45146,1,8,0:0:0:0:
256,192,45296,1,8,0:0:0:0:
256,192,45446,1,0,0:0:0:0:
256,192,45596,1,0,0:0:0:0:
256,192,45746,1,0,0:0:0:0:
256,192,45821,1,0,0:0:0:0:
256,192,45896,1,8,0:0:0:0:
256,192,46046,1,8,0:0:0:0:
256,192,46121,1,0,0:0:0:0:
256,192,46196,1,0,0:0:0:0:
256,192,46271,1,8,0:0:0:0:
256,192,46346,1,0,0:0:0:0:
256,192,46496,1,8,0:0:0:0:
256,192,46646,1,8,0:0:0:0:
256,192,46796,1,0,0:0:0:0:
256,192,46946,1,0,0:0:0:0:
256,192,47021,1,0,0:0:0:0:
256,192,47096,1,8,0:0:0:0:
256,192,47246,1,8,0:0:0:0:
256,192,47321,1,8,0:0:0:0:
256,192,47396,1,0,0:0:0:0:
256,192,47471,1,0,0:0:0:0:
256,192,47546,1,0,0:0:0:0:
256,192,47696,1,8,0:0:0:0:
256,192,47846,1,8,0:0:0:0:
256,192,47921,1,8,0:0:0:0:
256,192,47996,1,0,0:0:0:0:
256,192,48146,1,0,0:0:0:0:
256,192,48296,1,8,0:0:0:0:
256,192,48446,1,0,0:0:0:0:
256,192,48521,1,8,0:0:0:0:
256,192,48596,1,0,0:0:0:0:
256,192,48671,1,8,0:0:0:0:
256,192,48746,1,0,0:0:0:0:
256,192,48821,1,0,0:0:0:0:
256,192,48896,1,8,0:0:0:0:
256,192,49196,1,0,0:0:0:0:
256,192,49346,1,0,0:0:0:0:
256,192,49496,1,8,0:0:0:0:
256,192,49646,1,0,0:0:0:0:
256,192,49721,1,8,0:0:0:0:
256,192,49796,1,8,0:0:0:0:
256,192,49871,1,0,0:0:0:0:
256,192,49946,1,0,0:0:0:0:
256,192,50096,1,8,0:0:0:0:
256,192,50171,1,0,0:0:0:0:
256,192,50246,1,0,0:0:0:0:
256,192,50321,1,8,0:0:0:0:
256,192,50396,1,0,0:0:0:0:
256,192,50546,1,0,0:0:0:0:
256,192,50696,1,8,0:0:0:0:
256,192,50846,1,8,0:0:0:0:
256,192,50921,1,8,0:0:0:0:
256,192,50996,1,0,0:0:0:0:
256,192,51071,1,0,0:0:0:0:
256,192,51146,1,0,0:0:0:0:
256,192,51221,1,0,0:0:0:0:
256,192,51296,1,8,0:0:0:0:
256,192,51596,1,0,0:0:0:0:
256,192,51746,1,0,0:0:0:0:
256,192,51821,1,0,0:0:0:0:
256,192,51896,1,8,0:0:0:0:
256,192,52046,1,0,0:0:0:0:
256,192,52121,1,0,0:0:0:0:
256,192,52196,1,8,0:0:0:0:
256,192,52271,1,0,0:0:0:0:
256,192,52346,1,0,0:0:0:0:
256,192,52421,1,8,0:0:0:0:
256,192,52496,1,8,0:0:0:0:
256,192,52796,1,0,0:0:0:0:
256,192,54296,1,0,0:0:0:0:
256,192,54446,1,8,0:0:0:0:
256,192,54896,1,8,0:0:0:0:
256,192,55196,1,0,0:0:0:0:
256,192,55796,1,8,0:0:0:0:
256,192,55946,1,0,0:0:0:0:
256,192,56096,1,0,0:0:0:0:
256,192,56246,1,8,0:0:0:0:
256,192,56396,1,8,0:0:0:0:
256,192,56471,1,0,0:0:0:0:
256,192,56546,1,8,0:0:0:0:
256,192,56696,1,0,0:0:0:0:
256,192,56771,1,8,0:0:0:0:
256,192,56846,1,0,0:0:0:0:
256,192,56996,1,8,0:0:0:0:
256,192,57071,1,8,0:0:0:0:
256,192,57146,1,8,0:0:0:0:
256,192,57221,1,8,0:0:0:0:
256,192,57296,1,0,0:0:0:0:
256,192,57596,1,0,0:0:0:0:
256,192,57896,1,8,0:0:0:0:
256,192,58796,1,0,0:0:0:0:
256,192,59396,1,8,0:0:0:0:
256,192,59546,1,0,0:0:0:0:
256,192,59621,1,8,0:0:0:0:
256,192,59696,1,8,0:0:0:0:
256,192,59996,1,0,0:0:0:0:
256,192,60446,1,0,0:0:0:0:
256,192,60746,1,8,0:0:0:0:
256,192,60896,1,0,0:0:0:0:
256,192,60971,1,0,0:0:0:0:
256,192,61046,1,0,0:0:0:0:
256,192,61196,1,8,0:0:0:0:
256,192,61496,1,0,0:0:0:0:
256,192,61646,1,8,0:0:0:0:
256,192,61796,1,0,0:0:0:0:
256,192,61946,1,8,0:0:0:0:
256,192,62021,1,8,0:0:0:0:
256,192,62096,1,8,0:0:0:0:
256,192,62396,1,0,0:0:0:0:
256,192,62696,1,8,0:0:0:0:
256,192,62846,1,0,0:0:0:0:
256,192,62996,1,0,0:0:0:0:
256,192,63071,1,8,0:0:0:0:
256,192,63146,1,0,0:0:0:0:
256,192,63296,1,8,0:0:0:0:
256,192,63596,1,0,0:0:0:0:
256,192,63896,1,8,0:0:0:0:
256,192,64046,1,0,0:0:0:0:
256,192,64121,1,8,0:0:0:0:
256,192,64196,1,0,0:0:0:0:
256,192,64346,1,0,0:0:0:0:
256,192,64496,1,8,0:0:0:0:
256,192,64796,1,0,0:0:0:0:
256,192,65096,1,8,0:0:0:0:
256,192,65246,1,0,0:0:0:0:
256,192,65396,1,0,0:0:0:0:
256,192,65471,1,8,0:0:0:0:
256,192,65546,1,0,0:0:0:0:
256,192,65696,1,8,0:0:0:0:
256,192,65996,1,0,0:0:0:0:
256,192,66296,1,8,0:0:0:0:
256,192,66446,1,0,0:0:0:0:
256,192,66521,1,8,0:0:0:0:
256,192,66596,1,0,0:0:0:0:
256,192,66746,1,0,0:0:0:0:
256,192,66896,1,8,0:0:0:0:
256,192,67196,1,0,0:0:0:0:
256,192,67496,1,0,0:0:0:0:
256,192,67646,1,8,0:0:0:0:
256,192,67796,1,0,0:0:0:0:
256,192,67946,1,0,0:0:0:0:
256,192,68021,1,8,0:0:0:0:
256,192,68096,1,0,0:0:0:0:
256,192,68246,1,8,0:0:0:0:
256,192,68396,1,0,0:0:0:0:
256,192,68696,1,0,0:0:0:0:
256,192,68846,1,8,0:0:0:0:
256,192,68996,1,0,0:0:0:0:
256,192,69071,1,8,0:0:0:0:
256,192,69146,1,0,0:0:0:0:
256,192,69296,1,0,0:0:0:0:
256,192,69446,1,8,0:0:0:0:
256,192,69596,1,0,0:0:0:0:
256,192,69896,1,0,0:0:0:0:
256,192,70046,1,8,0:0:0:0:
256,192,70196,1,0,0:0:0:0:
256,192,70271,1,8,0:0:0:0:
256,192,70346,1,0,0:0:0:0:
256,192,70421,1,8,0:0:0:0:
256,192,70496,1,0,0:0:0:0:
256,192,70646,1,8,0:0:0:0:
256,192,70796,1,0,0:0:0:0:
256,192,71096,1,0,0:0:0:0:
256,192,71246,1,8,0:0:0:0:
256,192,71396,1,0,0:0:0:0:
256,192,71471,1,8,0:0:0:0:
256,192,71546,1,0,0:0:0:0:
256,192,71596,1,0,0:0:0:0:
256,192,71646,1,0,0:0:0:0:
256,192,71696,1,8,0:0:0:0:
256,192,71771,1,8,0:0:0:0:
256,192,71846,1,8,0:0:0:0:
256,192,71921,1,8,0:0:0:0:
256,192,71996,1,0,0:0:0:0:
256,192,72146,1,0,0:0:0:0:
256,192,72221,1,0,0:0:0:0:
256,192,72296,1,8,0:0:0:0:
256,192,72446,1,0,0:0:0:0:
256,192,72596,1,0,0:0:0:0:
256,192,72671,1,8,0:0:0:0:
256,192,72746,1,0,0:0:0:0:
256,192,72896,1,8,0:0:0:0:
256,192,73046,1,8,0:0:0:0:
256,192,73196,1,0,0:0:0:0:
256,192,73346,1,0,0:0:0:0:
256,192,73421,1,0,0:0:0:0:
256,192,73496,1,8,0:0:0:0:
256,192,73646,1,0,0:0:0:0:
256,192,73721,1,8,0:0:0:0:
256,192,73796,1,0,0:0:0:0:
256,192,73871,1,0,0:0:0:0:
256,192,73946,1,8,0:0:0:0:
256,192,74021,1,0,0:0:0:0:
256,192,74096,1,8,0:0:0:0:
256,192,74146,1,8,0:0:0:0:
256,192,74196,1,8,0:0:0:0:
256,192,74246,1,0,0:0:0:0:
256,192,74396,1,0,0:0:0:0:
256,192,74546,1,0,0:0:0:0:
256,192,74621,1,8,0:0:0:0:
256,192,74696,1,0,0:0:0:0:
256,192,74746,1,0,0:0:0:0:
256,192,74796,1,0,0:0:0:0:
256,192,74846,1,8,0:0:0:0:
256,192,74921,1,8,0:0:0:0:
256,192,74996,1,0,0:0:0:0:
256,192,75071,1,8,0:0:0:0:
256,192,75146,1,0,0:0:0:0:
256,192,75221,1,0,0:0:0:0:
256,192,75296,1,8,0:0:0:0:
256,192,75346,1,8,0:0:0:0:
256,192,75396,1,8,0:0:0:0:
256,192,75446,1,0,0:0:0:0:
256,192,75596,1,0,0:0:0:0:
256,192,75746,1,8,0:0:0:0:
256,192,75821,1,8,0:0:0:0:
256,192,75896,1,0,0:0:0:0:
256,192,75971,1,0,0:0:0:0:
256,192,76008,1,0,0:0:0:0:
256,192,76046,1,8,0:0:0:0:
256,192,76083,1,8,0:0:0:0:
256,192,76121,1,8,0:0:0:0:
256,192,76196,1,0,0:0:0:0:
256,192,76271,1,8,0:0:0:0:
256,192,76346,1,0,0:0:0:0:
256,192,76421,1,0,0:0:0:0:
256,192,76496,1,8,0:0:0:0:
256,192,76646,1,8,0:0:0:0:
256,192,76721,1,8,0:0:0:0:
256,192,76796,1,0,0:0:0:0:
256,192,76946,1,8,0:0:0:0:
256,192,77021,1,0,0:0:0:0:
256,192,77096,1,8,0:0:0:0:
256,192,77246,1,0,0:0:0:0:
256,192,77321,1,0,0:0:0:0:
256,192,77396,1,8,0:0:0:0:
256,192,77471,1,8,0:0:0:0:
256,192,77546,1,0,0:0:0:0:
256,192,77696,1,0,0:0:0:0:
256,192,77846,1,12,0:0:0:0:
256,192,77996,1,0,0:0:0:0:
256,192,78146,1,0,0:0:0:0:
256,192,78296,1,8,0:0:0:0:
256,192,78446,1,8,0:0:0:0:
256,192,78521,1,0,0:0:0:0:
256,192,78596,1,0,0:0:0:0:
256,192,78671,1,8,0:0:0:0:
256,192,78746,1,8,0:0:0:0:
256,192,78821,1,0,0:0:0:0:
256,192,78896,1,8,0:0:0:0:
256,192,78933,1,8,0:0:0:0:
256,192,78971,1,8,0:0:0:0:
256,192,79046,1,0,0:0:0:0:
256,192,79196,1,0,0:0:0:0:
256,192,79346,1,0,0:0:0:0:
256,192,79421,1,0,0:0:0:0:
256,192,79496,1,8,0:0:0:0:
256,192,79646,1,8,0:0:0:0:
256,192,79721,1,8,0:0:0:0:
256,192,79796,1,0,0:0:0:0:
256,192,79871,1,8,0:0:0:0:
256,192,79946,1,0,0:0:0:0:
256,192,80096,1,8,0:0:0:0:
256,192,80146,1,8,0:0:0:0:
256,192,80196,1,8,0:0:0:0:
256,192,80246,1,0,0:0:0:0:
256,192,80321,1,8,0:0:0:0:
256,192,80396,1,0,0:0:0:0:
256,192,80471,1,0,0:0:0:0:
256,192,80546,1,8,0:0:0:0:
256,192,80621,1,0,0:0:0:0:
256,192,80696,1,8,0:0:0:0:
256,192,80771,1,0,0:0:0:0:
256,192,80846,1,8,0:0:0:0:
256,192,80921,1,8,0:0:0:0:
256,192,80996,1,0,0:0:0:0:
256,192,81071,1,8,0:0:0:0:
256,192,81146,1,0,0:0:0:0:
256,192,81221,1,8,0:0:0:0:
256,192,81296,1,0,0:0:0:0:
256,192,81333,1,0,0:0:0:0:
256,192,81371,1,0,0:0:0:0:
256,192,81446,1,8,0:0:0:0:
256,192,81483,1,8,0:0:0:0:
256,192,81521,1,8,0:0:0:0:
256,192,81596,1,0,0:0:0:0:
256,192,81746,1,0,0:0:0:0:
256,192,81821,1,0,0:0:0:0:
256,192,81896,1,8,0:0:0:0:
256,192,82046,1,8,0:0:0:0:
256,192,82121,1,8,0:0:0:0:
256,192,82196,1,0,0:0:0:0:
256,192,82271,1,8,0:0:0:0:
256,192,82346,1,0,0:0:0:0:
256,192,82421,1,0,0:0:0:0:
256,192,82496,1,8,0:0:0:0:
256,192,82571,1,8,0:0:0:0:
256,192,82646,1,8,0:0:0:0:
256,192,82721,1,8,0:0:0:0:
256,192,82796,1,0,0:0:0:0:
256,192,82871,1,0,0:0:0:0:
256,192,82946,1,8,0:0:0:0:
256,192,82996,1,8,0:0:0:0:
256,192,83046,1,8,0:0:0:0:
256,192,83096,1,0,0:0:0:0:
256,192,83171,1,8,0:0:0:0:
256,192,83246,1,0,0:0:0:0:
256,192,83296,1,8,0:0:0:0:
256,192,83346,1,8,0:0:0:0:
256,192,83396,1,0,0:0:0:0:
256,192,83471,1,8,0:0:0:0:
256,192,83546,1,0,0:0:0:0:
256,192,83596,1,0,0:0:0:0:
256,192,83646,1,0,0:0:0:0:
256,192,83696,1,8,0:0:0:0:
256,192,83771,1,0,0:0:0:0:
256,192,83846,1,8,0:0:0:0:
256,192,83921,1,8,0:0:0:0:
256,192,83996,1,0,0:0:0:0:
256,192,84146,1,0,0:0:0:0:
256,192,84221,1,0,0:0:0:0:
256,192,84296,1,8,0:0:0:0:
256,192,84346,1,8,0:0:0:0:
256,192,84396,1,8,0:0:0:0:
256,192,84446,1,0,0:0:0:0:
256,192,84521,1,8,0:0:0:0:
256,192,84596,1,0,0:0:0:0:
256,192,84671,1,8,0:0:0:0:
256,192,84746,1,0,0:0:0:0:
256,192,84796,1,0,0:0:0:0:
256,192,84846,1,0,0:0:0:0:
256,192,84896,1,8,0:0:0:0:
256,192,84971,1,0,0:0:0:0:
256,192,85046,1,8,0:0:0:0:
256,192,85121,1,8,0:0:0:0:
256,192,85196,1,0,0:0:0:0:
256,192,85233,1,0,0:0:0:0:
256,192,85271,1,0,0:0:0:0:
256,192,85308,1,0,0:0:0:0:
256,192,85346,1,8,0:0:0:0:
256,192,85421,1,0,0:0:0:0:
256,192,85496,1,8,0:0:0:0:
256,192,85546,1,8,0:0:0:0:
256,192,85596,1,8,0:0:0:0:
256,192,85646,1,0,0:0:0:0:
256,192,85721,1,8,0:0:0:0:
256,192,85796,1,0,0:0:0:0:
256,192,85871,1,0,0:0:0:0:
256,192,85946,1,8,0:0:0:0:
256,192,85996,1,0,0:0:0:0:
256,192,86046,1,0,0:0:0:0:
256,192,86096,1,8,0:0:0:0:
256,192,86171,1,8,0:0:0:0:
256,192,86246,1,0,0:0:0:0:
256,192,86396,1,0,0:0:0:0:
256,192,86996,1,8,0:0:0:0:
256,192,87596,1,0,0:0:0:0:
256,192,87746,1,0,0:0:0:0:
256,192,87821,1,0,0:0:0:0:
256,192,87896,1,8,0:0:0:0:
256,192,88046,1,8,0:0:0:0:
256,192,88121,1,0,0:0:0:0:
256,192,88196,1,8,0:0:0:0:
256,192,88271,1,8,0:0:0:0:
256,192,88346,1,0,0:0:0:0:
256,192,88496,1,8,0:0:0:0:
256,192,88646,1,0,0:0:0:0:
256,192,88721,1,8,0:0:0:0:
256,192,88796,1,8,0:0:0:0:
256,192,88871,1,8,0:0:0:0:
256,192,88946,1,0,0:0:0:0:
256,192,89021,1,0,0:0:0:0:
256,192,89096,1,8,0:0:0:0:
256,192,89171,1,0,0:0:0:0:
256,192,89246,1,8,0:0:0:0:
256,192,89321,1,0,0:0:0:0:
256,192,89396,1,8,0:0:0:0:
256,192,89433,1,8,0:0:0:0:
256,192,89471,1,8,0:0:0:0:
256,192,89508,1,8,0:0:0:0:
256,192,89546,1,0,0:0:0:0:
256,192,89696,1,8,0:0:0:0:
256,192,89846,1,0,0:0:0:0:
256,192,89921,1,8,0:0:0:0:
256,192,89996,1,0,0:0:0:0:
256,192,90071,1,8,0:0:0:0:
256,192,90146,1,8,0:0:0:0:
256,192,90221,1,0,0:0:0:0:
256,192,90296,1,8,0:0:0:0:
256,192,90371,1,8,0:0:0:0:
256,192,90446,1,0,0:0:0:0:
256,192,90483,1,0,0:0:0:0:
256,192,90521,1,8,0:0:0:0:
256,192,90596,1,0,0:0:0:0:
256,192,90671,1,8,0:0:0:0:
256,192,90746,1,0,0:0:0:0:
256,192,90821,1,0,0:0:0:0:
256,192,90896,1,8,0:0:0:0:
256,192,91046,1,8,0:0:0:0:
256,192,91121,1,8,0:0:0:0:
256,192,91196,1,0,0:0:0:0:
256,192,91233,1,8,0:0:0:0:
256,192,91346,1,0,0:0:0:0:
256,192,91421,1,0,0:0:0:0:
256,192,91496,1,8,0:0:0:0:
256,192,91646,1,0,0:0:0:0:
256,192,91721,1,8,0:0:0:0:
256,192,91796,1,0,0:0:0:0:
256,192,91871,1,8,0:0:0:0:
256,192,91946,1,0,0:0:0:0:
256,192,92021,1,0,0:0:0:0:
256,192,92096,1,8,0:0:0:0:
256,192,92171,1,8,0:0:0:0:
256,192,92246,1,0,0:0:0:0:
256,192,92358,1,8,0:0:0:0:
256,192,92396,1,0,0:0:0:0:
256,192,92546,1,0,0:0:0:0:
256,192,92696,1,12,0:0:0:0:
256,192,92846,1,0,0:0:0:0:
256,192,92921,1,8,0:0:0:0:
256,192,93071,1,8,0:0:0:0:
256,192,93146,1,0,0:0:0:0:
256,192,93296,1,8,0:0:0:0:
256,192,93446,1,8,0:0:0:0:
256,192,93521,1,0,0:0:0:0:
256,192,93596,1,0,0:0:0:0:
256,192,93671,1,8,0:0:0:0:
256,192,93746,1,0,0:0:0:0:
256,192,93821,1,0,0:0:0:0:
256,192,93896,1,8,0:0:0:0:
256,192,93971,1,0,0:0:0:0:
256,192,94046,1,8,0:0:0:0:
256,192,94121,1,8,0:0:0:0:
256,192,94196,1,0,0:0:0:0:
256,192,94271,1,8,0:0:0:0:
256,192,94346,1,0,0:0:0:0:
256,192,94383,1,0,0:0:0:0:
256,192,94421,1,0,0:0:0:0:
256,192,94458,1,0,0:0:0:0:
256,192,94496,1,8,0:0:0:0:
256,192,94646,1,8,0:0:0:0:
256,192,94721,1,0,0:0:0:0:
256,192,94796,1,0,0:0:0:0:
256,192,94946,1,0,0:0:0:0:
256,192,95096,1,8,0:0:0:0:
256,192,95246,1,8,0:0:0:0:
256,192,95321,1,8,0:0:0:0:
256,192,95396,1,0,0:0:0:0:
256,192,95471,1,8,0:0:0:0:
256,192,95696,1,8,0:0:0:0:
256,192,95846,1,0,0:0:0:0:
256,192,95921,1,0,0:0:0:0:
256,192,95996,1,0,0:0:0:0:
256,192,96146,1,0,0:0:0:0:
256,192,96296,1,8,0:0:0:0:
256,192,96446,1,0,0:0:0:0:
256,192,96746,1,0,0:0:0:0:
256,192,96896,1,8,0:0:0:0:
256,192,97046,1,0,0:0:0:0:
256,192,97121,1,0,0:0:0:0:
256,192,97196,1,0,0:0:0:0:
256,192,97346,1,0,0:0:0:0:
256,192,97496,1,8,0:0:0:0:
256,192,97646,1,0,0:0:0:0:
256,192,97721,1,8,0:0:0:0:
256,192,97796,1,0,0:0:0:0:
256,192,97946,1,0,0:0:0:0:
256,192,98096,1,8,0:0:0:0:
256,192,98246,1,8,0:0:0:0:
256,192,98396,1,0,0:0:0:0:
256,192,98696,1,8,0:0:0:0:
256,192,98846,1,0,0:0:0:0:
256,192,98921,1,8,0:0:0:0:
256,192,98996,1,8,0:0:0:0:
256,192,99071,1,8,0:0:0:0:
256,192,99146,1,0,0:0:0:0:
256,192,99296,1,8,0:0:0:0:
256,192,99521,1,8,0:0:0:0:
256,192,99596,1,0,0:0:0:0:
256,192,99746,1,0,0:0:0:0:
256,192,99896,1,8,0:0:0:0:
256,192,100046,1,0,0:0:0:0:
256,192,100121,1,8,0:0:0:0:
256,192,100271,1,8,0:0:0:0:
256,192,100346,1,0,0:0:0:0:
256,192,100496,1,8,0:0:0:0:
256,192,100646,1,0,0:0:0:0:
256,192,100721,1,0,0:0:0:0:
256,192,100796,1,0,0:0:0:0:
256,192,100946,1,0,0:0:0:0:
256,192,101096,1,8,0:0:0:0:
256,192,101246,1,0,0:0:0:0:
256,192,101546,1,0,0:0:0:0:
256,192,101696,1,8,0:0:0:0:
256,192,101846,1,0,0:0:0:0:
256,192,101921,1,0,0:0:0:0:
256,192,101996,1,0,0:0:0:0:
256,192,102146,1,0,0:0:0:0:
256,192,102296,1,8,0:0:0:0:
256,192,102446,1,0,0:0:0:0:
256,192,102521,1,8,0:0:0:0:
256,192,102596,1,0,0:0:0:0:
256,192,102746,1,0,0:0:0:0:
256,192,102896,1,8,0:0:0:0:
256,192,103046,1,8,0:0:0:0:
256,192,103196,1,0,0:0:0:0:
256,192,103496,1,8,0:0:0:0:
256,192,103646,1,0,0:0:0:0:
256,192,103721,1,8,0:0:0:0:
256,192,103796,1,8,0:0:0:0:
256,192,103871,1,8,0:0:0:0:
256,192,103946,1,0,0:0:0:0:
256,192,104096,1,8,0:0:0:0:
256,192,104321,1,8,0:0:0:0:
256,192,104396,1,0,0:0:0:0:
256,192,104546,1,0,0:0:0:0:
256,192,104696,1,8,0:0:0:0:
256,192,104846,1,0,0:0:0:0:
256,192,104921,1,8,0:0:0:0:
256,192,105071,1,8,0:0:0:0:
256,192,105146,1,0,0:0:0:0:
256,192,105296,1,8,0:0:0:0:
256,192,105371,1,8,0:0:0:0:
256,192,105446,1,8,0:0:0:0:
256,192,105521,1,8,0:0:0:0:
256,192,105596,1,0,0:0:0:0:
256,192,105896,1,8,0:0:0:0:
256,192,106196,1,8,0:0:0:0:
256,192,106346,1,0,0:0:0:0:
256,192,106496,1,8,0:0:0:0:
256,192,106796,1,0,0:0:0:0:
256,192,107096,1,8,0:0:0:0:
256,192,107396,1,0,0:0:0:0:
256,192,107546,1,0,0:0:0:0:
256,192,107621,1,0,0:0:0:0:
256,192,107696,1,8,0:0:0:0:
256,192,107846,1,8,0:0:0:0:
256,192,107996,1,0,0:0:0:0:
256,192,108296,1,8,0:0:0:0:
256,192,108446,1,8,0:0:0:0:
256,192,108596,1,0,0:0:0:0:
256,192,108671,1,0,0:0:0:0:
256,192,108746,1,0,0:0:0:0:
256,192,108896,1,8,0:0:0:0:
256,192,109121,1,8,0:0:0:0:
256,192,109196,1,0,0:0:0:0:
256,192,109346,1,0,0:0:0:0:
256,192,109496,1,8,0:0:0:0:
256,192,109646,1,0,0:0:0:0:
256,192,109721,1,8,0:0:0:0:
256,192,109871,1,8,0:0:0:0:
256,192,110096,1,8,0:0:0:0:
256,192,110246,1,8,0:0:0:0:
256,192,110396,1,0,0:0:0:0:
256,192,110696,1,8,0:0:0:0:
256,192,110846,1,8,0:0:0:0:
256,192,110921,1,8,0:0:0:0:
256,192,110996,1,0,0:0:0:0:
256,192,111146,1,0,0:0:0:0:
256,192,111296,1,8,0:0:0:0:
256,192,111596,1,0,0:0:0:0:
256,192,111896,1,8,0:0:0:0:
256,192,112046,1,0,0:0:0:0:
256,192,112121,1,8,0:0:0:0:
256,192,112196,1,0,0:0:0:0:
256,192,112346,1,0,0:0:0:0:
256,192,112496,1,8,0:0:0:0:
256,192,112646,1,8,0:0:0:0:
256,192,112796,1,0,0:0:0:0:
256,192,113096,1,8,0:0:0:0:
256,192,113246,1,8,0:0:0:0:
256,192,113396,1,0,0:0:0:0:
256,192,113471,1,0,0:0:0:0:
256,192,113546,1,0,0:0:0:0:
256,192,113696,1,8,0:0:0:0:
256,192,113921,1,8,0:0:0:0:
256,192,113996,1,0,0:0:0:0:
256,192,114146,1,0,0:0:0:0:
256,192,114296,1,8,0:0:0:0:
256,192,114521,1,8,0:0:0:0:
256,192,114671,1,8,0:0:0:0:
256,192,114746,1,0,0:0:0:0:
256,192,114896,1,8,0:0:0:0:
256,192,115046,1,0,0:0:0:0:
256,192,115196,1,0,0:0:0:0:
256,192,115496,1,8,0:0:0:0:
256,192,115796,1,8,0:0:0:0:
256,192,115946,1,0,0:0:0:0:
256,192,116096,1,8,0:0:0:0:
256,192,116396,1,0,0:0:0:0:
256,192,116546,1,0,0:0:0:0:
256,192,116696,1,8,0:0:0:0:
256,192,116846,1,0,0:0:0:0:
256,192,116996,1,8,0:0:0:0:
256,192,117146,1,8,0:0:0:0:
256,192,117221,1,8,0:0:0:0:
256,192,117296,1,0,0:0:0:0:
256,192,117446,1,8,0:0:0:0:
256,192,117596,1,0,0:0:0:0:
256,192,117896,1,8,0:0:0:0:
256,192,118046,1,8,0:0:0:0:
256,192,118196,1,0,0:0:0:0:
256,192,118271,1,0,0:0:0:0:
256,192,118346,1,0,0:0:0:0:
256,192,118496,1,8,0:0:0:0:
256,192,118721,1,8,0:0:0:0:
256,192,118796,1,0,0:0:0:0:
256,192,118946,1,0,0:0:0:0:
256,192,119096,1,8,0:0:0:0:
256,192,119246,1,0,0:0:0:0:
256,192,119321,1,8,0:0:0:0:
256,192,119471,1,8,0:0:0:0:
256,192,119696,1,8,0:0:0:0:
256,192,119846,1,0,0:0:0:0:
256,192,119921,1,0,0:0:0:0:
256,192,119996,1,8,0:0:0:0:
256,192,120146,1,0,0:0:0:0:
256,192,120296,1,8,0:0:0:0:
256,192,120446,1,8,0:0:0:0:
256,192,120596,1,0,0:0:0:0:
256,192,120746,1,0,0:0:0:0:
256,192,120896,1,8,0:0:0:0:
256,192,121196,1,0,0:0:0:0:
256,192,121496,1,8,0:0:0:0:
256,192,121646,1,0,0:0:0:0:
256,192,121721,1,8,0:0:0:0:
256,192,121796,1,0,0:0:0:0:
256,192,121946,1,0,0:0:0:0:
256,192,122096,1,8,0:0:0:0:
256,192,122246,1,8,0:0:0:0:
256,192,122396,1,0,0:0:0:0:
256,192,122696,1,8,0:0:0:0:
256,192,122846,1,8,0:0:0:0:
256,192,122996,1,0,0:0:0:0:
256,192,123071,1,0,0:0:0:0:
256,192,123146,1,0,0:0:0:0:
256,192,123296,1,8,0:0:0:0:
256,192,123521,1,8,0:0:0:0:
256,192,123596,1,0,0:0:0:0:
256,192,123746,1,0,0:0:0:0:
256,192,123896,1,8,0:0:0:0:
256,192,124121,1,8,0:0:0:0:
256,192,124271,1,8,0:0:0:0:
256,192,124346,1,0,0:0:0:0:
256,192,124496,1,8,0:0:0:0:
256,192,124646,1,8,0:0:0:0:
256,192,124721,1,8,0:0:0:0:
256,192,124796,1,0,0:0:0:0:
256,192,125396,1,8,0:0:0:0:
256,192,125846,1,0,0:0:0:0:
256,192,126296,1,0,0:0:0:0:
256,192,126596,1,8,0:0:0:0:
256,192,127046,1,8,0:0:0:0:
256,192,127196,1,0,0:0:0:0:
256,192,127496,1,0,0:0:0:0:
256,192,127646,1,0,0:0:0:0:
256,192,127796,1,8,0:0:0:0:
256,192,127946,1,0,0:0:0:0:
256,192,128246,1,0,0:0:0:0:
256,192,128396,1,8,0:0:0:0:
256,192,128696,1,0,0:0:0:0:
256,192,128996,1,8,0:0:0:0:
256,192,129446,1,8,0:0:0:0:
256,192,129596,1,0,0:0:0:0:
256,192,129746,1,8,0:0:0:0:
256,192,129896,1,8,0:0:0:0:
256,192,129971,1,8,0:0:0:0:
256,192,130046,1,0,0:0:0:0:
256,192,130196,1,8,0:0:0:0:
256,192,130346,1,0,0:0:0:0:
256,192,130496,1,0,0:0:0:0:
256,192,130796,1,8,0:0:0:0:
256,192,131096,1,0,0:0:0:0:
256,192,131396,1,8,0:0:0:0:
256,192,131696,1,8,0:0:0:0:
256,192,131996,1,0,0:0:0:0:
256,192,132146,1,0,0:0:0:0:
256,192,132446,1,0,0:0:0:0:
256,192,132596,1,8,0:0:0:0:
256,192,132896,1,0,0:0:0:0:
256,192,133046,1,0,0:0:0:0:
256,192,133346,1,8,0:0:0:0:
256,192,133496,1,0,0:0:0:0:
256,192,133796,1,8,0:0:0:0:
256,192,139196,5,8,0:0:0:0:
256,192,139346,1,0,0:0:0:0:
256,192,139421,1,0,0:0:0:0:
256,192,139496,1,0,0:0:0:0:
256,192,139646,1,8,0:0:0:0:
256,192,139796,1,0,0:0:0:0:
256,192,139871,1,8,0:0:0:0:
256,192,139946,1,8,0:0:0:0:
256,192,140021,1,0,0:0:0:0:
256,192,140096,1,8,0:0:0:0:
256,192,140171,1,0,0:0:0:0:
256,192,140246,1,0,0:0:0:0:
256,192,140321,1,8,0:0:0:0:
256,192,140396,1,0,0:0:0:0:
256,192,140471,1,0,0:0:0:0:
256,192,140546,1,8,0:0:0:0:
256,192,140621,1,8,0:0:0:0:
256,192,140696,1,0,0:0:0:0:
256,192,140846,1,0,0:0:0:0:
256,192,140921,1,0,0:0:0:0:
256,192,140996,1,8,0:0:0:0:
256,192,141146,1,0,0:0:0:0:
256,192,141296,1,8,0:0:0:0:
256,192,141346,1,8,0:0:0:0:
256,192,141396,1,8,0:0:0:0:
256,192,141446,1,0,0:0:0:0:
256,192,141521,1,0,0:0:0:0:
256,192,141596,1,8,0:0:0:0:
256,192,141746,1,8,0:0:0:0:
256,192,141821,1,8,0:0:0:0:
256,192,141896,1,0,0:0:0:0:
256,192,141971,1,0,0:0:0:0:
256,192,142046,1,8,0:0:0:0:
256,192,142196,1,0,0:0:0:0:
256,192,142346,1,8,0:0:0:0:
256,192,142421,1,0,0:0:0:0:
256,192,142496,1,8,0:0:0:0:
256,192,142646,1,0,0:0:0:0:
256,192,142721,1,8,0:0:0:0:
256,192,142796,1,0,0:0:0:0:
256,192,142871,1,0,0:0:0:0:
256,192,142946,1,0,0:0:0:0:
256,192,143021,1,0,0:0:0:0:
256,192,143096,1,8,0:0:0:0:
256,192,143171,1,8,0:0:0:0:
256,192,143246,1,8,0:0:0:0:
256,192,143321,1,8,0:0:0:0:
256,192,143396,1,0,0:0:0:0:
256,192,143546,1,0,0:0:0:0:
256,192,143621,1,0,0:0:0:0:
256,192,143696,1,8,0:0:0:0:
256,192,143846,1,8,0:0:0:0:
256,192,143921,1,8,0:0:0:0:
256,192,143996,1,0,0:0:0:0:
256,192,144146,1,8,0:0:0:0:
256,192,144221,1,0,0:0:0:0:
256,192,144296,1,8,0:0:0:0:
256,192,144371,1,8,0:0:0:0:
256,192,144446,1,0,0:0:0:0:
256,192,144521,1,8,0:0:0:0:
256,192,144596,1,0,0:0:0:0:
256,192,144746,1,0,0:0:0:0:
256,192,144896,1,8,0:0:0:0:
256,192,145046,1,8,0:0:0:0:
256,192,145121,1,8,0:0:0:0:
256,192,145196,1,0,0:0:0:0:
256,192,145346,1,0,0:0:0:0:
256,192,145496,1,8,0:0:0:0:
256,192,145646,1,0,0:0:0:0:
256,192,145721,1,8,0:0:0:0:
256,192,145796,1,8,0:0:0:0:
256,192,145871,1,0,0:0:0:0:
256,192,145946,1,0,0:0:0:0:
256,192,146021,1,0,0:0:0:0:
256,192,146096,1,8,0:0:0:0:
256,192,146246,1,0,0:0:0:0:
256,192,146321,1,8,0:0:0:0:
256,192,146396,1,0,0:0:0:0:
256,192,146546,1,0,0:0:0:0:
256,192,146696,1,8,0:0:0:0:
256,192,146746,1,8,0:0:0:0:
256,192,146796,1,8,0:0:0:0:
256,192,146846,1,0,0:0:0:0:
256,192,146883,1,0,0:0:0:0:
256,192,146921,1,8,0:0:0:0:
256,192,146996,1,0,0:0:0:0:
256,192,147071,1,0,0:0:0:0:
256,192,147146,1,8,0:0:0:0:
256,192,147221,1,0,0:0:0:0:
256,192,147296,1,8,0:0:0:0:
256,192,147371,1,8,0:0:0:0:
256,192,147446,1,0,0:0:0:0:
256,192,147521,1,8,0:0:0:0:
256,192,147596,1,0,0:0:0:0:
256,192,147746,1,0,0:0:0:0:
256,192,147896,1,8,0:0:0:0:
256,192,148046,1,0,0:0:0:0:
256,192,148121,1,0,0:0:0:0:
256,192,148196,1,8,0:0:0:0:
256,192,148271,1,8,0:0:0:0:
256,192,148346,1,0,0:0:0:0:
256,192,148421,1,8,0:0:0:0:
256,192,148496,1,0,0:0:0:0:
256,192,148546,1,0,0:0:0:0:
256,192,148596,1,0,0:0:0:0:
256,192,148646,1,8,0:0:0:0:
256,192,148696,1,8,0:0:0:0:
256,192,148746,1,8,0:0:0:0:
256,192,148796,1,0,0:0:0:0:
256,192,148946,1,0,0:0:0:0:
256,192,149021,1,0,0:0:0:0:
256,192,149096,1,8,0:0:0:0:
256,192,149246,1,8,0:0:0:0:
256,192,149321,1,0,0:0:0:0:
256,192,149396,1,8,0:0:0:0:
256,192,149471,1,8,0:0:0:0:
256,192,149546,1,0,0:0:0:0:
256,192,149696,1,12,0:0:0:0:
256,192,149846,1,0,0:0:0:0:
256,192,149921,1,8,0:0:0:0:
256,192,149996,1,0,0:0:0:0:
256,192,150071,1,0,0:0:0:0:
256,192,150146,1,8,0:0:0:0:
256,192,150221,1,0,0:0:0:0:
256,192,150296,1,8,0:0:0:0:
256,192,150346,1,8,0:0:0:0:
256,192,150396,1,8,0:0:0:0:
256,192,150446,1,0,0:0:0:0:
256,192,150483,1,0,0:0:0:0:
256,192,150521,1,0,0:0:0:0:
256,192,150558,1,0,0:0:0:0:
256,192,150596,1,8,0:0:0:0:
256,192,150671,1,0,0:0:0:0:
256,192,150746,1,8,0:0:0:0:
256,192,150783,1,8,0:0:0:0:
256,192,150821,1,8,0:0:0:0:
256,192,150896,1,0,0:0:0:0:
256,192,150971,1,0,0:0:0:0:
256,192,151046,1,8,0:0:0:0:
256,192,151121,1,8,0:0:0:0:
256,192,151196,1,0,0:0:0:0:
256,192,151346,1,0,0:0:0:0:
256,192,151496,1,8,0:0:0:0:
256,192,151646,1,0,0:0:0:0:
256,192,151721,1,8,0:0:0:0:
256,192,151796,1,0,0:0:0:0:
256,192,151871,1,8,0:0:0:0:
256,192,151946,1,0,0:0:0:0:
256,192,151996,1,0,0:0:0:0:
256,192,152046,1,0,0:0:0:0:
256,192,152096,1,8,0:0:0:0:
256,192,152171,1,0,0:0:0:0:
256,192,152246,1,8,0:0:0:0:
256,192,152321,1,8,0:0:0:0:
256,192,152396,1,0,0:0:0:0:
256,192,152546,1,8,0:0:0:0:
256,192,152621,1,8,0:0:0:0:
256,192,152696,1,0,0:0:0:0:
256,192,152846,1,8,0:0:0:0:
256,192,152921,1,8,0:0:0:0:
256,192,152996,1,0,0:0:0:0:
256,192,153146,1,8,0:0:0:0:
256,192,153221,1,8,0:0:0:0:
256,192,153296,1,0,0:0:0:0:
256,192,153371,1,8,0:0:0:0:
256,192,153408,1,8,0:0:0:0:
256,192,153446,1,0,0:0:0:0:
256,192,153521,1,8,0:0:0:0:
256,192,153558,1,8,0:0:0:0:
256,192,153596,1,0,0:0:0:0:
256,192,154196,1,8,0:0:0:0:
256,192,154346,1,0,0:0:0:0:
256,192,154421,1,0,0:0:0:0:
256,192,154496,1,8,0:0:0:0:
256,192,154646,1,8,0:0:0:0:
256,192,154796,1,0,0:0:0:0:
256,192,154946,1,0,0:0:0:0:
256,192,155021,1,0,0:0:0:0:
256,192,155096,1,8,0:0:0:0:
256,192,155246,1,0,0:0:0:0:
256,192,155321,1,8,0:0:0:0:
256,192,155396,1,0,0:0:0:0:
256,192,155471,1,0,0:0:0:0:
256,192,155546,1,8,0:0:0:0:
256,192,155621,1,0,0:0:0:0:
256,192,155696,1,8,0:0:0:0:
256,192,155733,1,8,0:0:0:0:
256,192,155771,1,8,0:0:0:0:
256,192,155846,1,0,0:0:0:0:
256,192,155921,1,8,0:0:0:0:
256,192,155996,1,0,0:0:0:0:
256,192,156071,1,8,0:0:0:0:
256,192,156146,1,8,0:0:0:0:
256,192,156221,1,0,0:0:0:0:
256,192,156296,1,8,0:0:0:0:
256,192,156371,1,8,0:0:0:0:
256,192,156446,1,0,0:0:0:0:
256,192,156521,1,8,0:0:0:0:
256,192,156558,1,8,0:0:0:0:
256,192,156596,1,0,0:0:0:0:
256,192,156671,1,0,0:0:0:0:
256,192,156746,1,8,0:0:0:0:
256,192,156896,1,4,0:0:0:0:
256,192,157046,1,8,0:0:0:0:
256,192,157121,1,8,0:0:0:0:
256,192,157196,1,0,0:0:0:0:
256,192,157346,1,8,0:0:0:0:
256,192,157421,1,0,0:0:0:0:
256,192,157496,1,8,0:0:0:0:
256,192,157646,1,0,0:0:0:0:
256,192,157721,1,8,0:0:0:0:
256,192,157796,1,0,0:0:0:0:
256,192,157871,1,0,0:0:0:0:
256,192,157946,1,8,0:0:0:0:
256,192,158096,1,4,0:0:0:0:
256,192,158246,1,8,0:0:0:0:
256,192,158321,1,0,0:0:0:0:
256,192,158396,1,0,0:0:0:0:
256,192,158546,1,0,0:0:0:0:
256,192,158621,1,0,0:0:0:0:
256,192,158696,1,8,0:0:0:0:
256,192,158846,1,8,0:0:0:0:
256,192,158921,1,8,0:0:0:0:
256,192,158996,1,0,0:0:0:0:
256,192,159071,1,8,0:0:0:0:
256,192,159146,1,0,0:0:0:0:
256,192,159221,1,0,0:0:0:0:
256,192,159296,1,8,0:0:0:0:
256,192,159346,1,8,0:0:0:0:
256,192,159396,1,8,0:0:0:0:
256,192,159446,1,0,0:0:0:0:
256,192,159496,1,0,0:0:0:0:
256,192,159546,1,0,0:0:0:0:
256,192,159596,1,8,0:0:0:0:
256,192,159746,1,0,0:0:0:0:
256,192,159821,1,0,0:0:0:0:
256,192,159896,1,8,0:0:0:0:
256,192,160046,1,0,0:0:0:0:
256,192,160121,1,0,0:0:0:0:
256,192,160196,1,8,0:0:0:0:
256,192,160233,1,8,0:0:0:0:
256,192,160271,1,8,0:0:0:0:
256,192,160346,1,0,0:0:0:0:
256,192,160421,1,0,0:0:0:0:
256,192,160496,1,8,0:0:0:0:
256,192,160533,1,8,0:0:0:0:
256,192,160571,1,8,0:0:0:0:
256,192,160608,1,8,0:0:0:0:
256,192,160646,1,0,0:0:0:0:
256,192,160696,1,0,0:0:0:0:
256,192,160746,1,0,0:0:0:0:
256,192,160796,1,8,0:0:0:0:
256,192,160946,1,0,0:0:0:0:
256,192,161021,1,0,0:0:0:0:
256,192,161096,1,8,0:0:0:0:
256,192,161246,1,8,0:0:0:0:
256,192,161321,1,0,0:0:0:0:
256,192,161396,1,8,0:0:0:0:
256,192,161471,1,8,0:0:0:0:
256,192,161546,1,0,0:0:0:0:
256,192,161696,1,4,0:0:0:0:
256,192,161846,1,8,0:0:0:0:
256,192,161896,1,8,0:0:0:0:
256,192,161946,1,8,0:0:0:0:
256,192,161996,1,0,0:0:0:0:
256,192,162146,1,8,0:0:0:0:
256,192,162296,1,8,0:0:0:0:
256,192,162371,1,8,0:0:0:0:
256,192,162446,1,8,0:0:0:0:
256,192,162521,1,8,0:0:0:0:
256,192,162596,1,0,0:0:0:0:
256,192,162746,1,0,0:0:0:0:
256,192,162896,1,8,0:0:0:0:
256,192,162971,1,0,0:0:0:0:
256,192,163046,1,8,0:0:0:0:
256,192,163083,1,8,0:0:0:0:
256,192,163121,1,8,0:0:0:0:
256,192,163196,1,0,0:0:0:0:
256,192,163346,1,0,0:0:0:0:
256,192,163946,1,8,0:0:0:0:
256,192,164396,1,0,0:0:0:0:
256,192,164546,1,0,0:0:0:0:
256,192,164696,1,8,0:0:0:0:
256,192,164846,1,0,0:0:0:0:
256,192,164921,1,8,0:0:0:0:
256,192,164996,1,0,0:0:0:0:
256,192,165071,1,0,0:0:0:0:
256,192,165146,1,8,0:0:0:0:
256,192,165221,1,0,0:0:0:0:
256,192,165296,1,8,0:0:0:0:
256,192,165346,1,8,0:0:0:0:
256,192,165396,1,8,0:0:0:0:
256,192,165446,1,0,0:0:0:0:
256,192,165596,1,0,0:0:0:0:
256,192,165671,1,0,0:0:0:0:
256,192,165746,1,0,0:0:0:0:
256,192,165821,1,0,0:0:0:0:
256,192,165896,1,8,0:0:0:0:
256,192,165971,1,8,0:0:0:0:
256,192,166046,1,0,0:0:0:0:
256,192,166121,1,8,0:0:0:0:
256,192,166196,1,0,0:0:0:0:
256,192,166271,1,0,0:0:0:0:
256,192,166346,1,8,0:0:0:0:
256,192,166421,1,0,0:0:0:0:
256,192,166496,1,8,0:0:0:0:
256,192,166533,1,8,0:0:0:0:
256,192,166571,1,8,0:0:0:0:
256,192,166646,1,8,0:0:0:0:
256,192,166721,1,8,0:0:0:0:
256,192,166796,1,0,0:0:0:0:
256,192,166946,1,0,0:0:0:0:
256,192,167021,1,0,0:0:0:0:
256,192,167096,1,8,0:0:0:0:
256,192,167246,1,8,0:0:0:0:
256,192,167321,1,8,0:0:0:0:
256,192,167396,1,0,0:0:0:0:
256,192,167471,1,0,0:0:0:0:
256,192,167546,1,8,0:0:0:0:
256,192,167621,1,0,0:0:0:0:
256,192,167696,1,8,0:0:0:0:
256,192,167733,1,8,0:0:0:0:
256,192,167845,1,8,0:0:0:0:
256,192,167883,1,8,0:0:0:0:
256,192,167996,1,0,0:0:0:0:
256,192,168071,1,8,0:0:0:0:
256,192,168146,1,0,0:0:0:0:
256,192,168296,1,0,0:0:0:0:
256,192,168446,1,8,0:0:0:0:
256,192,168596,1,0,0:0:0:0:
256,192,168671,1,0,0:0:0:0:
256,192,168746,1,8,0:0:0:0:
256,192,168896,1,8,0:0:0:0:
256,192,169046,1,0,0:0:0:0:
256,192,169121,1,8,0:0:0:0:
256,192,169196,1,0,0:0:0:0:
256,192,169271,1,0,0:0:0:0:
256,192,169346,1,8,0:0:0:0:
256,192,169421,1,0,0:0:0:0:
256,192,169496,1,8,0:0:0:0:
256,192,169533,1,8,0:0:0:0:
256,192,169571,1,0,0:0:0:0:
256,192,169646,1,8,0:0:0:0:
256,192,169721,1,8,0:0:0:0:
256,192,169796,1,0,0:0:0:0:
256,192,169871,1,8,0:0:0:0:
256,192,169946,1,8,0:0:0:0:
256,192,170021,1,0,0:0:0:0:
256,192,170096,1,8,0:0:0:0:
256,192,170171,1,8,0:0:0:0:
256,192,170246,1,8,0:0:0:0:
256,192,170321,1,8,0:0:0:0:
256,192,170396,1,0,0:0:0:0:
256,192,170546,1,0,0:0:0:0:
256,192,170696,1,8,0:0:0:0:
256,192,170846,1,0,0:0:0:0:
256,192,170921,1,8,0:0:0:0:
256,192,170996,1,0,0:0:0:0:
256,192,171071,1,8,0:0:0:0:
256,192,171146,1,0,0:0:0:0:
256,192,171221,1,0,0:0:0:0:
256,192,171296,1,8,0:0:0:0:
256,192,171371,1,0,0:0:0:0:
256,192,171446,1,8,0:0:0:0:
256,192,171496,1,8,0:0:0:0:
256,192,171546,1,8,0:0:0:0:
256,192,171596,1,0,0:0:0:0:
256,192,171671,1,8,0:0:0:0:
256,192,171746,1,0,0:0:0:0:
256,192,171821,1,0,0:0:0:0:
256,192,171896,1,8,0:0:0:0:
256,192,171971,1,8,0:0:0:0:
256,192,172046,1,0,0:0:0:0:
256,192,172121,1,8,0:0:0:0:
256,192,172196,1,8,0:0:0:0:
256,192,172233,1,8,0:0:0:0:
256,192,172271,1,8,0:0:0:0:
256,192,172346,1,0,0:0:0:0:
256,192,172421,1,0,0:0:0:0:
256,192,172496,1,8,0:0:0:0:
256,192,172546,1,0,0:0:0:0:
256,192,172596,1,0,0:0:0:0:
256,192,172646,1,8,0:0:0:0:
256,192,172696,1,8,0:0:0:0:
256,192,172746,1,8,0:0:0:0:
256,192,172796,1,0,0:0:0:0:
256,192,172946,1,8,0:0:0:0:
256,192,173096,1,8,0:0:0:0:
256,192,173171,1,0,0:0:0:0:
256,192,173246,1,0,0:0:0:0:
256,192,173321,1,8,0:0:0:0:
256,192,173396,1,0,0:0:0:0:
256,192,173471,1,0,0:0:0:0:
256,192,173546,1,8,0:0:0:0:
256,192,173621,1,8,0:0:0:0:
256,192,173696,1,0,0:0:0:0:
256,192,173746,1,8,0:0:0:0:
256,192,173796,1,8,0:0:0:0:
256,192,173846,1,0,0:0:0:0:
256,192,173921,1,0,0:0:0:0:
256,192,173996,1,8,0:0:0:0:
256,192,174071,1,8,0:0:0:0:
256,192,174146,1,0,0:0:0:0:
256,192,174221,1,0,0:0:0:0:
256,192,174296,1,8,0:0:0:0:
256,192,174333,1,8,0:0:0:0:
256,192,174371,1,0,0:0:0:0:
256,192,174446,1,8,0:0:0:0:
256,192,174521,1,8,0:0:0:0:
256,192,174596,1,0,0:0:0:0:
256,192,174671,1,8,0:0:0:0:
256,192,174746,1,8,0:0:0:0:
256,192,174821,1,0,0:0:0:0:
256,192,174896,1,8,0:0:0:0:
256,192,174971,1,0,0:0:0:0:
256,192,175046,1,8,0:0:0:0:
256,192,175121,1,8,0:0:0:0:
256,192,175196,1,0,0:0:0:0:
256,192,175271,1,8,0:0:0:0:
256,192,175346,1,0,0:0:0:0:
256,192,175421,1,0,0:0:0:0:
256,192,175496,1,8,0:0:0:0:
256,192,175533,1,8,0:0:0:0:
256,192,175646,1,0,0:0:0:0:
256,192,175683,1,0,0:0:0:0:
256,192,175796,1,8,0:0:0:0:
256,192,175833,1,8,0:0:0:0:
256,192,175946,1,8,0:0:0:0:
256,192,175983,1,8,0:0:0:0:
256,192,176096,1,0,0:0:0:0:
256,192,176146,1,0,0:0:0:0:
256,192,176196,1,0,0:0:0:0:
256,192,176246,1,8,0:0:0:0:
256,192,176321,1,8,0:0:0:0:
256,192,176396,1,0,0:0:0:0:
256,192,176471,1,8,0:0:0:0:
256,192,176546,1,0,0:0:0:0:
256,192,176621,1,0,0:0:0:0:
256,192,176696,1,8,0:0:0:0:
256,192,176771,1,0,0:0:0:0:
256,192,176846,1,8,0:0:0:0:
256,192,176883,1,8,0:0:0:0:
256,192,176921,1,8,0:0:0:0:
256,192,176958,1,8,0:0:0:0:
256,192,176996,1,0,0:0:0:0:
256,192,177071,1,8,0:0:0:0:
256,192,177146,1,8,0:0:0:0:
256,192,177221,1,0,0:0:0:0:
256,192,177296,1,8,0:0:0:0:
256,192,177371,1,0,0:0:0:0:
256,192,177446,1,0,0:0:0:0:
256,192,177483,1,0,0:0:0:0:
256,192,177521,1,8,0:0:0:0:
256,192,177596,1,8,0:0:0:0:
256,192,177671,1,0,0:0:0:0:
256,192,177746,1,8,0:0:0:0:
256,192,177821,1,0,0:0:0:0:
256,192,177896,1,8,0:0:0:0:
256,192,177946,1,8,0:0:0:0:
256,192,177996,1,8,0:0:0:0:
256,192,178046,1,0,0:0:0:0:
256,192,178121,1,0,0:0:0:0:
256,192,178196,1,8,0:0:0:0:
256,192,178271,1,8,0:0:0:0:
256,192,178346,1,0,0:0:0:0:
256,192,178421,1,0,0:0:0:0:
256,192,178496,1,8,0:0:0:0:
256,192,178646,1,8,0:0:0:0:
256,192,178796,1,0,0:0:0:0:
256,192,178946,1,8,0:0:0:0:
256,192,178996,1,0,0:0:0:0:
256,192,179046,1,0,0:0:0:0:
256,192,179096,1,8,0:0:0:0:
256,192,179171,1,0,0:0:0:0:
256,192,179246,1,8,0:0:0:0:
256,192,179321,1,0,0:0:0:0:
256,192,179396,1,0,0:0:0:0:
256,192,179471,1,8,0:0:0:0:
256,192,179546,1,0,0:0:0:0:
256,192,179621,1,0,0:0:0:0:
256,192,179696,1,8,0:0:0:0:
256,192,179771,1,0,0:0:0:0:
256,192,179846,1,8,0:0:0:0:
256,192,179896,1,8,0:0:0:0:
256,192,179946,1,8,0:0:0:0:
256,192,179996,1,0,0:0:0:0:
256,192,180071,1,8,0:0:0:0:
256,192,180146,1,0,0:0:0:0:
256,192,180196,1,0,0:0:0:0:
256,192,180246,1,0,0:0:0:0:
256,192,180296,1,8,0:0:0:0:
256,192,180371,1,0,0:0:0:0:
256,192,180446,1,8,0:0:0:0:
256,192,180521,1,0,0:0:0:0:
256,192,180596,1,8,0:0:0:0:
256,192,180671,1,8,0:0:0:0:
256,192,180746,1,0,0:0:0:0:
256,192,180821,1,8,0:0:0:0:
256,192,180896,1,8,0:0:0:0:
256,192,180971,1,0,0:0:0:0:
256,192,181046,1,0,0:0:0:0:
256,192,181096,1,0,0:0:0:0:
256,192,181146,1,0,0:0:0:0:
256,192,181196,1,8,0:0:0:0:
256,192,181271,1,8,0:0:0:0:
256,192,181346,1,0,0:0:0:0:
256,192,181421,1,0,0:0:0:0:
256,192,181496,1,8,0:0:0:0:
256,192,181571,1,0,0:0:0:0:
256,192,181646,1,8,0:0:0:0:
256,192,181683,1,8,0:0:0:0:
256,192,181721,1,8,0:0:0:0:
256,192,181796,1,0,0:0:0:0:
256,192,181871,1,8,0:0:0:0:
256,192,181946,1,0,0:0:0:0:
256,192,182021,1,0,0:0:0:0:
256,192,182096,1,8,0:0:0:0:
256,192,182133,1,8,0:0:0:0:
256,192,182171,1,8,0:0:0:0:
256,192,182208,1,8,0:0:0:0:
256,192,182246,1,8,0:0:0:0:
256,192,182396,1,4,0:0:0:0:
