osu file format v14

[General]
AudioFilename: audio.mp3
AudioLeadIn: 0
PreviewTime: 124796
Countdown: 0
SampleSet: Normal
StackLeniency: 0.7
Mode: 1
LetterboxInBreaks: 0
WidescreenStoryboard: 0

[Editor]
Bookmarks: 115192
DistanceSpacing: 0.8
BeatDivisor: 4
GridSize: 32
TimelineZoom: 2.5

[Metadata]
Title:Six Acid Strings
TitleUnicode:Six Acid Strings
Artist:The Flashbulb
ArtistUnicode:The Flashbulb
Creator:Nardoxyribonucleic
Version:Green's Inner Oni
Source:osu!
Tags:Taiko Featured Artist FA Breakcore Benn Jordan Flexing Habitual Volta Greenshell
BeatmapID:2083710
BeatmapSetID:966451

[Difficulty]
HPDrainRate:6
CircleSize:3
OverallDifficulty:6.6
ApproachRate:10
SliderMultiplier:1.4
SliderTickRate:1

[Events]
//Background and Video events
0,0,"bg.jpg",0,0
//Break Periods
2,134392,138746
//Storyboard Layer 0 (Background)
//Storyboard Layer 1 (Fail)
//Storyboard Layer 2 (Pass)
//Storyboard Layer 3 (Foreground)
//Storyboard Sound Samples

[TimingPoints]
1196,300,4,1,0,60,1,0
14396,-100,4,1,0,75,0,0
15596,-100,4,1,0,85,0,0
23996,-100,4,1,0,100,0,1
43196,-100,4,1,0,85,0,0
52796,-100,4,1,0,70,0,0
52946,-142.857142857143,4,1,0,70,0,0
62396,-125,4,1,0,80,0,0
67196,-111.111111111111,4,1,0,80,0,0
69596,-100,4,1,0,80,0,0
71996,-100,4,1,0,90,0,1
86396,-100,4,1,0,90,0,0
87596,-100,4,1,0,90,0,1
95996,-100,4,1,0,80,0,0
96221,-105.263157894737,4,1,0,80,0,0
97346,-111.111111111111,4,1,0,80,0,0
98546,-117.647058823529,4,1,0,80,0,0
105596,-133.333333333333,4,1,0,75,0,0
110396,-117.647058823529,4,1,0,75,0,0
115196,-100,4,1,0,75,0,0
124796,-133.333333333333,4,1,0,70,0,0
134396,-200,4,1,0,40,0,0
139196,-125,4,1,0,40,0,0
143996,-100,4,1,0,85,0,0
153896,-113.636363636364,4,1,0,85,0,0
154046,-111.111111111111,4,1,0,85,0,0
154196,-108.695652173913,4,1,0,85,0,0
154346,-106.382978723404,4,1,0,85,0,0
154421,-105.263157894737,4,1,0,85,0,0
154496,-104.166666666667,4,1,0,85,0,0
154646,-102.040816326531,4,1,0,85,0,0
154721,-101.010101010101,4,1,0,85,0,0
154796,-100,4,1,0,100,0,1
163196,-100,4,1,0,80,0,0
164396,-100,4,1,0,100,0,1
182396,-100,4,1,0,100,0,0

[HitObjects]
224,160,2396,5,0,0:0:0:0:
288,160,2546,1,8,0:0:0:0:
224,160,2621,1,0,0:0:0:0:
288,160,2696,1,8,0:0:0:0:
224,160,2771,1,0,0:0:0:0:
288,160,2921,1,8,0:0:0:0:
224,160,2996,1,0,0:0:0:0:
224,160,3071,1,0,0:0:0:0:
224,160,3221,1,0,0:0:0:0:
288,160,3296,1,8,0:0:0:0:
288,160,3446,1,8,0:0:0:0:
288,160,3521,1,8,0:0:0:0:
224,160,3596,1,0,0:0:0:0:
224,160,3746,1,0,0:0:0:0:
288,160,3896,1,8,0:0:0:0:
224,160,3971,1,0,0:0:0:0:
288,160,4046,1,8,0:0:0:0:
224,160,4196,1,0,0:0:0:0:
224,160,4271,1,0,0:0:0:0:
224,160,4346,1,0,0:0:0:0:
288,160,4496,1,8,0:0:0:0:
224,160,4646,1,0,0:0:0:0:
224,160,4721,1,0,0:0:0:0:
288,160,4796,1,8,0:0:0:0:
224,160,4946,1,0,0:0:0:0:
288,160,5246,1,8,0:0:0:0:
224,160,5396,1,0,0:0:0:0:
224,160,5546,1,0,0:0:0:0:
288,160,5621,1,8,0:0:0:0:
224,160,5696,1,0,0:0:0:0:
288,160,5846,1,8,0:0:0:0:
288,160,5921,1,8,0:0:0:0:
224,160,5996,1,0,0:0:0:0:
224,160,6146,1,0,0:0:0:0:
288,160,6296,1,8,0:0:0:0:
288,160,6371,1,8,0:0:0:0:
224,160,6446,1,0,0:0:0:0:
288,160,6521,1,8,0:0:0:0:
224,160,6596,1,0,0:0:0:0:
224,160,6671,1,0,0:0:0:0:
288,160,6746,1,8,0:0:0:0:
224,160,6821,1,0,0:0:0:0:
288,160,6896,1,8,0:0:0:0:
288,160,7121,1,8,0:0:0:0:
224,160,7196,1,0,0:0:0:0:
224,160,7271,1,0,0:0:0:0:
288,160,7346,1,8,0:0:0:0:
288,160,7496,1,8,0:0:0:0:
224,160,7646,1,0,0:0:0:0:
288,160,7796,1,8,0:0:0:0:
224,160,7946,1,0,0:0:0:0:
224,160,8021,1,0,0:0:0:0:
288,160,8096,1,8,0:0:0:0:
288,160,8246,1,8,0:0:0:0:
288,160,8321,1,8,0:0:0:0:
224,160,8546,1,0,0:0:0:0:
224,160,8621,1,0,0:0:0:0:
288,160,8696,1,8,0:0:0:0:
288,160,8846,1,8,0:0:0:0:
224,160,8996,1,0,0:0:0:0:
288,160,9071,1,8,0:0:0:0:
224,160,9221,1,0,0:0:0:0:
288,160,9296,1,8,0:0:0:0:
288,160,9371,1,8,0:0:0:0:
224,160,9446,1,0,0:0:0:0:
288,160,9596,1,8,0:0:0:0:
224,160,9746,1,0,0:0:0:0:
288,160,9821,1,8,0:0:0:0:
288,160,9896,1,8,0:0:0:0:
288,160,10046,1,8,0:0:0:0:
224,160,10196,1,0,0:0:0:0:
288,160,10346,1,8,0:0:0:0:
288,160,10421,1,8,0:0:0:0:
288,160,10496,1,8,0:0:0:0:
224,160,10646,1,0,0:0:0:0:
288,160,10796,1,8,0:0:0:0:
288,160,10946,1,8,0:0:0:0:
224,160,11096,1,0,0:0:0:0:
288,160,11246,1,8,0:0:0:0:
224,160,11396,1,0,0:0:0:0:
288,160,11471,1,8,0:0:0:0:
288,160,11546,1,8,0:0:0:0:
288,160,11621,1,8,0:0:0:0:
224,160,11696,1,0,0:0:0:0:
288,224,11846,1,12,0:0:0:0:
224,160,11996,1,0,0:0:0:0:
224,160,12146,1,0,0:0:0:0:
288,224,12296,1,12,0:0:0:0:
288,224,12596,1,12,0:0:0:0:
224,160,12746,1,0,0:0:0:0:
288,160,12821,1,8,0:0:0:0:
224,160,12896,1,0,0:0:0:0:
224,160,12971,1,0,0:0:0:0:
288,160,13046,1,8,0:0:0:0:
224,160,13196,1,0,0:0:0:0:
224,160,13346,1,0,0:0:0:0:
288,224,13496,1,12,0:0:0:0:
288,160,13721,1,8,0:0:0:0:
224,160,13796,1,0,0:0:0:0:
224,160,13871,1,0,0:0:0:0:
224,160,13946,1,0,0:0:0:0:
224,160,14096,1,0,0:0:0:0:
288,160,14246,1,8,0:0:0:0:
224,160,14396,1,0,0:0:0:0:
288,160,14546,1,8,0:0:0:0:
288,160,14846,1,8,0:0:0:0:
224,160,14996,1,0,0:0:0:0:
288,160,15071,1,8,0:0:0:0:
288,160,15221,1,8,0:0:0:0:
224,160,15296,1,0,0:0:0:0:
288,160,15446,1,8,0:0:0:0:
288,160,15521,1,8,0:0:0:0:
224,160,15596,1,0,0:0:0:0:
288,160,15746,1,8,0:0:0:0:
288,160,15896,1,8,0:0:0:0:
224,160,16046,1,0,0:0:0:0:
288,160,16121,1,8,0:0:0:0:
224,160,16196,1,0,0:0:0:0:
288,160,16271,1,8,0:0:0:0:
224,160,16346,1,0,0:0:0:0:
224,160,16421,1,0,0:0:0:0:
288,160,16496,1,8,0:0:0:0:
224,160,16646,1,0,0:0:0:0:
288,160,16721,1,8,0:0:0:0:
224,160,16796,1,0,0:0:0:0:
224,160,16871,1,0,0:0:0:0:
288,160,16946,1,8,0:0:0:0:
288,160,17096,1,8,0:0:0:0:
224,160,17246,1,0,0:0:0:0:
224,160,17396,1,0,0:0:0:0:
224,160,17471,1,0,0:0:0:0:
288,160,17546,1,8,0:0:0:0:
288,224,17696,1,12,0:0:0:0:
224,160,17846,1,0,0:0:0:0:
288,160,17921,1,8,0:0:0:0:
224,160,17996,1,0,0:0:0:0:
224,160,18221,1,0,0:0:0:0:
288,160,18296,1,8,0:0:0:0:
288,160,18371,1,8,0:0:0:0:
224,160,18446,1,0,0:0:0:0:
224,160,18596,1,0,0:0:0:0:
224,160,18671,1,0,0:0:0:0:
288,160,18746,1,8,0:0:0:0:
224,160,18896,1,0,0:0:0:0:
224,160,18971,1,0,0:0:0:0:
288,160,19046,1,8,0:0:0:0:
288,160,19121,1,8,0:0:0:0:
224,160,19196,1,0,0:0:0:0:
224,160,19346,1,0,0:0:0:0:
288,160,19496,1,8,0:0:0:0:
288,160,19571,1,8,0:0:0:0:
224,160,19646,1,0,0:0:0:0:
224,160,19796,1,0,0:0:0:0:
288,160,19871,1,8,0:0:0:0:
224,160,19946,1,0,0:0:0:0:
288,160,20021,1,8,0:0:0:0:
288,160,20096,1,8,0:0:0:0:
288,160,20246,1,8,0:0:0:0:
288,160,20321,1,8,0:0:0:0:
224,160,20396,1,0,0:0:0:0:
288,160,20546,1,8,0:0:0:0:
224,160,20696,1,0,0:0:0:0:
288,160,20846,1,8,0:0:0:0:
224,160,20996,1,0,0:0:0:0:
288,160,21071,1,8,0:0:0:0:
288,160,21146,1,8,0:0:0:0:
224,160,21221,1,0,0:0:0:0:
224,160,21296,1,0,0:0:0:0:
288,160,21446,1,8,0:0:0:0:
224,160,21521,1,0,0:0:0:0:
288,160,21596,1,8,0:0:0:0:
224,160,21746,1,0,0:0:0:0:
288,160,21896,1,8,0:0:0:0:
288,160,21946,1,8,0:0:0:0:
224,160,22046,1,0,0:0:0:0:
288,160,22196,1,8,0:0:0:0:
288,160,22246,1,8,0:0:0:0:
224,160,22346,1,0,0:0:0:0:
288,160,22421,1,8,0:0:0:0:
224,160,22496,1,0,0:0:0:0:
224,160,22571,1,0,0:0:0:0:
288,160,22646,1,8,0:0:0:0:
288,160,22721,1,8,0:0:0:0:
224,160,22796,1,0,0:0:0:0:
288,160,22871,1,8,0:0:0:0:
224,160,22946,1,0,0:0:0:0:
288,160,23096,1,8,0:0:0:0:
224,160,23246,1,0,0:0:0:0:
224,160,23296,1,0,0:0:0:0:
224,160,23346,1,0,0:0:0:0:
224,160,23396,1,0,0:0:0:0:
288,160,23471,1,8,0:0:0:0:
224,160,23546,1,0,0:0:0:0:
224,160,23621,1,0,0:0:0:0:
288,160,23696,1,8,0:0:0:0:
224,160,23996,1,0,0:0:0:0:
288,160,24296,1,8,0:0:0:0:
224,160,24746,1,0,0:0:0:0:
288,160,25046,1,8,0:0:0:0:
224,160,25196,1,0,0:0:0:0:
224,160,25346,1,0,0:0:0:0:
288,160,25496,1,8,0:0:0:0:
288,160,25646,1,8,0:0:0:0:
224,160,25721,1,0,0:0:0:0:
224,160,25796,1,0,0:0:0:0:
288,160,25871,1,8,0:0:0:0:
288,160,25946,1,8,0:0:0:0:
224,160,26021,1,0,0:0:0:0:
288,160,26096,1,8,0:0:0:0:
224,160,26246,1,0,0:0:0:0:
224,160,26396,1,0,0:0:0:0:
288,160,26546,1,8,0:0:0:0:
224,160,26621,1,0,0:0:0:0:
288,160,26696,1,8,0:0:0:0:
224,160,26846,1,0,0:0:0:0:
288,160,26921,1,8,0:0:0:0:
288,160,27071,1,8,0:0:0:0:
224,160,27146,1,0,0:0:0:0:
224,160,27221,1,0,0:0:0:0:
288,160,27296,1,8,0:0:0:0:
224,160,27446,1,0,0:0:0:0:
288,160,27521,1,8,0:0:0:0:
224,160,27596,1,0,0:0:0:0:
224,160,27746,1,0,0:0:0:0:
288,160,27896,1,8,0:0:0:0:
288,160,28046,1,8,0:0:0:0:
224,160,28196,1,0,0:0:0:0:
288,160,28271,1,8,0:0:0:0:
224,160,28346,1,0,0:0:0:0:
224,160,28421,1,0,0:0:0:0:
288,160,28496,1,8,0:0:0:0:
224,160,28646,1,0,0:0:0:0:
224,160,28721,1,0,0:0:0:0:
224,160,28796,1,0,0:0:0:0:
288,160,28946,1,8,0:0:0:0:
224,160,29021,1,0,0:0:0:0:
288,160,29096,1,8,0:0:0:0:
224,160,29246,1,0,0:0:0:0:
224,160,29396,1,0,0:0:0:0:
288,160,29471,1,8,0:0:0:0:
288,160,29546,1,8,0:0:0:0:
224,160,29621,1,0,0:0:0:0:
288,160,29696,1,8,0:0:0:0:
224,160,29846,1,0,0:0:0:0:
224,160,29996,1,0,0:0:0:0:
288,160,30071,1,8,0:0:0:0:
224,160,30146,1,0,0:0:0:0:
288,160,30296,1,8,0:0:0:0:
224,160,30446,1,0,0:0:0:0:
288,160,30521,1,8,0:0:0:0:
288,160,30596,1,8,0:0:0:0:
288,160,30671,1,8,0:0:0:0:
224,160,30746,1,0,0:0:0:0:
224,160,30821,1,0,0:0:0:0:
288,160,30896,1,8,0:0:0:0:
288,160,30933,1,8,0:0:0:0:
224,160,31046,1,0,0:0:0:0:
224,160,31196,1,0,0:0:0:0:
224,160,31346,1,0,0:0:0:0:
288,160,31496,1,8,0:0:0:0:
224,160,31646,1,0,0:0:0:0:
288,160,31696,1,8,0:0:0:0:
288,160,31746,1,8,0:0:0:0:
224,160,31796,1,0,0:0:0:0:
224,160,31946,1,0,0:0:0:0:
288,224,32096,1,12,0:0:0:0:
288,160,32396,1,8,0:0:0:0:
224,160,32546,1,0,0:0:0:0:
288,160,32696,1,8,0:0:0:0:
288,160,32771,1,8,0:0:0:0:
224,160,32846,1,0,0:0:0:0:
288,160,32921,1,8,0:0:0:0:
224,160,32996,1,0,0:0:0:0:
224,160,33071,1,0,0:0:0:0:
288,160,33146,1,8,0:0:0:0:
224,160,33196,1,0,0:0:0:0:
224,160,33246,1,0,0:0:0:0:
288,160,33296,1,8,0:0:0:0:
224,160,33596,1,0,0:0:0:0:
288,160,33671,1,8,0:0:0:0:
224,160,33746,1,0,0:0:0:0:
224,160,33821,1,0,0:0:0:0:
288,160,33896,1,8,0:0:0:0:
288,160,34046,1,8,0:0:0:0:
288,160,34121,1,8,0:0:0:0:
224,160,34271,1,0,0:0:0:0:
288,160,34346,1,8,0:0:0:0:
288,160,34421,1,8,0:0:0:0:
224,160,34496,1,0,0:0:0:0:
288,160,34571,1,8,0:0:0:0:
224,160,34646,1,0,0:0:0:0:
224,160,34796,1,0,0:0:0:0:
224,160,34946,1,0,0:0:0:0:
288,160,35096,1,8,0:0:0:0:
224,160,35246,1,0,0:0:0:0:
288,160,35321,1,8,0:0:0:0:
224,160,35396,1,0,0:0:0:0:
288,160,35446,1,8,0:0:0:0:
288,160,35496,1,8,0:0:0:0:
224,160,35546,1,0,0:0:0:0:
288,160,35696,1,8,0:0:0:0:
224,160,35846,1,0,0:0:0:0:
224,160,35996,1,0,0:0:0:0:
224,160,36146,1,0,0:0:0:0:
224,160,36221,1,0,0:0:0:0:
288,160,36296,1,8,0:0:0:0:
224,160,36446,1,0,0:0:0:0:
224,160,36521,1,0,0:0:0:0:
224,160,36596,1,0,0:0:0:0:
224,160,36671,1,0,0:0:0:0:
288,160,36746,1,8,0:0:0:0:
288,160,36896,1,8,0:0:0:0:
288,160,36971,1,8,0:0:0:0:
224,160,37046,1,0,0:0:0:0:
288,160,37096,1,8,0:0:0:0:
288,160,37146,1,8,0:0:0:0:
224,160,37196,1,0,0:0:0:0:
224,160,37346,1,0,0:0:0:0:
288,160,37496,1,8,0:0:0:0:
224,160,37646,1,0,0:0:0:0:
288,160,37721,1,8,0:0:0:0:
224,160,37796,1,0,0:0:0:0:
224,160,37946,1,0,0:0:0:0:
288,160,38096,1,8,0:0:0:0:
224,160,38246,1,0,0:0:0:0:
288,160,38321,1,8,0:0:0:0:
224,160,38396,1,0,0:0:0:0:
224,160,38546,1,0,0:0:0:0:
288,160,38696,1,8,0:0:0:0:
224,160,38846,1,0,0:0:0:0:
288,160,38921,1,8,0:0:0:0:
288,160,38996,1,8,0:0:0:0:
224,160,39146,1,0,0:0:0:0:
288,160,39296,1,8,0:0:0:0:
288,160,39446,1,8,0:0:0:0:
288,160,39496,1,8,0:0:0:0:
288,160,39546,1,8,0:0:0:0:
224,160,39596,1,0,0:0:0:0:
288,160,39746,1,8,0:0:0:0:
224,160,39796,1,0,0:0:0:0:
224,160,39846,1,0,0:0:0:0:
288,160,39896,1,8,0:0:0:0:
224,160,40046,1,0,0:0:0:0:
288,160,40196,1,8,0:0:0:0:
288,160,40271,1,8,0:0:0:0:
224,160,40346,1,0,0:0:0:0:
288,160,40421,1,8,0:0:0:0:
288,160,40496,1,8,0:0:0:0:
224,160,40571,1,0,0:0:0:0:
224,160,40646,1,0,0:0:0:0:
288,160,40721,1,8,0:0:0:0:
224,160,40796,1,0,0:0:0:0:
224,160,40946,1,0,0:0:0:0:
224,160,40996,1,0,0:0:0:0:
224,160,41046,1,0,0:0:0:0:
288,160,41096,1,8,0:0:0:0:
288,160,41246,1,8,0:0:0:0:
288,160,41321,1,8,0:0:0:0:
224,160,41396,1,0,0:0:0:0:
288,160,41471,1,8,0:0:0:0:
224,160,41546,1,0,0:0:0:0:
224,160,41596,1,0,0:0:0:0:
224,160,41646,1,0,0:0:0:0:
288,160,41696,1,8,0:0:0:0:
288,160,41846,1,8,0:0:0:0:
288,160,41921,1,8,0:0:0:0:
224,160,41996,1,0,0:0:0:0:
224,160,42146,1,0,0:0:0:0:
288,160,42296,1,8,0:0:0:0:
224,160,42446,1,0,0:0:0:0:
224,160,42521,1,0,0:0:0:0:
288,160,42596,1,8,0:0:0:0:
288,160,42671,1,8,0:0:0:0:
224,160,42746,1,0,0:0:0:0:
288,224,42896,1,12,0:0:0:0:
224,160,43196,1,0,0:0:0:0:
288,160,43946,1,8,0:0:0:0:
224,160,44396,1,0,0:0:0:0:
224,160,44546,1,0,0:0:0:0:
288,160,44696,1,8,0:0:0:0:
288,160,44846,1,8,0:0:0:0:
224,160,44996,1,0,0:0:0:0:
288,160,45146,1,8,0:0:0:0:
288,160,45296,1,8,0:0:0:0:
224,160,45446,1,0,0:0:0:0:
224,160,45596,1,0,0:0:0:0:
224,160,45746,1,0,0:0:0:0:
224,160,45821,1,0,0:0:0:0:
288,160,45896,1,8,0:0:0:0:
224,160,46046,1,0,0:0:0:0:
224,160,46121,1,0,0:0:0:0:
224,160,46196,1,0,0:0:0:0:
288,160,46271,1,8,0:0:0:0:
224,160,46346,1,0,0:0:0:0:
224,160,46421,1,0,0:0:0:0:
288,160,46496,1,8,0:0:0:0:
288,160,46646,1,8,0:0:0:0:
224,160,46796,1,0,0:0:0:0:
224,160,46871,1,0,0:0:0:0:
224,160,46946,1,0,0:0:0:0:
288,160,47096,1,8,0:0:0:0:
224,160,47246,1,0,0:0:0:0:
224,160,47321,1,0,0:0:0:0:
288,160,47396,1,8,0:0:0:0:
288,160,47471,1,8,0:0:0:0:
224,160,47546,1,0,0:0:0:0:
288,160,47696,1,8,0:0:0:0:
224,160,47846,1,0,0:0:0:0:
288,160,47921,1,8,0:0:0:0:
224,160,47996,1,0,0:0:0:0:
224,160,48146,1,0,0:0:0:0:
288,160,48296,1,8,0:0:0:0:
224,160,48446,1,0,0:0:0:0:
224,160,48521,1,0,0:0:0:0:
224,160,48596,1,0,0:0:0:0:
288,160,48671,1,8,0:0:0:0:
224,160,48746,1,0,0:0:0:0:
288,224,48896,1,12,0:0:0:0:
224,160,49196,1,0,0:0:0:0:
288,160,49271,1,8,0:0:0:0:
224,160,49346,1,0,0:0:0:0:
288,160,49421,1,8,0:0:0:0:
288,160,49496,1,8,0:0:0:0:
224,160,49646,1,0,0:0:0:0:
224,160,49796,1,0,0:0:0:0:
288,160,49871,1,8,0:0:0:0:
224,160,49946,1,0,0:0:0:0:
224,160,50021,1,0,0:0:0:0:
288,160,50096,1,8,0:0:0:0:
288,160,50246,1,8,0:0:0:0:
288,160,50321,1,8,0:0:0:0:
224,160,50396,1,0,0:0:0:0:
224,160,50546,1,0,0:0:0:0:
288,160,50696,1,8,0:0:0:0:
288,160,50846,1,8,0:0:0:0:
224,160,50921,1,0,0:0:0:0:
224,160,50996,1,0,0:0:0:0:
288,160,51071,1,8,0:0:0:0:
224,160,51146,1,0,0:0:0:0:
288,224,51296,1,12,0:0:0:0:
288,160,51521,1,8,0:0:0:0:
224,160,51596,1,0,0:0:0:0:
224,160,51746,1,0,0:0:0:0:
224,160,51821,1,0,0:0:0:0:
288,160,51896,1,8,0:0:0:0:
288,160,52046,1,8,0:0:0:0:
224,160,52121,1,0,0:0:0:0:
288,160,52196,1,8,0:0:0:0:
288,160,52271,1,8,0:0:0:0:
224,160,52346,1,0,0:0:0:0:
288,224,52496,1,12,0:0:0:0:
224,160,52796,1,0,0:0:0:0:
224,160,54296,1,0,0:0:0:0:
224,160,54896,1,0,0:0:0:0:
288,160,55196,1,8,0:0:0:0:
224,160,57596,1,0,0:0:0:0:
288,160,57896,1,8,0:0:0:0:
224,160,58796,1,0,0:0:0:0:
288,160,59696,1,8,0:0:0:0:
224,160,59996,1,0,0:0:0:0:
224,160,61196,1,0,0:0:0:0:
224,160,61796,1,0,0:0:0:0:
224,160,62396,1,0,0:0:0:0:
288,160,62696,1,8,0:0:0:0:
224,160,62846,1,0,0:0:0:0:
224,160,63146,1,0,0:0:0:0:
288,160,63296,1,8,0:0:0:0:
224,160,63596,1,0,0:0:0:0:
224,160,63896,1,0,0:0:0:0:
288,160,64046,1,8,0:0:0:0:
288,160,64346,1,8,0:0:0:0:
224,160,64496,1,0,0:0:0:0:
224,160,64796,1,0,0:0:0:0:
288,160,65096,1,8,0:0:0:0:
224,160,65246,1,0,0:0:0:0:
224,160,65546,1,0,0:0:0:0:
288,160,65696,1,8,0:0:0:0:
224,224,65996,1,4,0:0:0:0:
224,160,66296,1,0,0:0:0:0:
288,160,66446,1,8,0:0:0:0:
288,160,66746,1,8,0:0:0:0:
224,160,66896,1,0,0:0:0:0:
224,160,67196,1,0,0:0:0:0:
288,160,67346,1,8,0:0:0:0:
224,160,67496,1,0,0:0:0:0:
288,160,67646,1,8,0:0:0:0:
288,160,67946,1,8,0:0:0:0:
224,160,68096,1,0,0:0:0:0:
288,160,68246,1,8,0:0:0:0:
224,160,68396,1,0,0:0:0:0:
224,160,68546,1,0,0:0:0:0:
288,160,68696,1,8,0:0:0:0:
288,160,68846,1,8,0:0:0:0:
288,160,69071,1,8,0:0:0:0:
224,160,69146,1,0,0:0:0:0:
288,160,69296,1,8,0:0:0:0:
288,160,69446,1,8,0:0:0:0:
224,160,69596,1,0,0:0:0:0:
288,160,69671,1,8,0:0:0:0:
224,160,69746,1,0,0:0:0:0:
224,160,69821,1,0,0:0:0:0:
288,160,69896,1,8,0:0:0:0:
288,160,70046,1,8,0:0:0:0:
288,160,70196,1,8,0:0:0:0:
224,160,70271,1,0,0:0:0:0:
288,160,70346,1,8,0:0:0:0:
288,160,70421,1,8,0:0:0:0:
224,160,70496,1,0,0:0:0:0:
288,160,70646,1,8,0:0:0:0:
224,160,70796,1,0,0:0:0:0:
224,160,70946,1,0,0:0:0:0:
224,160,71021,1,0,0:0:0:0:
288,160,71096,1,8,0:0:0:0:
288,224,71246,1,12,0:0:0:0:
224,160,71396,1,0,0:0:0:0:
224,160,71546,1,0,0:0:0:0:
224,160,71596,1,0,0:0:0:0:
224,160,71646,1,0,0:0:0:0:
288,160,71696,1,8,0:0:0:0:
224,160,71771,1,0,0:0:0:0:
288,160,71846,1,8,0:0:0:0:
288,160,71921,1,8,0:0:0:0:
224,160,71996,1,0,0:0:0:0:
288,160,72296,1,8,0:0:0:0:
224,160,72446,1,0,0:0:0:0:
288,160,72521,1,8,0:0:0:0:
224,160,72596,1,0,0:0:0:0:
224,160,72746,1,0,0:0:0:0:
288,160,72896,1,8,0:0:0:0:
224,160,72971,1,0,0:0:0:0:
288,160,73046,1,8,0:0:0:0:
224,160,73196,1,0,0:0:0:0:
288,160,73496,1,8,0:0:0:0:
288,160,73646,1,8,0:0:0:0:
288,160,73721,1,8,0:0:0:0:
224,160,73796,1,0,0:0:0:0:
224,160,73946,1,0,0:0:0:0:
288,160,74096,1,8,0:0:0:0:
288,160,74146,1,8,0:0:0:0:
288,160,74196,1,8,0:0:0:0:
224,160,74246,1,0,0:0:0:0:
224,160,74396,1,0,0:0:0:0:
224,160,74546,1,0,0:0:0:0:
288,160,74696,1,8,0:0:0:0:
288,160,74746,1,8,0:0:0:0:
288,160,74796,1,8,0:0:0:0:
224,160,74846,1,0,0:0:0:0:
288,160,74921,1,8,0:0:0:0:
288,160,74996,1,0,0:0:0:0:
224,160,75146,1,0,0:0:0:0:
288,160,75296,1,8,0:0:0:0:
224,160,75371,1,0,0:0:0:0:
288,160,75446,1,8,0:0:0:0:
224,160,75596,1,0,0:0:0:0:
224,160,75671,1,0,0:0:0:0:
288,160,75746,1,8,0:0:0:0:
288,160,75821,1,8,0:0:0:0:
224,160,75896,1,0,0:0:0:0:
288,160,76046,1,8,0:0:0:0:
288,160,76096,1,8,0:0:0:0:
288,160,76146,1,8,0:0:0:0:
224,160,76196,1,0,0:0:0:0:
224,160,76346,1,0,0:0:0:0:
224,160,76421,1,0,0:0:0:0:
288,160,76496,1,8,0:0:0:0:
288,160,76646,1,8,0:0:0:0:
288,160,76721,1,8,0:0:0:0:
224,160,76796,1,0,0:0:0:0:
288,160,76946,1,8,0:0:0:0:
224,160,77096,1,0,0:0:0:0:
224,160,77246,1,0,0:0:0:0:
224,160,77321,1,0,0:0:0:0:
288,160,77396,1,8,0:0:0:0:
224,160,77546,1,0,0:0:0:0:
288,160,77621,1,8,0:0:0:0:
224,160,77696,1,0,0:0:0:0:
288,224,77846,1,12,0:0:0:0:
224,160,77996,1,0,0:0:0:0:
224,160,78146,1,0,0:0:0:0:
288,160,78296,1,8,0:0:0:0:
288,160,78446,1,8,0:0:0:0:
224,160,78521,1,0,0:0:0:0:
224,160,78596,1,0,0:0:0:0:
288,160,78671,1,8,0:0:0:0:
224,160,78746,1,0,0:0:0:0:
224,160,78821,1,0,0:0:0:0:
288,160,78896,1,8,0:0:0:0:
288,160,78933,1,8,0:0:0:0:
224,160,79046,1,0,0:0:0:0:
288,160,79121,1,8,0:0:0:0:
224,160,79196,1,0,0:0:0:0:
224,160,79346,1,0,0:0:0:0:
288,160,79496,1,8,0:0:0:0:
224,160,79646,1,0,0:0:0:0:
288,160,79721,1,8,0:0:0:0:
224,160,79796,1,0,0:0:0:0:
224,160,79871,1,0,0:0:0:0:
224,160,79946,1,0,0:0:0:0:
288,160,80096,1,8,0:0:0:0:
288,160,80146,1,8,0:0:0:0:
288,160,80196,1,8,0:0:0:0:
224,160,80246,1,0,0:0:0:0:
224,160,80321,1,0,0:0:0:0:
224,160,80396,1,0,0:0:0:0:
224,160,80546,1,0,0:0:0:0:
224,160,80621,1,0,0:0:0:0:
288,160,80696,1,8,0:0:0:0:
288,160,80846,1,8,0:0:0:0:
224,160,80921,1,0,0:0:0:0:
224,160,80996,1,0,0:0:0:0:
288,160,81071,1,8,0:0:0:0:
288,160,81221,1,8,0:0:0:0:
288,160,81296,1,8,0:0:0:0:
224,160,81371,1,0,0:0:0:0:
288,160,81446,1,8,0:0:0:0:
288,160,81521,1,8,0:0:0:0:
224,160,81596,1,0,0:0:0:0:
224,160,81746,1,0,0:0:0:0:
288,160,81896,1,8,0:0:0:0:
288,160,82046,1,8,0:0:0:0:
288,160,82121,1,8,0:0:0:0:
224,160,82196,1,0,0:0:0:0:
288,160,82271,1,8,0:0:0:0:
224,160,82421,1,0,0:0:0:0:
288,160,82496,1,8,0:0:0:0:
288,160,82571,1,8,0:0:0:0:
288,160,82646,1,8,0:0:0:0:
288,160,82721,1,8,0:0:0:0:
224,160,82796,1,0,0:0:0:0:
288,160,82946,1,8,0:0:0:0:
288,160,82996,1,8,0:0:0:0:
288,160,83046,1,8,0:0:0:0:
288,160,83096,1,8,0:0:0:0:
224,160,83246,1,0,0:0:0:0:
288,160,83321,1,8,0:0:0:0:
224,160,83471,1,0,0:0:0:0:
288,160,83546,1,8,0:0:0:0:
224,160,83621,1,0,0:0:0:0:
288,160,83696,1,8,0:0:0:0:
288,160,83771,1,8,0:0:0:0:
224,160,83846,1,0,0:0:0:0:
288,160,83921,1,8,0:0:0:0:
224,160,83996,1,0,0:0:0:0:
224,160,84146,1,0,0:0:0:0:
224,160,84221,1,0,0:0:0:0:
288,160,84296,1,8,0:0:0:0:
288,160,84333,1,8,0:0:0:0:
224,160,84446,1,0,0:0:0:0:
224,160,84596,1,0,0:0:0:0:
288,160,84671,1,8,0:0:0:0:
224,160,84746,1,0,0:0:0:0:
224,160,84821,1,0,0:0:0:0:
288,160,84896,1,8,0:0:0:0:
224,160,85046,1,0,0:0:0:0:
224,160,85196,1,0,0:0:0:0:
224,160,85271,1,0,0:0:0:0:
288,160,85346,1,8,0:0:0:0:
224,160,85421,1,0,0:0:0:0:
288,160,85496,1,8,0:0:0:0:
288,160,85546,1,8,0:0:0:0:
288,160,85596,1,8,0:0:0:0:
224,160,85646,1,0,0:0:0:0:
224,160,85721,1,0,0:0:0:0:
224,160,85796,1,0,0:0:0:0:
288,160,85871,1,8,0:0:0:0:
224,160,86021,1,0,0:0:0:0:
288,160,86096,1,8,0:0:0:0:
288,160,86171,1,8,0:0:0:0:
224,160,86246,1,0,0:0:0:0:
288,160,86321,1,8,0:0:0:0:
224,160,86396,1,0,0:0:0:0:
288,160,86996,1,8,0:0:0:0:
224,160,87596,1,0,0:0:0:0:
224,160,87746,1,0,0:0:0:0:
224,160,87821,1,0,0:0:0:0:
288,160,87896,1,8,0:0:0:0:
224,160,88046,1,0,0:0:0:0:
288,160,88121,1,8,0:0:0:0:
224,160,88196,1,0,0:0:0:0:
288,160,88271,1,8,0:0:0:0:
224,160,88346,1,0,0:0:0:0:
224,160,88421,1,0,0:0:0:0:
288,160,88496,1,8,0:0:0:0:
224,160,88646,1,0,0:0:0:0:
224,160,88796,1,0,0:0:0:0:
288,160,88871,1,8,0:0:0:0:
224,160,88946,1,0,0:0:0:0:
224,160,89021,1,0,0:0:0:0:
288,160,89096,1,8,0:0:0:0:
224,160,89246,1,0,0:0:0:0:
224,160,89321,1,0,0:0:0:0:
288,160,89396,1,8,0:0:0:0:
288,160,89446,1,8,0:0:0:0:
288,160,89496,1,8,0:0:0:0:
224,160,89546,1,0,0:0:0:0:
288,160,89696,1,8,0:0:0:0:
224,160,89846,1,0,0:0:0:0:
224,160,89921,1,0,0:0:0:0:
224,160,89996,1,0,0:0:0:0:
224,160,90146,1,0,0:0:0:0:
224,160,90221,1,0,0:0:0:0:
288,160,90296,1,8,0:0:0:0:
224,160,90446,1,0,0:0:0:0:
288,160,90496,1,8,0:0:0:0:
288,160,90546,1,8,0:0:0:0:
224,160,90596,1,0,0:0:0:0:
288,160,90746,1,8,0:0:0:0:
224,160,90821,1,0,0:0:0:0:
288,160,90896,1,8,0:0:0:0:
224,160,91196,1,0,0:0:0:0:
288,160,91233,1,8,0:0:0:0:
224,160,91346,1,0,0:0:0:0:
224,160,91421,1,0,0:0:0:0:
288,160,91496,1,8,0:0:0:0:
288,160,91571,1,8,0:0:0:0:
288,160,91721,1,8,0:0:0:0:
224,160,91796,1,0,0:0:0:0:
288,160,91871,1,8,0:0:0:0:
224,160,91946,1,0,0:0:0:0:
224,160,92021,1,0,0:0:0:0:
288,160,92096,1,8,0:0:0:0:
224,160,92246,1,0,0:0:0:0:
288,160,92321,1,8,0:0:0:0:
224,160,92396,1,0,0:0:0:0:
288,224,92696,1,12,0:0:0:0:
288,160,92846,1,8,0:0:0:0:
224,160,92996,1,0,0:0:0:0:
288,160,93071,1,8,0:0:0:0:
224,160,93146,1,0,0:0:0:0:
224,160,93221,1,0,0:0:0:0:
288,160,93296,1,8,0:0:0:0:
224,160,93446,1,0,0:0:0:0:
224,160,93596,1,0,0:0:0:0:
288,160,93671,1,8,0:0:0:0:
288,160,93746,1,8,0:0:0:0:
224,160,93821,1,0,0:0:0:0:
288,160,93896,1,8,0:0:0:0:
224,160,94046,1,0,0:0:0:0:
288,160,94121,1,8,0:0:0:0:
224,160,94196,1,0,0:0:0:0:
224,160,94271,1,0,0:0:0:0:
224,160,94346,1,0,0:0:0:0:
224,160,94421,1,0,0:0:0:0:
288,160,94496,1,8,0:0:0:0:
224,160,94646,1,0,0:0:0:0:
224,160,94796,1,0,0:0:0:0:
224,160,94946,1,0,0:0:0:0:
288,160,95096,1,8,0:0:0:0:
288,160,95246,1,8,0:0:0:0:
224,160,95321,1,0,0:0:0:0:
224,160,95396,1,0,0:0:0:0:
288,160,95471,1,8,0:0:0:0:
288,160,95696,1,8,0:0:0:0:
224,160,95996,1,0,0:0:0:0:
288,160,96296,1,8,0:0:0:0:
224,160,96446,1,0,0:0:0:0:
224,160,96521,1,0,0:0:0:0:
224,160,96596,1,0,0:0:0:0:
224,160,96746,1,0,0:0:0:0:
288,160,96896,1,8,0:0:0:0:
224,160,97196,1,0,0:0:0:0:
288,160,97496,1,8,0:0:0:0:
224,160,97646,1,0,0:0:0:0:
288,160,97721,1,8,0:0:0:0:
224,160,97796,1,0,0:0:0:0:
224,160,97946,1,0,0:0:0:0:
288,160,98096,1,8,0:0:0:0:
288,160,98246,1,8,0:0:0:0:
288,160,98321,1,8,0:0:0:0:
224,160,98396,1,0,0:0:0:0:
288,160,98696,1,8,0:0:0:0:
288,160,98846,1,8,0:0:0:0:
224,160,98921,1,0,0:0:0:0:
224,160,98996,1,0,0:0:0:0:
224,160,99071,1,0,0:0:0:0:
288,160,99146,1,8,0:0:0:0:
288,160,99296,1,8,0:0:0:0:
288,160,99521,1,8,0:0:0:0:
224,160,99596,1,0,0:0:0:0:
224,160,99746,1,0,0:0:0:0:
288,160,99896,1,8,0:0:0:0:
224,160,100046,1,0,0:0:0:0:
288,160,100121,1,8,0:0:0:0:
288,160,100271,1,8,0:0:0:0:
224,160,100346,1,0,0:0:0:0:
288,160,100496,1,8,0:0:0:0:
224,160,100796,1,0,0:0:0:0:
224,160,100946,1,0,0:0:0:0:
288,160,101096,1,8,0:0:0:0:
224,160,101246,1,0,0:0:0:0:
288,160,101321,1,8,0:0:0:0:
288,160,101396,1,8,0:0:0:0:
224,160,101546,1,0,0:0:0:0:
288,224,101696,1,12,0:0:0:0:
288,160,101846,1,8,0:0:0:0:
224,160,101996,1,0,0:0:0:0:
224,160,102146,1,0,0:0:0:0:
288,160,102296,1,8,0:0:0:0:
224,160,102446,1,0,0:0:0:0:
288,160,102521,1,8,0:0:0:0:
224,160,102596,1,0,0:0:0:0:
288,160,102746,1,8,0:0:0:0:
224,160,102896,1,0,0:0:0:0:
288,160,103046,1,8,0:0:0:0:
224,160,103196,1,0,0:0:0:0:
288,160,103496,1,8,0:0:0:0:
224,160,103646,1,0,0:0:0:0:
224,160,103721,1,0,0:0:0:0:
224,160,103796,1,0,0:0:0:0:
224,160,103946,1,0,0:0:0:0:
288,160,104096,1,8,0:0:0:0:
288,160,104321,1,8,0:0:0:0:
224,160,104396,1,0,0:0:0:0:
224,160,104546,1,0,0:0:0:0:
288,160,104696,1,8,0:0:0:0:
224,160,104846,1,0,0:0:0:0:
288,160,104921,1,8,0:0:0:0:
288,160,105071,1,8,0:0:0:0:
224,160,105146,1,0,0:0:0:0:
288,160,105296,1,8,0:0:0:0:
224,160,105596,1,0,0:0:0:0:
288,160,105896,1,8,0:0:0:0:
288,160,106496,1,8,0:0:0:0:
288,160,107096,1,8,0:0:0:0:
224,160,107396,1,0,0:0:0:0:
224,160,107546,1,0,0:0:0:0:
288,160,107696,1,8,0:0:0:0:
224,160,107996,1,0,0:0:0:0:
288,160,108296,1,8,0:0:0:0:
288,160,108446,1,8,0:0:0:0:
224,160,108596,1,0,0:0:0:0:
288,160,108671,1,8,0:0:0:0:
224,160,108746,1,0,0:0:0:0:
288,160,108896,1,8,0:0:0:0:
288,160,109121,1,8,0:0:0:0:
224,160,109196,1,0,0:0:0:0:
224,160,109346,1,0,0:0:0:0:
288,160,109496,1,8,0:0:0:0:
224,160,109646,1,0,0:0:0:0:
288,160,109721,1,8,0:0:0:0:
288,160,109871,1,8,0:0:0:0:
224,160,109946,1,0,0:0:0:0:
288,160,110096,1,8,0:0:0:0:
224,160,110396,1,0,0:0:0:0:
224,160,110546,1,0,0:0:0:0:
288,160,110696,1,8,0:0:0:0:
224,160,110846,1,0,0:0:0:0:
224,160,110921,1,0,0:0:0:0:
224,160,110996,1,0,0:0:0:0:
224,160,111146,1,0,0:0:0:0:
288,160,111296,1,8,0:0:0:0:
288,160,111446,1,8,0:0:0:0:
224,160,111596,1,0,0:0:0:0:
288,160,111896,1,8,0:0:0:0:
224,160,112046,1,0,0:0:0:0:
288,160,112121,1,8,0:0:0:0:
224,160,112196,1,0,0:0:0:0:
224,160,112346,1,0,0:0:0:0:
288,160,112496,1,8,0:0:0:0:
224,160,112646,1,0,0:0:0:0:
224,160,112796,1,0,0:0:0:0:
288,160,113096,1,8,0:0:0:0:
288,160,113246,1,8,0:0:0:0:
224,160,113396,1,0,0:0:0:0:
288,160,113471,1,8,0:0:0:0:
224,160,113546,1,0,0:0:0:0:
288,160,113696,1,8,0:0:0:0:
288,160,113921,1,8,0:0:0:0:
224,160,113996,1,0,0:0:0:0:
224,160,114146,1,0,0:0:0:0:
288,160,114296,1,8,0:0:0:0:
224,160,114446,1,0,0:0:0:0:
288,160,114521,1,8,0:0:0:0:
288,160,114671,1,8,0:0:0:0:
224,160,114746,1,0,0:0:0:0:
288,160,114896,1,8,0:0:0:0:
224,160,115196,1,0,0:0:0:0:
288,160,115496,1,8,0:0:0:0:
288,160,116096,1,8,0:0:0:0:
224,160,116396,1,0,0:0:0:0:
288,160,116471,1,8,0:0:0:0:
224,160,116546,1,0,0:0:0:0:
224,160,116696,1,0,0:0:0:0:
288,160,116846,1,8,0:0:0:0:
224,160,116996,1,0,0:0:0:0:
288,160,117296,1,8,0:0:0:0:
224,160,117596,1,0,0:0:0:0:
288,160,117896,1,8,0:0:0:0:
288,160,118046,1,8,0:0:0:0:
224,160,118196,1,0,0:0:0:0:
224,160,118271,1,0,0:0:0:0:
224,160,118346,1,0,0:0:0:0:
288,160,118496,1,8,0:0:0:0:
288,160,118721,1,8,0:0:0:0:
224,160,118796,1,0,0:0:0:0:
224,160,118946,1,0,0:0:0:0:
288,160,119096,1,8,0:0:0:0:
224,160,119246,1,0,0:0:0:0:
288,160,119321,1,8,0:0:0:0:
288,160,119471,1,8,0:0:0:0:
224,160,119546,1,0,0:0:0:0:
288,160,119696,1,8,0:0:0:0:
288,160,119996,1,8,0:0:0:0:
288,160,120146,1,8,0:0:0:0:
288,160,120296,1,8,0:0:0:0:
224,160,120446,1,0,0:0:0:0:
224,160,120596,1,0,0:0:0:0:
288,160,120746,1,8,0:0:0:0:
224,160,120896,1,0,0:0:0:0:
288,160,121046,1,8,0:0:0:0:
224,160,121196,1,0,0:0:0:0:
288,160,121496,1,8,0:0:0:0:
224,160,121646,1,0,0:0:0:0:
288,160,121721,1,8,0:0:0:0:
224,160,121796,1,0,0:0:0:0:
224,160,121946,1,0,0:0:0:0:
288,160,122096,1,8,0:0:0:0:
288,160,122246,1,8,0:0:0:0:
224,160,122396,1,0,0:0:0:0:
288,160,122696,1,8,0:0:0:0:
288,160,122846,1,8,0:0:0:0:
224,160,122996,1,0,0:0:0:0:
288,160,123071,1,8,0:0:0:0:
224,160,123146,1,0,0:0:0:0:
288,160,123296,1,8,0:0:0:0:
288,160,123521,1,8,0:0:0:0:
224,160,123596,1,0,0:0:0:0:
224,160,123746,1,0,0:0:0:0:
288,160,123896,1,8,0:0:0:0:
224,160,124046,1,0,0:0:0:0:
288,160,124121,1,8,0:0:0:0:
288,160,124271,1,8,0:0:0:0:
224,160,124346,1,0,0:0:0:0:
288,160,124496,1,8,0:0:0:0:
224,160,124796,1,0,0:0:0:0:
288,160,125396,1,8,0:0:0:0:
224,160,125846,1,0,0:0:0:0:
224,160,126296,1,0,0:0:0:0:
288,160,126596,1,8,0:0:0:0:
288,160,127046,1,8,0:0:0:0:
224,160,127196,1,0,0:0:0:0:
224,160,127346,1,0,0:0:0:0:
224,160,127646,1,0,0:0:0:0:
288,160,127796,1,8,0:0:0:0:
224,160,128096,1,0,0:0:0:0:
224,160,128246,1,0,0:0:0:0:
224,160,128696,1,0,0:0:0:0:
288,224,128996,1,12,0:0:0:0:
224,160,129596,1,0,0:0:0:0:
288,160,129746,1,8,0:0:0:0:
288,160,129896,1,8,0:0:0:0:
288,160,129971,1,8,0:0:0:0:
224,160,130046,1,0,0:0:0:0:
288,160,130196,1,8,0:0:0:0:
224,160,130346,1,0,0:0:0:0:
224,160,130496,1,0,0:0:0:0:
288,160,130796,1,8,0:0:0:0:
224,160,131096,1,0,0:0:0:0:
288,160,131396,1,8,0:0:0:0:
224,160,131996,1,0,0:0:0:0:
224,160,132146,1,0,0:0:0:0:
224,160,132446,1,0,0:0:0:0:
288,160,132596,1,8,0:0:0:0:
224,160,132896,1,0,0:0:0:0:
288,160,133046,1,8,0:0:0:0:
224,160,133346,1,0,0:0:0:0:
224,160,133646,1,0,0:0:0:0:
288,224,133796,1,12,0:0:0:0:
288,160,139196,5,8,0:0:0:0:
288,160,139646,1,8,0:0:0:0:
224,160,139796,1,0,0:0:0:0:
224,160,139871,1,0,0:0:0:0:
224,160,139946,1,0,0:0:0:0:
288,160,140096,1,8,0:0:0:0:
224,160,140246,1,0,0:0:0:0:
288,160,140321,1,8,0:0:0:0:
224,160,140396,1,0,0:0:0:0:
224,160,140471,1,0,0:0:0:0:
224,160,140546,1,0,0:0:0:0:
288,160,140696,1,8,0:0:0:0:
224,160,140846,1,0,0:0:0:0:
224,160,140921,1,0,0:0:0:0:
224,160,140996,1,0,0:0:0:0:
224,160,141146,1,0,0:0:0:0:
288,160,141296,1,8,0:0:0:0:
224,160,141596,1,0,0:0:0:0:
288,160,141746,1,8,0:0:0:0:
224,160,141896,1,0,0:0:0:0:
288,160,142046,1,8,0:0:0:0:
288,160,142346,1,8,0:0:0:0:
288,160,142496,1,8,0:0:0:0:
224,160,142646,1,0,0:0:0:0:
224,160,142721,1,0,0:0:0:0:
224,160,142796,1,0,0:0:0:0:
288,160,142871,1,8,0:0:0:0:
224,160,142946,1,0,0:0:0:0:
288,160,143096,1,8,0:0:0:0:
224,160,143246,1,0,0:0:0:0:
224,160,143321,1,0,0:0:0:0:
256,192,143396,12,8,143846,0:0:0:0:
224,160,143996,5,0,0:0:0:0:
224,160,144146,1,0,0:0:0:0:
288,160,144296,1,8,0:0:0:0:
288,160,144446,1,8,0:0:0:0:
288,160,144521,1,8,0:0:0:0:
224,160,144596,1,0,0:0:0:0:
224,160,144746,1,0,0:0:0:0:
288,160,144896,1,8,0:0:0:0:
224,160,145046,1,0,0:0:0:0:
288,160,145121,1,8,0:0:0:0:
224,160,145196,1,0,0:0:0:0:
224,160,145346,1,0,0:0:0:0:
224,160,145421,1,0,0:0:0:0:
288,160,145496,1,8,0:0:0:0:
288,160,145571,1,8,0:0:0:0:
224,160,145646,1,0,0:0:0:0:
288,160,145796,1,8,0:0:0:0:
224,160,145946,1,0,0:0:0:0:
288,160,146096,1,8,0:0:0:0:
224,160,146246,1,0,0:0:0:0:
288,160,146321,1,8,0:0:0:0:
224,160,146396,1,0,0:0:0:0:
224,160,146546,1,0,0:0:0:0:
288,160,146696,1,8,0:0:0:0:
224,160,146771,1,0,0:0:0:0:
288,160,146846,1,8,0:0:0:0:
288,160,146921,1,8,0:0:0:0:
224,160,146996,1,0,0:0:0:0:
288,160,147071,1,8,0:0:0:0:
224,160,147146,1,0,0:0:0:0:
224,160,147221,1,0,0:0:0:0:
288,160,147296,1,8,0:0:0:0:
288,160,147371,1,8,0:0:0:0:
224,160,147446,1,0,0:0:0:0:
288,160,147521,1,8,0:0:0:0:
224,160,147596,1,0,0:0:0:0:
224,160,147746,1,0,0:0:0:0:
288,160,147896,1,8,0:0:0:0:
224,160,148046,1,0,0:0:0:0:
224,160,148121,1,0,0:0:0:0:
288,160,148196,1,8,0:0:0:0:
224,160,148346,1,0,0:0:0:0:
224,160,148496,1,0,0:0:0:0:
288,160,148571,1,8,0:0:0:0:
288,160,148646,1,8,0:0:0:0:
288,160,148721,1,8,0:0:0:0:
224,160,148796,1,0,0:0:0:0:
224,160,148946,1,0,0:0:0:0:
224,160,149021,1,0,0:0:0:0:
288,160,149096,1,8,0:0:0:0:
224,160,149246,1,0,0:0:0:0:
288,160,149321,1,8,0:0:0:0:
224,160,149396,1,0,0:0:0:0:
288,160,149471,1,8,0:0:0:0:
224,160,149546,1,0,0:0:0:0:
288,224,149696,1,12,0:0:0:0:
224,160,149846,1,0,0:0:0:0:
224,160,149996,1,0,0:0:0:0:
224,160,150071,1,0,0:0:0:0:
224,160,150146,1,0,0:0:0:0:
224,160,150221,1,0,0:0:0:0:
288,160,150296,1,8,0:0:0:0:
288,160,150371,1,8,0:0:0:0:
224,160,150446,1,0,0:0:0:0:
224,160,150521,1,0,0:0:0:0:
224,160,150596,1,0,0:0:0:0:
224,160,150671,1,0,0:0:0:0:
288,160,150746,1,8,0:0:0:0:
288,224,150896,1,12,0:0:0:0:
288,160,151046,1,8,0:0:0:0:
288,160,151121,1,8,0:0:0:0:
224,160,151196,1,0,0:0:0:0:
224,160,151346,1,0,0:0:0:0:
224,160,151421,1,0,0:0:0:0:
288,160,151496,1,8,0:0:0:0:
224,160,151646,1,0,0:0:0:0:
224,160,151721,1,0,0:0:0:0:
224,160,151796,1,0,0:0:0:0:
288,160,151871,1,8,0:0:0:0:
224,160,151946,1,0,0:0:0:0:
288,224,152096,1,12,0:0:0:0:
288,160,152246,1,8,0:0:0:0:
224,160,152396,1,0,0:0:0:0:
224,160,152471,1,0,0:0:0:0:
288,160,152546,1,8,0:0:0:0:
224,160,152696,1,0,0:0:0:0:
224,160,152771,1,0,0:0:0:0:
288,160,152846,1,8,0:0:0:0:
224,160,152996,1,0,0:0:0:0:
224,160,153071,1,0,0:0:0:0:
288,160,153146,1,8,0:0:0:0:
224,160,153296,1,0,0:0:0:0:
288,160,153371,1,8,0:0:0:0:
224,160,153421,1,0,0:0:0:0:
224,160,153471,1,0,0:0:0:0:
288,160,153521,1,8,0:0:0:0:
224,160,153596,1,0,0:0:0:0:
224,160,153896,1,0,0:0:0:0:
288,160,154046,1,8,0:0:0:0:
224,160,154196,1,0,0:0:0:0:
224,160,154346,1,0,0:0:0:0:
224,160,154421,1,0,0:0:0:0:
288,160,154496,1,8,0:0:0:0:
288,160,154646,1,8,0:0:0:0:
288,160,154721,1,8,0:0:0:0:
224,160,154796,1,0,0:0:0:0:
224,160,154946,1,0,0:0:0:0:
288,160,155096,1,8,0:0:0:0:
224,160,155246,1,0,0:0:0:0:
288,160,155321,1,8,0:0:0:0:
224,160,155396,1,0,0:0:0:0:
288,160,155471,1,8,0:0:0:0:
224,160,155546,1,0,0:0:0:0:
288,160,155696,1,8,0:0:0:0:
288,160,155771,1,8,0:0:0:0:
288,160,155921,1,8,0:0:0:0:
224,160,155996,1,0,0:0:0:0:
224,160,156071,1,0,0:0:0:0:
288,160,156146,1,8,0:0:0:0:
224,160,156221,1,0,0:0:0:0:
288,160,156296,1,8,0:0:0:0:
288,160,156371,1,8,0:0:0:0:
224,160,156446,1,0,0:0:0:0:
288,160,156521,1,8,0:0:0:0:
224,160,156596,1,0,0:0:0:0:
288,160,156746,1,8,0:0:0:0:
288,224,156896,1,12,0:0:0:0:
224,160,157046,1,0,0:0:0:0:
224,160,157121,1,0,0:0:0:0:
288,160,157196,1,8,0:0:0:0:
224,160,157346,1,0,0:0:0:0:
288,160,157421,1,8,0:0:0:0:
224,160,157496,1,0,0:0:0:0:
288,160,157646,1,8,0:0:0:0:
288,160,157721,1,8,0:0:0:0:
224,160,157796,1,0,0:0:0:0:
288,160,157871,1,8,0:0:0:0:
224,160,157946,1,0,0:0:0:0:
288,224,158096,1,12,0:0:0:0:
224,160,158396,1,0,0:0:0:0:
224,160,158546,1,0,0:0:0:0:
224,160,158621,1,0,0:0:0:0:
288,160,158696,1,8,0:0:0:0:
224,160,158846,1,0,0:0:0:0:
288,160,158921,1,8,0:0:0:0:
224,160,158996,1,0,0:0:0:0:
224,160,159146,1,0,0:0:0:0:
224,160,159221,1,0,0:0:0:0:
288,160,159296,1,8,0:0:0:0:
288,160,159346,1,8,0:0:0:0:
224,160,159396,1,0,0:0:0:0:
288,160,159446,1,8,0:0:0:0:
224,160,159521,1,0,0:0:0:0:
288,160,159596,1,8,0:0:0:0:
224,160,159746,1,0,0:0:0:0:
224,160,159821,1,0,0:0:0:0:
288,160,159896,1,8,0:0:0:0:
224,160,160046,1,0,0:0:0:0:
224,160,160121,1,0,0:0:0:0:
288,160,160196,1,8,0:0:0:0:
224,160,160346,1,0,0:0:0:0:
224,160,160421,1,0,0:0:0:0:
288,160,160496,1,8,0:0:0:0:
224,160,160646,1,0,0:0:0:0:
224,160,160696,1,0,0:0:0:0:
224,160,160746,1,0,0:0:0:0:
224,160,160796,1,0,0:0:0:0:
224,160,160946,1,0,0:0:0:0:
224,160,161021,1,0,0:0:0:0:
288,160,161096,1,8,0:0:0:0:
224,160,161246,1,0,0:0:0:0:
224,160,161396,1,0,0:0:0:0:
288,160,161471,1,8,0:0:0:0:
224,160,161546,1,0,0:0:0:0:
288,224,161696,1,12,0:0:0:0:
288,160,161846,1,8,0:0:0:0:
288,160,161896,1,8,0:0:0:0:
288,160,161946,1,8,0:0:0:0:
224,160,161996,1,0,0:0:0:0:
288,160,162146,1,8,0:0:0:0:
288,160,162296,1,8,0:0:0:0:
288,160,162371,1,8,0:0:0:0:
288,160,162446,1,8,0:0:0:0:
288,160,162521,1,8,0:0:0:0:
224,160,162596,1,0,0:0:0:0:
224,160,162746,1,0,0:0:0:0:
288,160,162896,1,8,0:0:0:0:
224,160,162971,1,0,0:0:0:0:
288,160,163046,1,8,0:0:0:0:
288,160,163121,1,8,0:0:0:0:
224,160,163196,1,0,0:0:0:0:
288,160,163346,1,8,0:0:0:0:
288,160,163946,1,8,0:0:0:0:
224,160,164396,1,0,0:0:0:0:
224,160,164546,1,0,0:0:0:0:
288,160,164696,1,8,0:0:0:0:
224,160,164846,1,0,0:0:0:0:
288,160,164921,1,8,0:0:0:0:
224,160,164996,1,0,0:0:0:0:
288,160,165146,1,8,0:0:0:0:
288,160,165296,1,8,0:0:0:0:
288,160,165346,1,8,0:0:0:0:
288,160,165396,1,8,0:0:0:0:
224,160,165446,1,0,0:0:0:0:
224,160,165596,1,0,0:0:0:0:
224,160,165671,1,0,0:0:0:0:
224,160,165746,1,0,0:0:0:0:
288,224,165896,1,12,0:0:0:0:
224,160,166046,1,0,0:0:0:0:
288,160,166121,1,8,0:0:0:0:
288,160,166196,1,8,0:0:0:0:
224,160,166271,1,0,0:0:0:0:
224,160,166421,1,0,0:0:0:0:
288,160,166496,1,8,0:0:0:0:
288,160,166571,1,8,0:0:0:0:
288,160,166646,1,8,0:0:0:0:
288,160,166721,1,8,0:0:0:0:
224,160,166796,1,0,0:0:0:0:
224,160,166946,1,0,0:0:0:0:
224,160,167021,1,0,0:0:0:0:
288,160,167096,1,8,0:0:0:0:
224,160,167246,1,0,0:0:0:0:
288,160,167321,1,8,0:0:0:0:
224,160,167396,1,0,0:0:0:0:
224,160,167471,1,0,0:0:0:0:
224,160,167546,1,0,0:0:0:0:
288,160,167696,1,8,0:0:0:0:
288,160,167733,1,8,0:0:0:0:
288,160,167846,1,8,0:0:0:0:
288,160,167883,1,8,0:0:0:0:
224,160,167996,1,0,0:0:0:0:
288,160,168071,1,8,0:0:0:0:
224,160,168146,1,0,0:0:0:0:
224,160,168296,1,0,0:0:0:0:
288,160,168446,1,8,0:0:0:0:
224,160,168596,1,0,0:0:0:0:
224,160,168671,1,0,0:0:0:0:
288,160,168746,1,8,0:0:0:0:
288,160,168896,1,8,0:0:0:0:
224,160,169046,1,0,0:0:0:0:
224,160,169121,1,0,0:0:0:0:
224,160,169196,1,0,0:0:0:0:
288,160,169271,1,8,0:0:0:0:
224,160,169346,1,0,0:0:0:0:
224,160,169421,1,0,0:0:0:0:
288,160,169496,1,8,0:0:0:0:
224,160,169646,1,0,0:0:0:0:
288,160,169721,1,8,0:0:0:0:
288,160,169796,1,8,0:0:0:0:
288,160,169871,1,8,0:0:0:0:
224,160,169946,1,0,0:0:0:0:
224,160,170021,1,0,0:0:0:0:
288,160,170096,1,8,0:0:0:0:
288,160,170171,1,8,0:0:0:0:
288,160,170246,1,8,0:0:0:0:
288,160,170321,1,8,0:0:0:0:
224,160,170396,1,0,0:0:0:0:
224,160,170546,1,0,0:0:0:0:
288,160,170696,1,8,0:0:0:0:
224,160,170846,1,0,0:0:0:0:
288,160,170921,1,8,0:0:0:0:
224,160,170996,1,0,0:0:0:0:
224,160,171071,1,0,0:0:0:0:
224,160,171146,1,0,0:0:0:0:
288,160,171296,1,8,0:0:0:0:
224,160,171371,1,0,0:0:0:0:
288,160,171446,1,8,0:0:0:0:
288,160,171521,1,8,0:0:0:0:
224,160,171596,1,0,0:0:0:0:
224,160,171671,1,0,0:0:0:0:
224,160,171746,1,0,0:0:0:0:
288,224,171896,1,12,0:0:0:0:
224,160,172046,1,0,0:0:0:0:
224,160,172121,1,0,0:0:0:0:
288,160,172196,1,8,0:0:0:0:
288,160,172271,1,8,0:0:0:0:
224,160,172346,1,0,0:0:0:0:
288,160,172496,1,8,0:0:0:0:
288,160,172546,1,8,0:0:0:0:
288,160,172596,1,8,0:0:0:0:
288,160,172646,1,8,0:0:0:0:
288,160,172696,1,8,0:0:0:0:
288,160,172746,1,8,0:0:0:0:
224,160,172796,1,0,0:0:0:0:
288,160,172946,1,8,0:0:0:0:
288,160,173246,1,8,0:0:0:0:
224,160,173396,1,0,0:0:0:0:
288,160,173471,1,8,0:0:0:0:
288,160,173621,1,8,0:0:0:0:
224,160,173696,1,0,0:0:0:0:
224,160,173771,1,0,0:0:0:0:
288,160,173846,1,8,0:0:0:0:
288,160,173896,1,8,0:0:0:0:
288,160,173946,1,8,0:0:0:0:
224,160,173996,1,0,0:0:0:0:
224,160,174071,1,0,0:0:0:0:
224,160,174146,1,0,0:0:0:0:
224,160,174221,1,0,0:0:0:0:
288,160,174296,1,8,0:0:0:0:
288,160,174446,1,8,0:0:0:0:
288,160,174521,1,8,0:0:0:0:
224,160,174596,1,0,0:0:0:0:
288,160,174671,1,8,0:0:0:0:
224,160,174746,1,0,0:0:0:0:
288,224,174896,1,12,0:0:0:0:
224,160,175046,1,0,0:0:0:0:
288,160,175121,1,8,0:0:0:0:
224,160,175196,1,0,0:0:0:0:
288,160,175271,1,8,0:0:0:0:
224,160,175346,1,0,0:0:0:0:
288,224,175496,1,12,0:0:0:0:
288,224,175646,1,12,0:0:0:0:
224,224,175796,1,4,0:0:0:0:
224,224,175946,1,4,0:0:0:0:
288,224,176096,1,12,0:0:0:0:
288,160,176246,1,8,0:0:0:0:
288,160,176321,1,8,0:0:0:0:
224,160,176396,1,0,0:0:0:0:
224,160,176546,1,0,0:0:0:0:
288,160,176696,1,8,0:0:0:0:
224,160,176846,1,0,0:0:0:0:
224,160,176896,1,0,0:0:0:0:
224,160,176946,1,0,0:0:0:0:
224,160,176996,1,0,0:0:0:0:
288,160,177071,1,8,0:0:0:0:
224,160,177146,1,0,0:0:0:0:
224,160,177221,1,0,0:0:0:0:
288,160,177296,1,8,0:0:0:0:
288,160,177446,1,8,0:0:0:0:
288,160,177521,1,8,0:0:0:0:
224,160,177596,1,0,0:0:0:0:
224,160,177671,1,0,0:0:0:0:
224,160,177746,1,0,0:0:0:0:
224,160,177821,1,0,0:0:0:0:
288,160,177896,1,8,0:0:0:0:
288,160,178046,1,8,0:0:0:0:
224,160,178196,1,0,0:0:0:0:
288,160,178271,1,8,0:0:0:0:
224,160,178346,1,0,0:0:0:0:
224,160,178421,1,0,0:0:0:0:
288,160,178496,1,8,0:0:0:0:
288,160,178646,1,8,0:0:0:0:
224,160,178796,1,0,0:0:0:0:
288,160,178946,1,8,0:0:0:0:
288,160,178996,1,8,0:0:0:0:
288,160,179046,1,8,0:0:0:0:
224,160,179096,1,0,0:0:0:0:
224,160,179246,1,0,0:0:0:0:
288,160,179296,1,8,0:0:0:0:
288,160,179346,1,8,0:0:0:0:
224,160,179396,1,0,0:0:0:0:
288,160,179471,1,8,0:0:0:0:
224,160,179621,1,0,0:0:0:0:
288,160,179696,1,8,0:0:0:0:
288,160,179846,1,8,0:0:0:0:
288,160,179921,1,8,0:0:0:0:
224,160,179996,1,0,0:0:0:0:
288,160,180071,1,8,0:0:0:0:
224,160,180146,1,0,0:0:0:0:
224,160,180196,1,0,0:0:0:0:
224,160,180246,1,0,0:0:0:0:
288,160,180296,1,8,0:0:0:0:
224,160,180446,1,0,0:0:0:0:
224,160,180521,1,0,0:0:0:0:
288,160,180596,1,8,0:0:0:0:
288,160,180671,1,8,0:0:0:0:
288,160,180746,1,8,0:0:0:0:
288,224,180896,1,12,0:0:0:0:
224,160,181046,1,0,0:0:0:0:
224,160,181096,1,0,0:0:0:0:
224,160,181146,1,0,0:0:0:0:
288,160,181196,1,8,0:0:0:0:
224,160,181346,1,0,0:0:0:0:
224,160,181421,1,0,0:0:0:0:
288,160,181496,1,8,0:0:0:0:
288,160,181646,1,8,0:0:0:0:
224,160,181796,1,0,0:0:0:0:
288,160,181871,1,8,0:0:0:0:
224,160,181946,1,0,0:0:0:0:
224,160,182021,1,0,0:0:0:0:
288,160,182096,1,8,0:0:0:0:
288,160,182146,1,8,0:0:0:0:
288,160,182196,1,8,0:0:0:0:
224,160,182246,1,0,0:0:0:0:
224,160,182296,1,0,0:0:0:0:
224,160,182346,1,0,0:0:0:0:
288,160,182396,1,8,0:0:0:0:
