osu file format v14

[General]
AudioFilename: audio.mp3
AudioLeadIn: 0
PreviewTime: 124796
Countdown: 0
SampleSet: Normal
StackLeniency: 0.7
Mode: 1
LetterboxInBreaks: 0
WidescreenStoryboard: 0

[Editor]
Bookmarks: 115192
DistanceSpacing: 0.8
BeatDivisor: 4
GridSize: 32
TimelineZoom: 0.8

[Metadata]
Title:Six Acid Strings
TitleUnicode:Six Acid Strings
Artist:The Flashbulb
ArtistUnicode:The Flashbulb
Creator:Nardoxyribonucleic
Version:Futsuu
Source:osu!
Tags:Taiko Featured Artist FA Breakcore Benn Jordan Flexing Habitual Volta Greenshell
BeatmapID:2082121
BeatmapSetID:966451

[Difficulty]
HPDrainRate:6
CircleSize:5
OverallDifficulty:4
ApproachRate:4
SliderMultiplier:1.4
SliderTickRate:1

[Events]
//Background and Video events
0,0,"bg.jpg",0,0
//Break Periods
2,133996,137876
//Storyboard Layer 0 (Background)
//Storyboard Layer 1 (Fail)
//Storyboard Layer 2 (Pass)
//Storyboard Layer 3 (Foreground)
//Storyboard Sound Samples

[TimingPoints]
1196,300,4,1,0,60,1,0
14396,-100,4,1,0,75,0,0
15596,-100,4,1,0,85,0,0
23996,-100,4,1,0,100,0,1
43196,-100,4,1,0,85,0,0
43946,-112.359550561798,4,1,0,85,0,0
44396,-108.695652173913,4,1,0,85,0,0
44696,-106.382978723404,4,1,0,85,0,0
44996,-104.166666666667,4,1,0,85,0,0
45146,-103.092783505155,4,1,0,85,0,0
45296,-102.040816326531,4,1,0,85,0,0
45596,-100,4,1,0,85,0,0
52796,-100,4,1,0,70,0,0
53996,-117.647058823529,4,1,0,70,0,0
62396,-111.111111111111,4,1,0,80,0,0
67196,-105.263157894737,4,1,0,80,0,0
71546,-103.092783505155,4,1,0,80,0,0
71696,-102.040816326531,4,1,0,80,0,0
71996,-100,4,1,0,90,0,1
86396,-100,4,1,0,90,0,0
87596,-100,4,1,0,90,0,1
95696,-102.564102564103,4,1,0,90,0,1
95996,-105.263157894737,4,1,0,80,0,0
104996,-106.382978723404,4,1,0,80,0,0
105296,-108.695652173913,4,1,0,80,0,0
105446,-109.89010989011,4,1,0,80,0,0
105596,-111.111111111111,4,1,0,75,0,0
124196,-112.359550561798,4,1,0,75,0,0
124496,-114.942528735632,4,1,0,75,0,0
124646,-116.279069767442,4,1,0,75,0,0
124796,-117.647058823529,4,1,0,70,0,0
134396,-117.647058823529,4,1,0,60,0,0
139196,-100,4,1,0,60,0,0
143996,-100,4,1,0,85,0,0
154796,-100,4,1,0,100,0,1
163196,-100,4,1,0,80,0,0
164396,-100,4,1,0,100,0,1
182396,-100,4,1,0,100,0,0

[HitObjects]
256,192,2396,5,0,0:0:0:0:
256,192,2996,1,0,0:0:0:0:
256,192,3296,1,8,0:0:0:0:
256,192,3596,1,0,0:0:0:0:
256,192,4196,1,0,0:0:0:0:
256,192,4346,1,0,0:0:0:0:
256,192,4496,1,8,0:0:0:0:
256,192,4796,1,0,0:0:0:0:
256,192,5396,1,0,0:0:0:0:
256,192,5696,1,8,0:0:0:0:
256,192,5996,1,0,0:0:0:0:
256,192,6296,1,8,0:0:0:0:
256,192,6446,1,8,0:0:0:0:
256,192,6596,1,0,0:0:0:0:
256,192,6896,1,8,0:0:0:0:
256,192,7196,1,0,0:0:0:0:
256,192,7796,1,8,0:0:0:0:
256,192,8096,1,0,0:0:0:0:
256,192,8396,1,8,0:0:0:0:
256,192,8996,1,8,0:0:0:0:
256,192,9296,1,0,0:0:0:0:
256,192,9446,1,0,0:0:0:0:
256,192,9596,1,8,0:0:0:0:
256,192,9896,1,0,0:0:0:0:
256,192,10196,1,8,0:0:0:0:
256,192,10496,1,8,0:0:0:0:
256,192,10796,1,0,0:0:0:0:
256,192,11396,1,0,0:0:0:0:
256,192,11696,1,8,0:0:0:0:
256,192,11996,1,0,0:0:0:0:
256,192,12146,1,0,0:0:0:0:
256,192,12296,1,8,0:0:0:0:
256,192,12596,1,8,0:0:0:0:
256,192,12896,1,8,0:0:0:0:
256,192,13046,1,8,0:0:0:0:
256,192,13196,1,0,0:0:0:0:
256,192,13496,1,8,0:0:0:0:
256,192,14096,1,8,0:0:0:0:
256,192,14396,1,0,0:0:0:0:
256,192,14996,1,8,0:0:0:0:
256,192,15146,1,8,0:0:0:0:
256,192,15296,1,8,0:0:0:0:
256,192,15596,1,0,0:0:0:0:
256,192,16196,1,0,0:0:0:0:
256,192,16346,1,0,0:0:0:0:
256,192,16496,1,8,0:0:0:0:
256,192,16796,1,0,0:0:0:0:
256,192,17096,1,8,0:0:0:0:
256,192,17246,1,0,0:0:0:0:
256,192,17396,1,0,0:0:0:0:
256,192,17696,1,12,0:0:0:0:
256,192,18296,1,8,0:0:0:0:
256,192,18596,1,0,0:0:0:0:
256,192,18896,1,0,0:0:0:0:
256,192,19046,1,8,0:0:0:0:
256,192,19196,1,0,0:0:0:0:
256,192,19496,1,8,0:0:0:0:
256,192,19796,1,0,0:0:0:0:
256,192,19946,1,0,0:0:0:0:
256,192,20096,1,8,0:0:0:0:
256,192,20396,1,8,0:0:0:0:
256,192,20996,1,0,0:0:0:0:
256,192,21296,1,8,0:0:0:0:
256,192,21596,1,0,0:0:0:0:
256,192,21896,1,8,0:0:0:0:
256,192,22046,1,0,0:0:0:0:
256,192,22196,1,8,0:0:0:0:
256,192,22796,1,0,0:0:0:0:
256,192,23096,1,8,0:0:0:0:
256,192,23246,1,0,0:0:0:0:
256,192,23396,1,0,0:0:0:0:
256,192,23696,1,8,0:0:0:0:
256,192,23996,1,0,0:0:0:0:
256,192,24746,1,0,0:0:0:0:
256,192,25196,1,0,0:0:0:0:
256,192,25496,1,8,0:0:0:0:
256,192,25796,1,0,0:0:0:0:
256,192,25946,1,8,0:0:0:0:
256,192,26096,1,8,0:0:0:0:
256,192,26396,1,8,0:0:0:0:
256,192,26996,1,0,0:0:0:0:
256,192,27296,1,8,0:0:0:0:
256,192,27596,1,0,0:0:0:0:
256,192,27896,1,8,0:0:0:0:
256,192,28046,1,8,0:0:0:0:
256,192,28196,1,0,0:0:0:0:
256,192,28496,1,8,0:0:0:0:
256,192,28796,1,0,0:0:0:0:
256,192,29396,1,8,0:0:0:0:
256,192,29696,1,8,0:0:0:0:
256,192,29996,1,0,0:0:0:0:
256,192,30146,1,0,0:0:0:0:
256,192,30296,1,8,0:0:0:0:
256,192,30596,1,0,0:0:0:0:
256,192,30896,1,8,0:0:0:0:
256,192,31196,1,0,0:0:0:0:
256,192,31496,1,8,0:0:0:0:
256,192,31646,1,8,0:0:0:0:
256,192,31796,1,0,0:0:0:0:
256,192,32096,1,12,0:0:0:0:
256,192,32696,1,8,0:0:0:0:
256,192,32996,1,8,0:0:0:0:
256,192,33146,1,0,0:0:0:0:
256,192,33296,1,8,0:0:0:0:
256,192,33596,1,0,0:0:0:0:
256,192,33896,1,8,0:0:0:0:
256,192,34196,1,0,0:0:0:0:
256,192,34346,1,8,0:0:0:0:
256,192,34496,1,8,0:0:0:0:
256,192,35096,1,8,0:0:0:0:
256,192,35396,1,0,0:0:0:0:
256,192,35546,1,0,0:0:0:0:
256,192,35696,1,8,0:0:0:0:
256,192,35996,1,0,0:0:0:0:
256,192,36296,1,8,0:0:0:0:
256,192,36596,1,0,0:0:0:0:
256,192,36746,1,8,0:0:0:0:
256,192,37046,1,8,0:0:0:0:
256,192,37196,1,0,0:0:0:0:
256,192,37496,1,8,0:0:0:0:
256,192,37796,1,0,0:0:0:0:
256,192,38096,1,8,0:0:0:0:
256,192,38246,1,0,0:0:0:0:
256,192,38396,1,0,0:0:0:0:
256,192,38696,1,8,0:0:0:0:
256,192,39296,1,8,0:0:0:0:
256,192,39596,1,0,0:0:0:0:
256,192,39896,1,8,0:0:0:0:
256,192,40046,1,0,0:0:0:0:
256,192,40196,1,8,0:0:0:0:
256,192,40496,1,8,0:0:0:0:
256,192,40796,1,0,0:0:0:0:
256,192,41096,1,8,0:0:0:0:
256,192,41396,1,0,0:0:0:0:
256,192,41546,1,8,0:0:0:0:
256,192,41696,1,8,0:0:0:0:
256,192,41996,1,0,0:0:0:0:
256,192,42146,1,0,0:0:0:0:
256,192,42296,1,8,0:0:0:0:
256,192,42596,1,0,0:0:0:0:
256,192,42896,1,12,0:0:0:0:
256,192,43196,1,0,0:0:0:0:
256,192,43946,1,0,0:0:0:0:
256,192,44396,1,0,0:0:0:0:
256,192,44696,1,8,0:0:0:0:
256,192,44996,1,0,0:0:0:0:
256,192,45146,1,8,0:0:0:0:
256,192,45296,1,8,0:0:0:0:
256,192,45596,1,0,0:0:0:0:
256,192,46196,1,0,0:0:0:0:
256,192,46496,1,8,0:0:0:0:
256,192,46646,1,8,0:0:0:0:
256,192,46796,1,0,0:0:0:0:
256,192,47096,1,8,0:0:0:0:
256,192,47396,1,0,0:0:0:0:
256,192,47996,1,8,0:0:0:0:
256,192,48296,1,8,0:0:0:0:
256,192,48446,1,0,0:0:0:0:
256,192,48746,1,0,0:0:0:0:
256,192,48896,1,8,0:0:0:0:
256,192,49496,1,8,0:0:0:0:
256,192,50096,1,8,0:0:0:0:
256,192,50396,1,0,0:0:0:0:
256,192,50546,1,0,0:0:0:0:
256,192,50696,1,8,0:0:0:0:
256,192,50996,1,0,0:0:0:0:
256,192,51296,1,8,0:0:0:0:
256,192,51596,1,0,0:0:0:0:
256,192,51896,1,8,0:0:0:0:
256,192,52046,1,0,0:0:0:0:
256,192,52196,1,8,0:0:0:0:
256,192,52496,1,8,0:0:0:0:
256,192,52796,1,0,0:0:0:0:
256,192,54296,1,0,0:0:0:0:
256,192,54896,1,8,0:0:0:0:
256,192,55196,1,0,0:0:0:0:
256,192,55796,1,8,0:0:0:0:
256,192,56396,1,8,0:0:0:0:
256,192,56696,1,0,0:0:0:0:
256,192,56846,1,0,0:0:0:0:
256,192,56996,1,8,0:0:0:0:
256,192,57296,1,8,0:0:0:0:
256,192,57596,1,0,0:0:0:0:
256,192,57896,1,8,0:0:0:0:
256,192,58796,1,0,0:0:0:0:
256,192,59696,1,8,0:0:0:0:
256,192,59996,1,0,0:0:0:0:
256,192,60446,1,0,0:0:0:0:
256,192,60896,1,0,0:0:0:0:
256,192,61196,1,8,0:0:0:0:
256,192,62396,1,0,0:0:0:0:
256,192,62846,1,0,0:0:0:0:
256,192,63596,1,0,0:0:0:0:
256,192,64046,1,0,0:0:0:0:
256,192,64796,1,0,0:0:0:0:
256,192,65246,1,0,0:0:0:0:
256,192,65996,1,0,0:0:0:0:
256,192,66446,1,0,0:0:0:0:
256,192,67196,1,0,0:0:0:0:
256,192,67646,1,8,0:0:0:0:
256,192,68396,1,0,0:0:0:0:
256,192,68846,1,8,0:0:0:0:
256,192,69596,1,0,0:0:0:0:
256,192,70046,1,8,0:0:0:0:
256,192,70796,1,0,0:0:0:0:
256,192,71246,1,8,0:0:0:0:
256,192,71546,1,0,0:0:0:0:
256,192,71696,1,8,0:0:0:0:
256,192,71996,1,0,0:0:0:0:
256,192,72296,1,8,0:0:0:0:
256,192,72446,1,0,0:0:0:0:
256,192,72896,1,8,0:0:0:0:
256,192,73196,1,0,0:0:0:0:
256,192,73496,1,8,0:0:0:0:
256,192,73646,1,0,0:0:0:0:
256,192,73946,1,8,0:0:0:0:
256,192,74096,1,8,0:0:0:0:
256,192,74396,1,0,0:0:0:0:
256,192,74996,1,0,0:0:0:0:
256,192,75146,1,0,0:0:0:0:
256,192,75296,1,8,0:0:0:0:
256,192,75596,1,0,0:0:0:0:
256,192,75896,1,8,0:0:0:0:
256,192,76046,1,8,0:0:0:0:
256,192,76496,1,8,0:0:0:0:
256,192,76796,1,0,0:0:0:0:
256,192,76946,1,8,0:0:0:0:
256,192,77396,1,0,0:0:0:0:
256,192,77846,1,12,0:0:0:0:
256,192,78146,1,0,0:0:0:0:
256,192,78296,1,8,0:0:0:0:
256,192,78596,1,0,0:0:0:0:
256,192,78896,1,8,0:0:0:0:
256,192,79196,1,0,0:0:0:0:
256,192,79496,1,8,0:0:0:0:
256,192,79646,1,8,0:0:0:0:
256,192,79796,1,0,0:0:0:0:
256,192,80096,1,8,0:0:0:0:
256,192,80396,1,0,0:0:0:0:
256,192,80996,1,0,0:0:0:0:
256,192,81146,1,0,0:0:0:0:
256,192,81296,1,0,0:0:0:0:
256,192,81596,1,0,0:0:0:0:
256,192,81896,1,8,0:0:0:0:
256,192,82196,1,0,0:0:0:0:
256,192,82496,1,8,0:0:0:0:
256,192,82796,1,0,0:0:0:0:
256,192,82946,1,8,0:0:0:0:
256,192,83246,1,0,0:0:0:0:
256,192,83546,1,0,0:0:0:0:
256,192,83696,1,8,0:0:0:0:
256,192,83996,1,0,0:0:0:0:
256,192,84296,1,8,0:0:0:0:
256,192,84596,1,0,0:0:0:0:
256,192,85196,1,0,0:0:0:0:
256,192,85346,1,0,0:0:0:0:
256,192,85496,1,8,0:0:0:0:
256,192,85646,1,8,0:0:0:0:
256,192,85796,1,0,0:0:0:0:
256,192,86096,1,8,0:0:0:0:
256,192,86396,1,0,0:0:0:0:
256,192,86996,1,8,0:0:0:0:
256,192,87596,1,0,0:0:0:0:
256,192,87896,1,8,0:0:0:0:
256,192,88046,1,0,0:0:0:0:
256,192,88496,1,8,0:0:0:0:
256,192,88796,1,0,0:0:0:0:
256,192,89096,1,8,0:0:0:0:
256,192,89246,1,0,0:0:0:0:
256,192,89396,1,8,0:0:0:0:
256,192,89696,1,8,0:0:0:0:
256,192,89996,1,0,0:0:0:0:
256,192,90596,1,0,0:0:0:0:
256,192,90746,1,0,0:0:0:0:
256,192,90896,1,8,0:0:0:0:
256,192,91196,1,0,0:0:0:0:
256,192,91496,1,8,0:0:0:0:
256,192,91646,1,0,0:0:0:0:
256,192,92096,1,8,0:0:0:0:
256,192,92396,1,0,0:0:0:0:
256,192,92696,1,12,0:0:0:0:
256,192,93296,1,8,0:0:0:0:
256,192,93596,1,0,0:0:0:0:
256,192,93896,1,8,0:0:0:0:
256,192,94046,1,0,0:0:0:0:
256,192,94496,1,8,0:0:0:0:
256,192,94796,1,0,0:0:0:0:
256,192,95096,1,8,0:0:0:0:
256,192,95246,1,0,0:0:0:0:
256,192,95396,1,0,0:0:0:0:
256,192,95696,1,8,0:0:0:0:
256,192,95996,1,0,0:0:0:0:
256,192,96296,1,8,0:0:0:0:
256,192,96446,1,0,0:0:0:0:
256,192,96896,1,8,0:0:0:0:
256,192,97196,1,0,0:0:0:0:
256,192,97796,1,0,0:0:0:0:
256,192,97946,1,0,0:0:0:0:
256,192,98096,1,8,0:0:0:0:
256,192,98396,1,0,0:0:0:0:
256,192,98696,1,8,0:0:0:0:
256,192,98846,1,0,0:0:0:0:
256,192,99296,1,8,0:0:0:0:
256,192,99596,1,0,0:0:0:0:
256,192,100196,1,8,0:0:0:0:
256,192,100346,1,0,0:0:0:0:
256,192,100496,1,8,0:0:0:0:
256,192,100796,1,0,0:0:0:0:
256,192,101096,1,8,0:0:0:0:
256,192,101246,1,0,0:0:0:0:
256,192,101696,1,8,0:0:0:0:
256,192,101996,1,0,0:0:0:0:
256,192,102596,1,0,0:0:0:0:
256,192,102746,1,0,0:0:0:0:
256,192,102896,1,8,0:0:0:0:
256,192,103196,1,0,0:0:0:0:
256,192,103496,1,8,0:0:0:0:
256,192,103646,1,0,0:0:0:0:
256,192,104096,1,8,0:0:0:0:
256,192,104396,1,0,0:0:0:0:
256,192,104996,1,0,0:0:0:0:
256,192,105296,1,8,0:0:0:0:
256,192,105446,1,8,0:0:0:0:
256,192,105596,1,0,0:0:0:0:
256,192,105896,1,8,0:0:0:0:
256,192,106496,1,8,0:0:0:0:
256,192,106796,1,0,0:0:0:0:
256,192,107396,1,0,0:0:0:0:
256,192,107696,1,8,0:0:0:0:
256,192,107996,1,0,0:0:0:0:
256,192,108296,1,8,0:0:0:0:
256,192,108446,1,8,0:0:0:0:
256,192,108896,1,8,0:0:0:0:
256,192,109196,1,0,0:0:0:0:
256,192,109796,1,8,0:0:0:0:
256,192,110096,1,8,0:0:0:0:
256,192,110396,1,0,0:0:0:0:
256,192,110696,1,8,0:0:0:0:
256,192,111296,1,8,0:0:0:0:
256,192,111596,1,0,0:0:0:0:
256,192,112196,1,0,0:0:0:0:
256,192,112496,1,8,0:0:0:0:
256,192,112796,1,0,0:0:0:0:
256,192,113096,1,8,0:0:0:0:
256,192,113246,1,8,0:0:0:0:
256,192,113696,1,8,0:0:0:0:
256,192,113996,1,0,0:0:0:0:
256,192,114596,1,8,0:0:0:0:
256,192,114896,1,8,0:0:0:0:
256,192,115196,1,0,0:0:0:0:
256,192,115496,1,8,0:0:0:0:
256,192,116096,1,8,0:0:0:0:
256,192,116396,1,0,0:0:0:0:
256,192,116546,1,0,0:0:0:0:
256,192,116696,1,8,0:0:0:0:
256,192,116996,1,0,0:0:0:0:
256,192,117296,1,8,0:0:0:0:
256,192,117596,1,0,0:0:0:0:
256,192,117896,1,8,0:0:0:0:
256,192,118046,1,8,0:0:0:0:
256,192,118496,1,8,0:0:0:0:
256,192,118796,1,0,0:0:0:0:
256,192,119396,1,8,0:0:0:0:
256,192,119696,1,0,0:0:0:0:
256,192,119996,1,8,0:0:0:0:
256,192,120296,1,8,0:0:0:0:
256,192,120446,1,8,0:0:0:0:
256,192,120596,1,0,0:0:0:0:
256,192,120896,1,8,0:0:0:0:
256,192,121196,1,0,0:0:0:0:
256,192,121796,1,0,0:0:0:0:
256,192,122096,1,8,0:0:0:0:
256,192,122396,1,0,0:0:0:0:
256,192,122696,1,8,0:0:0:0:
256,192,122846,1,8,0:0:0:0:
256,192,123296,1,8,0:0:0:0:
256,192,123596,1,0,0:0:0:0:
256,192,124196,1,0,0:0:0:0:
256,192,124496,1,8,0:0:0:0:
256,192,124646,1,8,0:0:0:0:
256,192,124796,1,0,0:0:0:0:
256,192,125396,1,8,0:0:0:0:
256,192,126296,1,0,0:0:0:0:
256,192,126596,1,8,0:0:0:0:
256,192,127196,1,0,0:0:0:0:
256,192,127796,1,8,0:0:0:0:
256,192,128396,1,0,0:0:0:0:
256,192,128696,1,0,0:0:0:0:
256,192,128996,1,8,0:0:0:0:
256,192,129596,1,0,0:0:0:0:
256,192,129896,1,8,0:0:0:0:
256,192,130796,1,0,0:0:0:0:
256,192,131696,1,8,0:0:0:0:
256,192,131996,1,0,0:0:0:0:
256,192,132596,1,8,0:0:0:0:
256,192,133196,1,0,0:0:0:0:
256,192,133496,1,0,0:0:0:0:
256,192,133796,1,8,0:0:0:0:
256,192,139196,5,8,0:0:0:0:
256,192,139796,1,0,0:0:0:0:
256,192,140096,1,8,0:0:0:0:
256,192,140396,1,0,0:0:0:0:
256,192,140996,1,8,0:0:0:0:
256,192,141296,1,8,0:0:0:0:
256,192,141596,1,8,0:0:0:0:
256,192,141896,1,0,0:0:0:0:
256,192,142046,1,8,0:0:0:0:
256,192,142196,1,0,0:0:0:0:
256,192,142496,1,8,0:0:0:0:
256,192,142796,1,0,0:0:0:0:
256,192,142946,1,0,0:0:0:0:
256,192,143096,1,8,0:0:0:0:
256,192,143396,1,0,0:0:0:0:
256,192,143996,1,0,0:0:0:0:
256,192,144596,1,0,0:0:0:0:
256,192,144896,1,8,0:0:0:0:
256,192,145196,1,0,0:0:0:0:
256,192,145796,1,8,0:0:0:0:
256,192,145946,1,0,0:0:0:0:
256,192,146096,1,8,0:0:0:0:
256,192,146396,1,0,0:0:0:0:
256,192,146696,1,8,0:0:0:0:
256,192,146846,1,0,0:0:0:0:
256,192,146996,1,0,0:0:0:0:
256,192,147296,1,8,0:0:0:0:
256,192,147596,1,0,0:0:0:0:
256,192,148196,1,8,0:0:0:0:
256,192,148496,1,8,0:0:0:0:
256,192,148646,1,8,0:0:0:0:
256,192,148796,1,0,0:0:0:0:
256,192,149096,1,8,0:0:0:0:
256,192,149396,1,0,0:0:0:0:
256,192,149696,1,12,0:0:0:0:
256,192,149996,1,0,0:0:0:0:
256,192,150146,1,0,0:0:0:0:
256,192,150296,1,8,0:0:0:0:
256,192,150596,1,0,0:0:0:0:
256,192,150896,1,12,0:0:0:0:
256,192,151496,1,8,0:0:0:0:
256,192,151796,1,0,0:0:0:0:
256,192,152096,1,12,0:0:0:0:
256,192,152396,1,0,0:0:0:0:
256,192,152696,1,0,0:0:0:0:
256,192,152996,1,0,0:0:0:0:
256,192,153146,1,8,0:0:0:0:
256,192,153296,1,0,0:0:0:0:
256,192,153446,1,0,0:0:0:0:
256,192,153596,1,0,0:0:0:0:
256,192,154196,1,8,0:0:0:0:
256,192,154496,1,8,0:0:0:0:
256,192,154796,1,0,0:0:0:0:
256,192,155396,1,0,0:0:0:0:
256,192,155546,1,8,0:0:0:0:
256,192,155696,1,8,0:0:0:0:
256,192,155996,1,0,0:0:0:0:
256,192,156146,1,0,0:0:0:0:
256,192,156296,1,8,0:0:0:0:
256,192,156596,1,8,0:0:0:0:
256,192,156896,1,4,0:0:0:0:
256,192,157196,1,0,0:0:0:0:
256,192,157496,1,8,0:0:0:0:
256,192,157646,1,0,0:0:0:0:
256,192,157796,1,8,0:0:0:0:
256,192,158096,1,4,0:0:0:0:
256,192,158696,1,8,0:0:0:0:
256,192,158996,1,0,0:0:0:0:
256,192,159146,1,0,0:0:0:0:
256,192,159296,1,8,0:0:0:0:
256,192,159596,1,8,0:0:0:0:
256,192,159896,1,8,0:0:0:0:
256,192,160046,1,8,0:0:0:0:
256,192,160196,1,8,0:0:0:0:
256,192,160496,1,8,0:0:0:0:
256,192,160796,1,0,0:0:0:0:
256,192,161096,1,8,0:0:0:0:
256,192,161246,1,0,0:0:0:0:
256,192,161396,1,8,0:0:0:0:
256,192,161696,1,4,0:0:0:0:
256,192,161996,1,0,0:0:0:0:
256,192,162296,1,8,0:0:0:0:
256,192,162446,1,8,0:0:0:0:
256,192,162596,1,0,0:0:0:0:
256,192,162896,1,8,0:0:0:0:
256,192,163196,1,0,0:0:0:0:
256,192,163946,1,8,0:0:0:0:
256,192,164396,1,0,0:0:0:0:
256,192,164696,1,8,0:0:0:0:
256,192,164996,1,0,0:0:0:0:
256,192,165296,1,8,0:0:0:0:
256,192,165446,1,8,0:0:0:0:
256,192,165596,1,0,0:0:0:0:
256,192,165896,1,12,0:0:0:0:
256,192,166496,1,8,0:0:0:0:
256,192,166646,1,8,0:0:0:0:
256,192,166796,1,0,0:0:0:0:
256,192,167096,1,8,0:0:0:0:
256,192,167396,1,0,0:0:0:0:
256,192,167546,1,0,0:0:0:0:
256,192,167696,1,8,0:0:0:0:
256,192,167996,1,8,0:0:0:0:
256,192,168296,1,0,0:0:0:0:
256,192,168446,1,8,0:0:0:0:
256,192,168746,1,8,0:0:0:0:
256,192,168896,1,8,0:0:0:0:
256,192,169196,1,0,0:0:0:0:
256,192,169496,1,8,0:0:0:0:
256,192,169646,1,0,0:0:0:0:
256,192,169796,1,0,0:0:0:0:
256,192,170096,1,8,0:0:0:0:
256,192,170246,1,8,0:0:0:0:
256,192,170396,1,0,0:0:0:0:
256,192,170996,1,8,0:0:0:0:
256,192,171146,1,0,0:0:0:0:
256,192,171296,1,8,0:0:0:0:
256,192,171596,1,0,0:0:0:0:
256,192,171896,1,12,0:0:0:0:
256,192,172196,1,0,0:0:0:0:
256,192,172496,1,8,0:0:0:0:
256,192,172796,1,0,0:0:0:0:
256,192,172946,1,8,0:0:0:0:
256,192,173246,1,0,0:0:0:0:
256,192,173546,1,8,0:0:0:0:
256,192,173696,1,0,0:0:0:0:
256,192,173996,1,0,0:0:0:0:
256,192,174296,1,8,0:0:0:0:
256,192,174446,1,8,0:0:0:0:
256,192,174596,1,8,0:0:0:0:
256,192,174896,1,12,0:0:0:0:
256,192,175196,1,0,0:0:0:0:
256,192,175346,1,0,0:0:0:0:
256,192,175496,1,8,0:0:0:0:
256,192,175796,1,8,0:0:0:0:
256,192,175946,1,8,0:0:0:0:
256,192,176096,1,0,0:0:0:0:
256,192,176396,1,0,0:0:0:0:
256,192,176996,1,0,0:0:0:0:
256,192,177146,1,8,0:0:0:0:
256,192,177296,1,8,0:0:0:0:
256,192,177596,1,8,0:0:0:0:
256,192,177896,1,0,0:0:0:0:
256,192,178196,1,0,0:0:0:0:
256,192,178346,1,0,0:0:0:0:
256,192,178496,1,8,0:0:0:0:
256,192,178796,1,0,0:0:0:0:
256,192,179096,1,8,0:0:0:0:
256,192,179246,1,8,0:0:0:0:
256,192,179396,1,0,0:0:0:0:
256,192,179696,1,8,0:0:0:0:
256,192,179996,1,0,0:0:0:0:
256,192,180296,1,8,0:0:0:0:
256,192,180446,1,8,0:0:0:0:
256,192,180596,1,8,0:0:0:0:
256,192,180896,1,12,0:0:0:0:
256,192,181196,1,8,0:0:0:0:
256,192,181496,1,8,0:0:0:0:
256,192,181646,1,8,0:0:0:0:
256,192,181796,1,0,0:0:0:0:
256,192,181946,1,0,0:0:0:0:
256,192,182096,1,8,0:0:0:0:
256,192,182396,1,4,0:0:0:0:
