osu file format v14

[General]
AudioFilename: D.mp3
AudioLeadIn: 0
PreviewTime: 6
Countdown: 0
SampleSet: Soft
StackLeniency: 0.2
Mode: 0
LetterboxInBreaks: 1
WidescreenStoryboard: 1

[Editor]
Bookmarks: 26748,48081,66748,85414,101414
DistanceSpacing: 1.2
BeatDivisor: 8
GridSize: 32
TimelineZoom: 3.099999

[Metadata]
Title:Passage D
TitleUnicode:Passage D
Artist:The Flashbulb
ArtistUnicode:The Flashbulb
Creator:z1085684963
Version:Pata-Mon's Hyper
Source:osu!
Tags:ErMei moonlightleaf Lyric pata-mon Kirlian Selections benn jordan breakcore featured artist
BeatmapID:999380
BeatmapSetID:400300

[Difficulty]
HPDrainRate:5
CircleSize:4
OverallDifficulty:6
ApproachRate:8
SliderMultiplier:1.35
SliderTickRate:1

[Events]
//Background and Video events
0,0,"44585426.jpg",0,0
//Break Periods
2,45614,47023
//Storyboard Layer 0 (Background)
//Storyboard Layer 1 (Fail)
//Storyboard Layer 2 (Pass)
//Storyboard Layer 3 (Foreground)
//Storyboard Layer 4 (Overlay)
//Storyboard Sound Samples

[TimingPoints]
5415,333.333333333333,4,2,0,60,1,0

[Colours]
Combo1 : 255,181,255
Combo2 : 102,179,255
Combo3 : 255,172,172
Combo4 : 255,177,140

[HitObjects]
89,258,5414,6,0,P|155:253|212:219,1,135,0|8,3:0|0:0,0:0:0:0:
262,154,5914,1,0,3:0:0:0:
341,162,6081,2,0,P|374:170|403:188,1,67.5,0|2,3:0|0:0,0:0:0:0:
458,247,6414,2,0,L|461:280,2,33.75,8|2|2,0:0|0:0|0:0,0:0:0:0:
482,169,6748,6,0,L|478:135,3,33.75,0|0|0|0,3:0|0:0|3:0|0:0,0:0:0:0:
483,95,7081,2,0,L|416:104,1,67.5,8|0,0:0|3:0,0:0:0:0:
261,54,7581,1,0,3:0:0:0:
341,42,7748,1,8,0:0:0:0:
341,42,8081,6,0,P|325:106|266:136,1,135,0|8,3:0|0:0,0:0:0:0:
188,109,8581,1,0,3:0:0:0:
188,109,8664,1,8,0:0:0:0:
188,109,8748,2,0,P|165:135|151:165,1,67.5,0|2,3:0|0:0,0:0:0:0:
109,235,9081,2,0,L|77:246,2,33.75,8|0|0,0:0|0:0|0:0,0:0:0:0:
190,237,9414,5,0,3:0:0:0:
264,269,9581,1,0,3:0:0:0:
344,268,9748,2,0,P|370:291|400:305,1,67.5,8|0,0:0|3:0,0:0:0:0:
474,271,10081,2,0,L|483:238,3,33.75,0|2|2|2,0:0|0:0|0:0|0:0,0:0:0:0:
458,207,10414,2,0,L|467:174,3,33.75,10|0|2|0,0:0|0:0|0:0|0:0,0:0:0:0:
442,142,10748,6,0,P|377:125|329:78,1,135,0|8,3:0|0:0,0:0:0:0:
312,0,11248,1,0,3:0:0:0:
232,11,11414,2,0,P|199:20|173:41,1,67.5,0|2,3:0|0:0,0:0:0:0:
104,85,11748,2,0,L|75:66,2,33.75,2|2|0,0:3|0:0|0:0,0:0:0:0:
175,124,12081,5,0,3:0:0:0:
191,203,12248,1,0,3:0:0:0:
126,250,12414,2,0,P|106:277|100:310,1,67.5,8|0,0:0|3:0,0:0:0:0:
141,381,12748,1,0,3:0:0:0:
181,311,12914,2,2,L|197:312,4,16.875,2|2|2|2|8,0:3|0:0|0:0|0:0|0:0,0:0:0:0:
279,317,13248,1,0,3:0:0:0:
354,286,13414,6,0,P|380:264|393:233,1,67.5,0|0,3:0|0:0,0:0:0:0:
420,202,13664,2,0,B|443:192|443:192|500:205,2,84.375,8|0|8,0:0|0:0|0:0,0:0:0:0:
351,158,14248,1,0,3:0:0:0:
269,158,14414,2,0,P|237:165|207:180,1,67.5,0|8,3:0|0:0,0:0:0:0:
125,180,14748,6,0,L|131:247,1,67.5,0|0,3:0|3:0,0:0:0:0:
159,324,15081,1,8,0:0:0:0:
212,262,15248,1,0,3:0:0:0:
291,275,15414,2,0,P|324:271|355:259,1,67.5,0|0,3:0|3:0,0:0:0:0:
413,201,15748,2,0,L|415:167,3,33.75,8|0|0|0,0:0|3:0|3:0|3:0,0:0:0:0:
414,126,16081,6,0,L|379:116,3,33.75,0|2|0|2,3:0|0:0|0:0|0:0,0:0:0:0:
357,84,16414,2,0,L|322:93,3,33.75,0|0|2|0,0:0|0:0|0:0|0:0,0:0:0:0:
284,102,16748,2,0,L|249:92,3,33.75,2|0|2|0,0:0|0:0|0:0|0:0,0:0:0:0:
227,60,17081,2,0,L|192:69,3,33.75,2|0|2|0,0:0|0:0|0:0|0:0,0:0:0:0:
155,78,17414,6,0,L|90:59,1,67.5,0|2,3:0|0:0,0:0:0:0:
55,37,17664,1,0,3:0:0:0:
55,37,17748,2,0,B|31:48|31:48|15:86,1,67.5,8|0,0:0|3:0,0:0:0:0:
15,167,18081,2,0,L|112:195,1,101.25,0|0,3:0|0:0,0:0:0:0:
139,225,18414,2,0,L|139:258,2,33.75,10|0|0,0:0|0:0|3:0,0:0:0:0:
197,168,18748,6,0,B|250:128|250:128|254:93,1,101.25,0|0,3:0|3:0,0:0:0:0:
279,62,19081,2,0,P|310:47|343:42,1,67.5,8|0,0:0|3:0,0:0:0:0:
419,70,19414,2,0,L|399:134,1,67.5,0|2,3:0|0:0,0:0:0:0:
325,168,19748,2,0,L|344:232,1,67.5,0|2,0:0|0:0,0:0:0:0:
367,310,20081,6,0,P|316:315|266:310,1,101.25,0|0,3:0|3:0,0:0:0:0:
229,292,20414,2,0,L|209:356,1,67.5,8|2,0:0|0:0,0:0:0:0:
128,342,20748,2,0,L|94:341,3,33.75,0|0|0|0,3:0|0:0|0:0|0:0,0:0:0:0:
65,312,21081,1,0,0:0:0:0:
36,236,21248,2,0,L|19:236,2,16.875,2|2|2,0:3|0:0|0:0,0:0:0:0:
53,199,21414,6,0,P|70:151|70:100,1,101.25,0|0,3:0|0:0,0:0:0:0:
43,70,21748,2,0,L|67:46,3,33.75,8|0|0|0,0:0|3:0|3:0|3:0,0:0:0:0:
100,22,22081,2,0,P|166:13|233:21,1,135,0|8,3:0|0:0,0:0:0:0:
292,77,22581,1,2,0:0:0:0:
334,146,22748,6,0,P|367:142|398:129,1,67.5,0|2,3:0|0:0,0:0:0:0:
470,91,23081,2,0,L|488:119,3,33.75,8|0|0|0,0:0|3:0|3:0|3:0,0:0:0:0:
471,156,23414,2,0,L|481:188,3,33.75,0|2|2|2,0:0|0:0|0:0|0:0,0:0:0:0:
455,219,23748,1,2,0:0:0:0:
380,250,23914,2,0,L|372:269,4,16.875,2|2|2|2|2,0:0|0:0|0:0|0:0|0:0,0:0:0:0:
256,192,24164,12,0,26414,0:0:0:0:
436,189,26748,6,0,P|409:147|393:99,1,101.25,0|0,3:0|3:0,0:0:0:0:
385,58,27081,1,8,0:0:0:0:
309,29,27248,1,0,3:0:0:0:
280,105,27414,2,0,L|213:116,1,67.5,0|0,3:0|3:0,0:0:0:0:
147,164,27748,1,8,0:0:0:0:
79,119,27914,2,0,L|53:110,2,16.875,2|2|0,0:0|0:0|0:0,0:0:0:0:
60,155,28081,6,0,P|78:219|136:250,1,135,0|8,3:0|0:0,0:0:0:0:
175,254,28498,2,0,B|194:275|194:275|200:313,1,67.5,0|0,3:0|3:0,0:0:0:0:
237,328,28748,2,0,L|269:317,3,33.75,0|0|0|0,3:0|0:0|3:0|0:0,0:0:0:0:
300,292,29081,2,0,L|365:308,1,67.5,8|0,0:0|0:0,0:0:0:0:
445,319,29414,6,0,P|463:271|464:221,1,101.25,0|0,3:0|3:0,0:0:0:0:
457,180,29748,1,8,0:0:0:0:
401,121,29914,1,0,3:0:0:0:
324,147,30081,2,0,B|307:167|307:167|304:208,2,67.5,0|0|8,3:0|3:0|0:0,0:0:0:0:
280,78,30581,2,0,L|275:61,2,16.875,2|2|2,0:0|0:0|0:0,0:0:0:0:
240,85,30748,6,0,B|187:80|159:129|112:124,1,135,0|8,3:0|0:0,0:0:0:0:
81,148,31164,2,0,P|82:181|89:214,1,67.5,0|0,3:0|0:0,0:0:0:0:
119,241,31414,2,0,L|112:274,3,33.75,2|2|2|0,0:3|0:0|0:0|3:0,0:0:0:0:
129,310,31748,2,0,L|196:303,1,67.5,8|0,0:0|0:0,0:0:0:0:
226,275,31998,1,2,0:0:0:0:
226,275,32081,6,0,B|249:272|249:272|283:285|283:285|324:282,2,101.25,0|8|0,3:0|0:0|3:0,0:0:0:0:
198,198,32748,1,0,3:0:0:0:
236,127,32914,1,0,3:0:0:0:
317,127,33081,2,0,P|348:138|373:161,1,67.5,8|0,0:0|3:0,0:0:0:0:
379,201,33331,1,0,3:0:0:0:
379,201,33414,6,0,P|386:233|400:264,1,67.5,0|2,3:0|0:0,0:0:0:0:
372,294,33664,1,0,0:0:0:0:
372,294,33748,2,0,P|357:324|350:357,1,67.5,8|2,0:0|0:0,0:0:0:0:
312,344,33998,1,0,0:0:0:0:
312,344,34081,2,0,L|279:334,3,33.75,0|0|2|0,0:0|0:0|0:0|0:0,0:0:0:0:
263,297,34414,2,0,L|246:302,4,16.875,2|2|2|2|2,0:3|0:0|0:0|0:0|0:0,0:0:0:0:
275,216,34748,6,0,P|273:183|260:152,1,67.5,0|0,3:0|0:0,0:0:0:0:
221,143,34998,1,0,0:0:0:0:
221,143,35081,2,0,L|208:111,3,33.75,8|0|0|0,0:0|0:0|3:0|3:0,0:0:0:0:
172,93,35414,2,0,L|115:90,2,45,0|0|0,3:0|0:0|0:0,0:0:0:0:
173,21,35748,2,0,L|134:18,2,33.75,0|0|2,3:0|0:0|0:3,0:0:0:0:
253,32,36081,6,0,P|283:45|308:68,1,67.5,0|2,0:0|0:0,0:0:0:0:
361,129,36414,2,0,L|358:148,7,16.875,2|2|2|2|2|2|2|2,0:3|0:0|0:0|0:0|0:0|0:0|0:0|0:0,0:0:0:0:
377,169,36748,2,0,L|383:202,3,33.75,0|0|0|0,3:0|3:0|3:0|3:0,0:0:0:0:
360,234,37081,2,0,L|353:267,3,33.75,2|2|2|2,0:0|0:0|0:0|0:0,0:0:0:0:
323,294,37414,6,0,P|291:285|258:282,1,67.5,0|0,3:0|3:0,0:0:0:0:
176,287,37748,1,8,0:0:0:0:
138,216,37914,1,0,3:0:0:0:
62,185,38081,2,0,L|69:152,3,33.75,0|2|2|2,3:0|0:0|0:0|0:0,0:0:0:0:
60,111,38414,2,0,P|90:97|123:93,1,67.5,8|0,0:0|3:0,0:0:0:0:
163,102,38664,1,0,3:0:0:0:
163,102,38748,6,0,B|196:135|196:135|283:146,1,135,0|0,0:0|0:0,0:0:0:0:
364,147,39248,1,0,0:0:0:0:
433,105,39414,2,0,L|449:102,14,16.875,2|2|2|2|2|2|2|2|2|2|2|2|2|2|2,0:0|0:0|0:0|0:0|0:0|0:0|0:0|0:0|0:0|0:0|0:0|0:0|0:0|0:0|0:0,0:0:0:0:
465,81,40081,6,0,P|452:49|430:24,1,67.5,0|2,3:0|0:0,0:0:0:0:
356,57,40414,2,0,P|329:36|297:24,1,67.5,0|2,3:0|0:0,0:0:0:0:
249,90,40748,2,0,P|215:85|182:91,1,67.5,0|2,3:0|0:0,0:0:0:0:
172,172,41081,2,0,P|140:184|115:206,1,67.5,0|2,3:0|0:0,0:0:0:0:
147,281,41414,5,0,3:0:0:0:
72,313,41581,1,0,3:0:0:0:
40,238,41748,1,8,0:0:0:0:
115,206,41914,1,2,0:0:0:0:
115,206,41998,1,2,0:0:0:0:
115,206,42081,2,0,L|121:172,3,33.75,0|0|0|0,3:0|0:0|3:0|0:0,0:0:0:0:
105,136,42414,2,0,P|132:116|164:106,1,67.5,8|2,0:0|0:0,0:0:0:0:
245,104,42748,6,0,P|289:146|334:104,1,135,0|2,3:0|0:0,0:0:0:0:
290,36,43248,1,2,0:0:0:0:
371,32,43414,2,0,P|404:36|435:49,1,67.5,2|2,0:0|0:0,0:0:0:0:
458,127,43748,1,0,3:0:0:0:
419,198,43914,1,2,0:0:0:0:
499,214,44081,6,0,P|497:275|436:277,1,135,0|2,3:0|0:0,0:0:0:0:
419,198,44581,2,0,P|385:203|356:219,1,67.5,2|2,0:0|0:0,0:0:0:0:
286,260,44914,2,0,B|263:240|263:240|255:203,1,67.5,0|0,3:0|3:0,0:0:0:0:
306,139,45248,1,0,3:0:0:0:
306,139,45331,1,0,3:0:0:0:
306,139,45414,5,0,3:0:0:0:
140,258,47998,5,0,3:0:0:0:
140,258,48081,6,0,B|105:221|105:221|102:136,1,135,0|8,3:0|0:0,0:0:0:0:
128,59,48581,1,0,3:0:0:0:
182,120,48748,2,0,P|232:125|282:120,1,101.25,0|0,3:0|0:0,0:0:0:0:
321,107,49081,2,0,L|342:132,1,33.75,8|0,0:0|0:0,0:0:0:0:
460,166,49414,6,0,L|481:191,3,33.75,0|0|0|0,3:0|0:0|3:0|0:0,0:0:0:0:
486,233,49748,1,8,0:0:0:0:
431,292,49914,1,0,3:0:0:0:
348,292,50081,2,0,P|324:268|307:239,2,67.5,2|0|8,0:0|3:0|0:0,0:0:0:0:
205,368,50748,6,0,B|170:372|170:372|139:359,2,67.5,0|2|8,3:0|0:0|0:0,0:0:0:0:
183,289,51248,1,0,3:0:0:0:
183,289,51331,1,8,0:0:0:0:
183,289,51414,2,0,B|166:224|166:224|173:190,1,101.25,0|0,0:0|0:0,0:0:0:0:
159,152,51748,2,0,L|191:144,1,33.75,8|0,0:0|0:0,0:0:0:0:
275,56,52081,6,0,L|307:48,3,33.75,0|0|0|0,3:0|0:0|3:0|0:0,0:0:0:0:
337,20,52414,1,8,0:0:0:0:
381,87,52581,1,0,3:0:0:0:
453,124,52748,2,0,L|455:141,6,16.875,2|2|2|2|2|2|2,0:0|0:0|0:0|0:0|0:0|0:0|0:0,0:0:0:0:
438,166,53081,2,0,L|432:199,3,33.75,10|0|2|0,0:0|0:0|0:0|0:0,0:0:0:0:
396,217,53414,6,0,B|352:199|314:257|266:234,1,135,0|8,3:0|0:0,0:0:0:0:
288,156,53914,1,0,3:0:0:0:
209,177,54081,2,0,P|168:205|136:244,1,101.25,0|0,3:0|0:0,0:0:0:0:
102,267,54414,2,0,L|108:300,3,33.75,2|0|0|0,0:3|0:0|0:0|0:0,0:0:0:0:
131,333,54748,6,0,L|65:348,2,67.5,2|2|0,0:3|0:3|0:0,0:0:0:0:
205,365,55248,1,2,0:0:0:0:
205,365,55331,1,0,0:0:0:0:
205,365,55414,2,0,L|270:349,1,67.5,2|2,0:0|0:3,0:0:0:0:
310,277,55748,2,0,L|342:285,3,33.75,2|0|2|2,0:3|0:0|0:0|0:0,0:0:0:0:
372,311,56081,6,0,B|412:279|412:279|419:264,1,67.5,0|0,3:0|3:0,0:0:0:0:
404,185,56414,2,0,L|430:163,3,33.75,8|0|0|0,0:0|0:0|3:0|3:0,0:0:0:0:
424,123,56748,2,0,L|450:101,3,33.75,0|0|0|0,3:0|3:0|0:0|0:0,0:0:0:0:
444,61,57081,1,0,3:0:0:0:
363,51,57248,1,10,0:0:0:0:
293,92,57414,6,0,L|226:83,1,67.5,0|0,3:0|3:0,0:0:0:0:
155,41,57748,1,8,0:0:0:0:
85,82,57914,1,0,3:0:0:0:
60,159,58081,2,0,L|67:191,3,33.75,0|0|0|0,3:0|3:0|3:0|3:0,0:0:0:0:
102,211,58414,2,0,L|94:243,3,33.75,8|0|0|0,0:0|0:0|3:0|0:0,0:0:0:0:
74,279,58748,6,0,B|97:301|97:301|165:309,1,101.25,0|0,3:0|0:0,0:0:0:0:
206,307,59081,2,0,L|197:339,2,33.75,8|2|0,0:0|0:0|3:0,0:0:0:0:
222,227,59414,2,0,B|251:194|251:194|341:178,1,135,0|8,3:0|0:0,0:0:0:0:
385,110,59914,1,0,0:0:0:0:
385,110,59998,1,0,0:0:0:0:
385,110,60081,6,0,L|389:264,1,135,0|0,3:0|3:0,0:0:0:0:
416,322,60581,1,0,0:0:0:0:
468,260,60748,2,0,L|466:192,1,67.5,8|0,0:0|0:0,0:0:0:0:
511,125,61081,2,0,L|510:91,2,33.75,0|2|8,0:0|0:0|0:0,0:0:0:0:
430,119,61414,6,0,P|380:109|334:87,1,101.25,0|0,3:0|0:0,0:0:0:0:
305,58,61748,2,0,L|246:91,1,67.5,8|0,0:0|0:0,0:0:0:0:
207,104,61998,1,0,0:0:0:0:
207,104,62081,2,0,L|198:136,3,33.75,0|0|0|0,3:0|0:0|3:0|0:0,0:0:0:0:
164,159,62414,2,0,L|173:191,3,33.75,8|0|0|0,0:0|0:0|3:0|0:0,0:0:0:0:
171,231,62748,6,0,P|130:261|80:271,1,101.25,0|0,3:0|0:0,0:0:0:0:
45,290,63081,2,0,L|29:320,3,33.75,0|0|0|0,0:0|0:0|3:0|0:0,0:0:0:0:
39,357,63414,2,0,P|72:366|106:364,1,67.5,0|0,0:0|3:0,0:0:0:0:
143,351,63664,1,0,3:0:0:0:
143,351,63748,2,0,P|176:349|209:357,1,67.5,8|0,0:0|0:0,0:0:0:0:
279,316,64081,6,0,P|301:290|314:259,1,67.5,0|0,3:0|3:0,0:0:0:0:
314,178,64414,2,0,L|346:168,3,33.75,8|0|0|0,0:0|0:0|3:0|0:0,0:0:0:0:
372,136,64748,2,0,L|404:145,3,33.75,0|0|0|0,3:0|0:0|3:0|0:0,0:0:0:0:
444,135,65081,2,0,B|462:149|462:149|469:193,2,67.5,8|0|0,0:0|0:0|3:0,0:0:0:0:
444,135,66748,6,0,L|432:103,3,33.75,0|0|0|2,3:0|0:0|0:0|0:0,0:0:0:0:
444,64,67081,2,0,P|411:53|378:49,1,67.5,8|0,0:0|0:0,0:0:0:0:
338,120,67414,2,0,P|305:130|272:134,1,67.5,0|0,3:0|0:0,0:0:0:0:
191,126,67748,1,10,0:0:0:0:
128,75,67914,2,0,L|111:75,2,16.875,2|2|2,0:0|0:0|0:0,0:0:0:0:
107,110,68081,6,0,B|90:161|142:189|121:240,1,135,0|10,3:0|0:0,0:0:0:0:
44,215,68581,1,0,0:0:0:0:
44,215,68664,1,0,3:0:0:0:
44,215,68748,2,0,P|33:247|29:281,1,67.5,0|0,3:0|0:0,0:0:0:0:
45,319,68998,1,0,3:0:0:0:
45,319,69081,2,0,B|90:324|90:324|109:335,1,67.5,8|0,0:0|3:0,0:0:0:0:
188,351,69414,6,0,B|209:327|209:327|220:258,1,101.25,0|2,3:0|0:0,0:0:0:0:
203,220,69748,2,0,P|235:208|269:204,1,67.5,8|2,0:0|0:0,0:0:0:0:
338,247,70081,1,0,3:0:0:0:
418,255,70248,1,0,0:0:0:0:
418,255,70331,1,0,3:0:0:0:
418,255,70414,2,0,B|442:224|442:224|443:194,1,67.5,8|0,0:0|3:0,0:0:0:0:
385,138,70748,6,0,L|377:105,3,33.75,0|2|2|2,3:0|0:0|0:0|0:0,0:0:0:0:
397,69,71081,1,8,0:0:0:0:
316,60,71248,1,8,0:0:0:0:
316,60,71331,1,0,3:0:0:0:
316,60,71414,2,0,L|284:72,3,33.75,0|8|2|0,3:0|0:0|0:0|3:0,0:0:0:0:
243,69,71748,2,0,P|224:97|215:130,1,67.5,8|0,0:0|3:0,0:0:0:0:
236,208,72081,6,0,P|205:223|173:232,2,67.5,0|0|8,3:0|0:0|0:0,0:0:0:0:
294,151,72581,1,0,3:0:0:0:
294,151,72664,1,0,3:0:0:0:
294,151,72748,2,0,P|324:135|356:126,2,67.5,0|0|8,3:0|0:0|0:0,0:0:0:0:
215,130,73248,1,0,3:0:0:0:
215,130,73331,1,0,3:0:0:0:
215,130,73414,6,0,L|181:127,3,33.75,0|0|0|0,3:0|0:0|0:0|0:0,0:0:0:0:
146,104,73748,1,8,0:0:0:0:
117,179,73914,1,0,3:0:0:0:
192,208,74081,2,0,B|179:273|179:273|153:296,1,101.25,0|0,3:0|3:0,0:0:0:0:
118,317,74414,1,8,0:0:0:0:
174,374,74581,1,0,3:0:0:0:
250,346,74748,6,0,P|272:321|282:289,1,67.5,0|2,3:0|0:0,0:0:0:0:
363,279,75081,2,0,P|353:247|330:222,1,67.5,0|2,3:0|0:0,0:0:0:0:
362,148,75414,2,0,P|329:141|296:148,1,67.5,0|2,3:0|0:0,0:0:0:0:
216,134,75748,2,0,L|209:118,6,16.875,2|2|2|2|2|2|2,0:3|0:3|0:3|0:0|0:0|0:0|0:0,0:0:0:0:
214,92,76081,6,0,B|169:71|169:71|117:78,1,101.25,0|0,3:0|3:0,0:0:0:0:
77,73,76414,2,0,P|71:107|77:160,1,84.375,8|0,0:0|0:0,0:0:0:0:
117,271,76873,2,0,B|154:289|154:289|207:283,1,84.375,0|8,0:0|0:0,0:0:0:0:
278,194,77331,2,0,B|329:186|329:186|374:207,1,101.25,0|0,0:0|3:0,0:0:0:0:
449,303,77831,6,0,L|449:353,2,50.625,0|0|8,3:0|3:0|0:0,0:0:0:0:
512,199,78331,2,0,L|512:148,3,50.625,8|0|0|8,0:0|3:0|3:0|0:0,0:0:0:0:
478,97,78831,6,0,P|432:74|382:67,1,101.25,0|8,3:0|0:0,0:0:0:0:
301,69,79248,1,0,3:0:0:0:
227,101,79414,2,0,L|238:132,3,33.75,0|0|0|0,3:0|0:0|0:0|3:0,0:0:0:0:
227,172,79748,1,8,0:0:0:0:
152,203,79914,1,0,3:0:0:0:
152,203,79998,1,0,3:0:0:0:
152,203,80081,5,0,3:0:0:0:
217,252,80248,1,0,3:0:0:0:
292,221,80414,2,0,L|319:239,3,33.75,8|0|0|0,0:0|0:0|0:0|0:0,0:0:0:0:
361,237,80748,2,0,L|388:255,3,33.75,0|0|0|0,0:0|0:0|0:0|0:0,0:0:0:0:
430,253,81081,2,0,P|445:282|447:316,1,67.5,0|0,0:0|3:0,0:0:0:0:
390,373,81414,6,0,P|356:370|326:355,1,67.5,0|0,3:0|0:0,0:0:0:0:
245,365,81748,2,0,P|229:335|227:301,1,67.5,8|0,0:0|0:0,0:0:0:0:
240,221,82081,2,0,L|206:214,3,33.75,0|0|0|0,3:0|0:0|3:0|0:0,0:0:0:0:
186,179,82414,2,0,L|163:183,5,22.5,10|2|2|2|2|2,0:0|0:0|0:0|0:0|0:0|0:0,0:0:0:0:
137,173,82748,6,0,P|125:205|121:238,1,67.5,0|0,3:0|3:0,0:0:0:0:
51,280,83081,2,0,P|62:311|66:344,1,67.5,8|0,0:0|0:0,0:0:0:0:
103,361,83331,1,0,3:0:0:0:
103,361,83414,2,0,L|135:350,3,33.75,0|0|0|0,3:0|0:0|3:0|3:0,0:0:0:0:
174,360,83748,1,8,0:0:0:0:
182,279,83914,1,2,0:0:0:0:
263,283,84081,6,0,L|295:272,3,33.75,0|0|0|0,3:0|0:0|3:0|0:0,0:0:0:0:
335,281,84414,2,0,L|367:270,3,33.75,8|2|2|2,0:0|0:0|0:0|0:0,0:0:0:0:
407,279,84748,1,0,3:0:0:0:
407,279,84831,2,0,P|426:251|433:219,1,67.5,0|2,3:0|0:0,0:0:0:0:
409,186,85081,2,0,P|401:153|407:120,1,67.5,10|0,0:0|3:0,0:0:0:0:
433,89,85331,1,0,3:0:0:0:
433,89,85414,6,0,B|414:71|414:71|339:66,1,101.25,0|0,3:0|0:0,0:0:0:0:
304,43,85748,2,0,L|289:109,1,67.5,8|2,0:0|0:0,0:0:0:0:
345,169,86081,2,0,B|326:187|326:187|251:191,1,101.25,0|0,3:0|0:0,0:0:0:0:
216,215,86414,2,0,L|201:148,1,67.5,8|0,0:0|0:0,0:0:0:0:
147,88,86748,6,0,P|119:68|87:61,2,67.5,0|2|8,3:0|0:0|0:0,0:0:0:0:
88,142,87248,1,2,0:0:0:0:
88,142,87331,1,0,3:0:0:0:
88,142,87414,2,0,B|86:214|86:214|97:240,1,101.25,0|0,3:0|3:0,0:0:0:0:
120,274,87748,2,0,L|186:260,1,67.5,8|0,0:0|3:0,0:0:0:0:
262,232,88081,6,0,B|318:249|299:308|353:325,1,135,0|8,3:0|0:0,0:0:0:0:
388,252,88581,1,2,0:0:0:0:
434,319,88748,2,0,P|456:294|468:262,1,67.5,0|2,3:0|0:0,0:0:0:0:
468,222,88998,1,0,3:0:0:0:
468,222,89081,1,8,0:0:0:0:
445,143,89248,1,0,3:0:0:0:
370,173,89414,6,0,B|325:165|325:165|270:94,1,135,0|8,3:0|0:0,0:0:0:0:
232,22,89914,1,8,0:0:0:0:
232,22,89998,1,0,3:0:0:0:
232,22,90081,2,0,L|199:30,3,33.75,0|8|0|0,3:0|0:0|0:0|3:0,0:0:0:0:
157,30,90414,2,0,P|145:61|140:94,1,67.5,8|0,0:0|3:0,0:0:0:0:
59,107,90748,6,0,B|61:174|122:156|124:218,1,135,0|8,3:0|0:0,0:0:0:0:
255,312,91414,2,0,P|278:267|286:218,1,101.25,0|0,3:0|3:0,0:0:0:0:
278,177,91748,2,0,P|310:168|344:165,1,67.5,8|0,0:0|3:0,0:0:0:0:
415,125,92081,6,0,P|459:166|414:206,1,135,0|8,3:0|0:0,0:0:0:0:
344,166,92581,1,8,0:0:0:0:
344,166,92664,1,0,0:0:0:0:
344,166,92748,2,0,L|310:166,3,33.75,0|8|0|0,3:0|0:0|0:0|3:0,0:0:0:0:
269,156,93081,2,0,P|258:187|254:220,1,67.5,2|0,0:3|0:0,0:0:0:0:
331,244,93414,5,0,3:0:0:0:
331,244,93498,2,0,P|326:277|315:308,1,67.5,0|0,0:0|0:0,0:0:0:0:
281,333,93748,2,0,L|213:333,1,67.5,8|0,0:0|0:0,0:0:0:0:
175,347,93998,1,0,0:0:0:0:
175,347,94081,2,0,L|168:313,3,33.75,0|8|0|0,3:0|0:0|0:0|3:0,0:0:0:0:
139,285,94414,1,8,0:0:0:0:
180,215,94581,1,0,3:0:0:0:
98,215,94748,5,0,3:0:0:0:
98,215,95081,1,0,3:0:0:0:
98,215,95414,1,0,3:0:0:0:
180,215,95581,1,2,0:3:0:0:
139,285,95748,1,0,3:0:0:0:
260,285,95998,1,0,3:0:0:0:
259,285,96081,6,0,P|285:223|270:159,1,135,0|8,3:0|0:0,0:0:0:0:
198,120,96581,1,0,3:0:0:0:
228,44,96748,2,0,L|294:32,1,67.5,0|0,3:0|0:0,0:0:0:0:
332,47,96998,1,0,0:0:0:0:
332,47,97081,2,0,L|339:79,1,33.75,8|0,0:0|3:0,0:0:0:0:
440,147,97414,6,0,L|432:179,3,33.75,0|0|0|0,3:0|0:0|3:0|0:0,0:0:0:0:
449,217,97748,1,8,0:0:0:0:
379,258,97914,2,0,P|345:254|312:246,1,67.5,0|0,3:0|0:0,0:0:0:0:
244,202,98248,1,0,3:0:0:0:
213,127,98414,1,8,0:0:0:0:
117,258,98748,6,0,P|81:222|58:177,1,101.25,0|0,3:0|0:0,0:0:0:0:
63,137,99081,2,0,L|30:129,3,33.75,8|0|0|8,0:0|0:0|3:0|0:0,0:0:0:0:
25,88,99414,2,0,B|46:60|46:60|111:48,1,101.25,0|0,3:0|0:0,0:0:0:0:
150,38,99748,2,0,L|157:70,1,33.75,8|0,0:0|0:0,0:0:0:0:
267,121,100081,6,0,L|259:153,3,33.75,0|0|0|0,3:0|0:0|3:0|0:0,0:0:0:0:
273,192,100414,1,8,0:0:0:0:
215,249,100581,1,0,3:0:0:0:
293,271,100748,2,0,L|298:301,6,16.875,2|2|2|2|2|2|2,0:0|0:0|0:0|0:0|0:0|0:0|0:0,0:0:0:0:
317,312,101081,2,0,L|309:344,3,33.75,8|0|0|0,0:0|0:0|0:0|0:0,0:0:0:0:
272,364,101414,6,0,L|204:358,1,67.5,0|0,3:0|0:0,0:0:0:0:
162,289,101748,2,0,L|94:294,1,67.5,8|0,0:0|3:0,0:0:0:0:
39,354,102081,2,0,P|20:326|13:294,1,67.5,0|0,3:0|0:0,0:0:0:0:
54,224,102414,2,0,L|44:191,3,33.75,2|0|0|0,0:3|0:0|0:0|0:0,0:0:0:0:
70,160,102748,5,0,3:0:0:0:
146,184,102914,1,0,3:0:0:0:
227,184,103081,2,0,L|221:251,1,67.5,8|0,0:0|3:0,0:0:0:0:
294,286,103414,1,0,3:0:0:0:
367,252,103581,2,0,L|374:236,4,16.875,2|2|2|2|8,0:0|0:0|0:0|0:0|0:0,0:0:0:0:
433,181,103914,1,0,3:0:0:0:
397,108,104081,6,0,L|329:103,1,67.5,0|0,3:0|3:0,0:0:0:0:
305,70,104331,2,0,L|198:75,1,101.25,8|0,0:0|0:0,0:0:0:0:
153,139,104748,2,0,L|153:206,2,67.5,10|0|0,0:0|3:0|3:0,0:0:0:0:
109,70,105248,1,8,0:0:0:0:
72,142,105414,5,0,3:0:0:0:
73,223,105581,1,0,3:0:0:0:
153,207,105748,2,0,P|185:215|215:230,1,67.5,8|0,0:0|3:0,0:0:0:0:
274,285,106081,2,0,P|307:289|340:285,1,67.5,0|0,3:0|3:0,0:0:0:0:
401,231,106414,2,0,L|429:212,3,33.75,8|0|0|0,0:0|3:0|3:0|3:0,0:0:0:0:
470,212,106748,6,0,B|468:171|468:171|442:116,1,101.25,0|0,3:0|3:0,0:0:0:0:
442,76,107081,1,8,0:0:0:0:
363,96,107248,1,0,3:0:0:0:
282,96,107414,2,0,L|248:92,3,33.75,0|0|0|0,3:0|0:0|3:0|0:0,0:0:0:0:
210,76,107748,2,0,P|197:108|192:141,1,67.5,8|0,0:0|0:0,0:0:0:0:
230,214,108081,5,0,3:0:0:0:
173,272,108248,1,0,3:0:0:0:
100,235,108414,1,8,0:0:0:0:
112,154,108581,1,0,3:0:0:0:
112,154,108664,1,0,3:0:0:0:
112,154,108748,2,0,P|130:126|156:104,1,67.5,0|0,3:0|3:0,0:0:0:0:
234,85,109081,1,8,0:0:0:0:
234,85,109414,6,0,L|268:92,3,33.75,0|0|0|0,3:0|0:0|0:0|0:0,0:0:0:0:
293,123,109748,2,0,L|327:130,3,33.75,8|0|0|0,0:0|3:0|3:0|3:0,0:0:0:0:
353,159,110081,2,0,P|380:178|412:187,1,67.5,0|0,3:0|0:0,0:0:0:0:
453,187,110331,1,0,0:0:0:0:
453,187,110414,1,8,0:0:0:0:
453,268,110581,2,0,L|459:283,2,16.875,2|2|2,0:0|0:0|0:0,0:0:0:0:
429,282,110748,6,0,L|396:289,3,33.75,0|0|0|0,3:0|0:0|3:0|0:0,0:0:0:0:
367,317,111081,2,0,L|334:309,3,33.75,8|0|0|8,0:0|0:0|0:0|0:0,0:0:0:0:
297,326,111414,2,0,P|263:330|230:326,1,67.5,0|8,3:0|0:0,0:0:0:0:
190,317,111664,1,0,3:0:0:0:
190,317,111748,2,0,L|185:342,6,16.875,2|2|2|2|0|0|0,0:0|0:0|0:0|0:0|0:0|0:0|0:0,0:0:0:0:
144,308,112081,6,0,P|129:278|124:245,1,67.5,0|0,3:0|0:0,0:0:0:0:
123,163,112414,2,0,P|101:152|76:148,2,50.625,8|0|0,0:0|0:0|0:0,0:0:0:0:
160,143,112748,2,0,L|169:110,3,33.75,2|2|0|0,0:3|0:0|0:0|0:0,0:0:0:0:
201,84,113081,2,0,L|191:51,3,33.75,2|0|0|0,0:0|0:0|3:0|3:0,0:0:0:0:
220,22,113414,6,0,B|261:13|261:13|346:50,1,135,0|0,3:0|0:0,0:0:0:0:
402,108,113914,1,0,3:0:0:0:
469,63,114081,1,8,0:0:0:0:
469,63,114414,1,0,3:0:0:0:
402,108,114581,1,0,3:0:0:0:
346,50,114748,6,0,L|289:87,1,67.5,0|2,3:0|0:0,0:0:0:0:
209,100,115081,2,0,L|212:133,3,33.75,2|2|2|2,0:0|0:0|0:0|0:0,0:0:0:0:
228,170,115414,2,0,L|171:207,1,67.5,2|2,0:3|0:0,0:0:0:0:
91,220,115748,1,0,3:0:0:0:
248,255,116081,5,2,0:3:0:0:
