osu file format v14

[General]
AudioFilename: D.mp3
AudioLeadIn: 0
PreviewTime: 6
Countdown: 0
SampleSet: Soft
StackLeniency: 0.5
Mode: 0
LetterboxInBreaks: 1
WidescreenStoryboard: 1

[Editor]
DistanceSpacing: 1.3
BeatDivisor: 4
GridSize: 4
TimelineZoom: 1.2

[Metadata]
Title:Passage D
TitleUnicode:Passage D
Artist:The Flashbulb
ArtistUnicode:The Flashbulb
Creator:z1085684963
Version:Lyric's Advanced
Source:osu!
Tags:ErMei moonlightleaf Lyric pata-mon Kirlian Selections benn jordan breakcore featured artist
BeatmapID:1005058
BeatmapSetID:400300

[Difficulty]
HPDrainRate:4
CircleSize:4
OverallDifficulty:5
ApproachRate:6
SliderMultiplier:1.2
SliderTickRate:1

[Events]
//Background and Video events
0,0,"44585426.jpg",0,0
//Break Periods
//Storyboard Layer 0 (Background)
//Storyboard Layer 1 (Fail)
//Storyboard Layer 2 (Pass)
//Storyboard Layer 3 (Foreground)
//Storyboard Layer 4 (Overlay)
//Storyboard Sound Samples

[TimingPoints]
5415,333.333333333333,4,2,1,60,1,0

[Colours]
Combo1 : 255,181,255
Combo2 : 102,179,255
Combo3 : 255,172,172
Combo4 : 255,177,140

[HitObjects]
345,284,5414,6,0,L|353:180,2,90,2|2|2,0:0|0:0|0:0,0:0:0:0:
287,336,6081,2,0,B|256:330|256:330|201:336,1,60,0|2,3:0|0:0,0:0:0:0:
151,348,6414,2,0,L|158:264,1,60,8|2,0:0|0:0,0:0:0:0:
98,234,6748,2,0,L|105:150,1,60,0|0,3:0|3:0,0:0:0:0:
45,120,7081,2,0,L|52:36,1,60,8|0,0:0|3:0,0:0:0:0:
200,18,7581,1,0,3:0:0:0:
200,18,7748,1,8,0:0:0:0:
314,124,8081,6,0,L|306:228,2,90,0|0|0,3:0|0:0|3:0,0:0:0:0:
372,72,8748,2,0,B|403:78|403:78|458:72,1,60,0|2,3:0|0:0,0:0:0:0:
508,60,9081,2,0,L|501:144,1,60,8|0,0:0|0:0,0:0:0:0:
454,181,9414,2,0,L|447:265,1,60,0|0,3:0|3:0,0:0:0:0:
400,302,9748,2,0,L|393:386,1,60,8|0,0:0|3:0,0:0:0:0:
262,278,10248,1,2,0:0:0:0:
262,278,10414,1,10,0:0:0:0:
114,328,10748,6,0,L|9:322,2,90,0|2|0,3:0|0:0|3:0,0:0:0:0:
175,280,11414,2,0,L|180:207,1,60,0|2,3:0|0:0,0:0:0:0:
232,162,11748,2,0,L|310:167,1,60,2|0,0:3|0:0,0:0:0:0:
347,111,12081,1,0,3:0:0:0:
347,111,12248,1,0,3:0:0:0:
406,161,12414,2,0,L|399:244,2,60,8|0|0,0:0|3:0|3:0,0:0:0:0:
470,116,12914,1,2,0:3:0:0:
410,65,13081,2,0,L|415:-8,1,60,8|0,0:0|3:0,0:0:0:0:
333,49,13414,6,0,L|328:154,2,90,0|8|10,3:0|0:0|0:0,0:0:0:0:
255,77,14081,2,0,L|173:72,1,60,8|0,0:0|3:0,0:0:0:0:
131,118,14414,2,0,L|49:113,1,60,0|8,3:0|0:0,0:0:0:0:
7,159,14748,1,0,3:0:0:0:
7,159,14914,1,0,3:0:0:0:
59,216,15081,2,0,L|55:300,1,60,8|0,0:0|3:0,0:0:0:0:
127,307,15414,2,0,L|209:312,1,60,0|0,3:0|3:0,0:0:0:0:
247,260,15748,1,8,0:0:0:0:
374,349,16081,5,0,3:0:0:0:
371,329,16414,1,0,0:0:0:0:
368,310,16748,1,2,0:0:0:0:
365,291,17081,1,2,0:0:0:0:
477,182,17414,2,0,B|448:186|448:186|413:180,1,60,0|2,3:0|0:0,0:0:0:0:
347,146,17748,2,0,L|351:65,1,60,8|0,0:0|3:0,0:0:0:0:
409,34,18081,1,0,3:0:0:0:
271,107,18414,2,0,B|242:111|242:111|207:105,1,60,10|0,0:0|3:0,0:0:0:0:
149,153,18748,5,0,3:0:0:0:
151,172,19081,1,8,0:0:0:0:
154,191,19414,1,0,3:0:0:0:
157,211,19748,1,0,0:0:0:0:
29,299,20081,2,0,L|99:293,1,60,0|2,3:0|0:0,0:0:0:0:
148,350,20414,1,8,0:0:0:0:
148,350,20581,1,2,0:0:0:0:
220,319,20748,2,0,B|213:290|213:290|221:248,1,60,0|0,3:0|0:0,0:0:0:0:
279,210,21081,1,0,0:0:0:0:
377,330,21414,6,0,L|508:315,1,120,0|8,3:0|0:0,0:0:0:0:
510,160,22081,2,0,L|428:170,1,60,0|2,3:0|0:0,0:0:0:0:
376,140,22414,1,8,0:0:0:0:
260,35,22748,2,0,L|270:177,1,120,0|8,3:0|0:0,0:0:0:0:
159,267,23414,2,0,L|241:257,1,60,0|2,0:0|0:0,0:0:0:0:
293,287,23748,1,2,0:0:0:0:
165,376,24081,5,0,0:0:0:0:
22,288,26748,6,0,L|31:171,2,90,0|0|0,3:0|3:0|3:0,0:0:0:0:
69,349,27414,2,0,B|99:346|99:346|145:355,1,60,0|0,3:0|3:0,0:0:0:0:
192,305,27748,2,0,L|198:234,1,60,8|2,0:0|0:0,0:0:0:0:
264,205,28081,2,0,L|270:134,1,60,0|0,3:0|0:0,0:0:0:0:
336,105,28414,1,8,0:0:0:0:
193,41,28748,2,0,L|117:46,2,60,0|0|0,3:0|3:0|0:0,0:0:0:0:
336,105,29414,6,0,L|450:98,2,90,0|0|0,3:0|3:0|3:0,0:0:0:0:
275,153,30081,2,0,B|272:184|272:184|284:232,1,60,0|0,3:0|3:0,0:0:0:0:
255,286,30414,2,0,L|183:291,1,60,8|2,0:0|0:0,0:0:0:0:
143,230,30748,2,0,L|71:235,1,60,0|0,3:0|0:0,0:0:0:0:
31,174,31081,1,8,0:0:0:0:
165,95,31414,2,0,L|158:15,2,60,2|2|8,0:3|0:0|0:0,0:0:0:0:
278,211,32081,6,0,L|289:319,2,90,0|8|0,3:0|0:0|3:0,0:0:0:0:
326,149,32748,2,0,L|405:142,1,60,0|0,3:0|3:0,0:0:0:0:
458,171,33081,2,0,L|466:243,1,60,8|0,0:0|3:0,0:0:0:0:
425,298,33414,2,0,L|346:305,1,60,0|2,3:0|0:0,0:0:0:0:
287,300,33748,2,0,L|208:307,1,60,8|2,0:0|0:0,0:0:0:0:
149,303,34081,2,0,B|152:273|152:273|145:229,1,60,0|2,0:0|0:0,0:0:0:0:
82,199,34414,2,0,B|77:169|77:169|80:139,1,60,2|2,0:3|0:0,0:0:0:0:
127,76,34748,6,0,P|153:80|207:72,3,60,0|0|0|0,3:0|0:0|0:0|3:0,0:0:0:0:
256,44,35414,2,0,P|285:41|315:45,3,60,0|0|0|2,3:0|0:0|3:0|0:3,0:0:0:0:
362,107,36081,2,0,L|357:186,3,60,0|2|2|0,0:0|0:0|0:3|0:0,0:0:0:0:
302,222,36748,2,0,L|297:301,3,60,0|0|2|2,3:0|3:0|0:0|0:0,0:0:0:0:
243,337,37414,6,0,L|168:330,1,60,0|0,3:0|3:0,0:0:0:0:
106,349,37748,2,0,L|31:342,1,60,8|0,0:0|3:0,0:0:0:0:
1,279,38081,1,0,3:0:0:0:
176,20,38748,1,0,0:0:0:0:
176,20,39414,1,2,0:0:0:0:
176,20,40081,5,0,3:0:0:0:
489,309,42748,5,0,3:0:0:0:
399,344,44081,1,0,3:0:0:0:
330,276,45414,1,0,3:0:0:0:
330,276,48081,5,0,3:0:0:0:
330,276,49414,2,0,L|338:192,3,60,0|0|8|0,3:0|3:0|0:0|3:0,0:0:0:0:
396,167,50081,2,0,L|404:83,1,60,2|0,0:0|3:0,0:0:0:0:
361,40,50414,1,8,0:0:0:0:
231,127,50748,6,0,B|151:135|151:135|94:124,1,120,0|0,3:0|0:0,0:0:0:0:
41,93,51248,1,0,3:0:0:0:
45,170,51414,2,0,L|43:253,2,60,0|0|8,0:0|0:0|0:0,0:0:0:0:
196,210,52081,2,0,B|181:248|181:248|194:346,1,120,0|8,3:0|0:0,0:0:0:0:
250,377,52581,1,0,3:0:0:0:
314,332,52748,2,0,L|388:324,2,60,2|2|0,0:0|0:0|0:0,0:0:0:0:
416,214,53414,6,0,B|411:178|411:178|426:130|426:130|420:87,3,120,0|8|0|2,3:0|0:0|3:0|0:3,0:0:0:0:
282,25,54748,2,0,L|290:98,3,60,2|2|0|2,0:3|0:3|0:0|0:0,0:0:0:0:
246,150,55414,2,0,L|186:156,1,60,2|2,0:0|0:3,0:0:0:0:
118,117,55748,1,2,0:3:0:0:
6,226,56081,5,0,3:0:0:0:
6,226,56581,1,0,3:0:0:0:
6,226,57414,2,0,L|2:335,1,90,0|0,3:0|0:0,0:0:0:0:
117,338,57914,2,0,L|221:335,1,90,0|0,3:0|3:0,0:0:0:0:
321,359,58414,2,0,B|316:329|316:329|323:285,1,60,8|0,0:0|3:0,0:0:0:0:
391,265,58748,6,0,L|387:183,1,60,0|0,3:0|0:0,0:0:0:0:
338,144,59081,2,0,L|254:149,1,60,8|0,0:0|3:0,0:0:0:0:
203,124,59414,2,0,L|199:42,1,60,0|0,3:0|0:0,0:0:0:0:
255,8,59748,1,8,0:0:0:0:
374,107,60081,2,0,L|382:236,1,120,0|0,3:0|3:0,0:0:0:0:
272,338,60748,2,0,B|213:331|213:331|144:346,1,120,8|0,0:0|0:0,0:0:0:0:
13,276,61414,6,0,L|5:147,1,120,0|8,3:0|0:0,0:0:0:0:
141,79,62081,2,0,B|149:106|149:106|146:150,1,60,0|0,3:0|3:0,0:0:0:0:
107,205,62414,1,8,0:0:0:0:
256,251,62748,2,0,L|397:244,1,120,0|0,3:0|0:0,0:0:0:0:
468,119,63414,1,0,0:0:0:0:
402,76,63581,2,0,L|399:32,2,30,0|0|8,3:0|3:0|0:0,0:0:0:0:
251,118,64081,6,0,L|246:38,2,60,0|0|8,3:0|3:0|0:0,0:0:0:0:
294,182,64581,1,0,3:0:0:0:
238,236,64748,2,0,L|155:240,1,60,0|0,3:0|3:0,0:0:0:0:
107,205,65081,1,8,0:0:0:0:
170,62,65414,1,0,3:0:0:0:
107,205,66748,6,0,L|7:198,2,90,0|2|0,3:0|0:0|0:0,0:0:0:0:
163,258,67414,2,0,L|159:337,1,60,0|0,3:0|0:0,0:0:0:0:
223,363,67748,2,0,L|289:368,1,60,10|2,0:0|0:0,0:0:0:0:
356,341,68081,2,0,B|339:284|339:284|344:222,1,120,0|10,3:0|0:0,0:0:0:0:
469,131,68748,2,0,B|486:188|486:188|481:248,1,120,0|8,3:0|0:0,0:0:0:0:
391,121,69414,6,0,L|396:6,2,90,0|2|2,3:0|0:0|0:0,0:0:0:0:
319,151,70081,2,0,L|253:146,1,60,0|0,3:0|0:0,0:0:0:0:
188,180,70414,2,0,L|184:239,1,60,8|0,0:0|3:0,0:0:0:0:
105,259,70748,2,0,L|111:129,1,120,0|8,3:0|0:0,0:0:0:0:
68,73,71248,1,8,0:0:0:0:
128,23,71414,2,0,L|194:28,1,60,0|2,3:0|0:0,0:0:0:0:
253,70,71748,1,8,0:0:0:0:
186,211,72081,5,0,3:0:0:0:
197,306,72748,1,0,3:0:0:0:
292,294,73414,1,0,3:0:0:0:
281,199,74081,1,0,3:0:0:0:
376,187,74748,6,0,B|388:124|388:124|374:62,1,120,0|0,3:0|3:0,0:0:0:0:
475,188,75414,2,0,B|463:251|463:251|477:313,1,120,0|2,3:0|0:3,0:0:0:0:
256,192,76081,12,0,78831,0:0:0:0:
97,348,81414,6,0,L|4:341,2,90,0|0|0,3:0|0:0|0:0,0:0:0:0:
159,300,82081,2,0,L|163:221,1,60,0|0,3:0|3:0,0:0:0:0:
219,186,82414,2,0,L|291:191,1,60,8|2,0:0|0:0,0:0:0:0:
347,151,82748,2,0,L|351:72,3,60,0|0|0|0,3:0|3:0|0:0|0:0,0:0:0:0:
290,40,83414,2,0,L|218:35,3,60,0|0|8|2,3:0|3:0|0:0|0:0,0:0:0:0:
160,72,84081,5,0,3:0:0:0:
160,72,85414,1,0,3:0:0:0:
160,72,86748,6,0,L|169:195,1,120,0|8,3:0|0:0,0:0:0:0:
141,264,87248,1,2,0:0:0:0:
210,298,87414,2,0,B|240:292|240:292|294:294,1,60,0|0,3:0|0:0,0:0:0:0:
338,330,87748,1,8,0:0:0:0:
338,330,87914,1,0,3:0:0:0:
395,277,88081,2,0,L|386:154,1,120,0|8,3:0|0:0,0:0:0:0:
490,41,88748,2,0,B|430:50|430:50|355:36,1,120,0|8,3:0|0:0,0:0:0:0:
296,18,89248,1,0,3:0:0:0:
307,94,89414,6,0,B|312:156|312:156|293:234,1,120,0|8,3:0|0:0,0:0:0:0:
162,289,90081,2,0,L|156:205,2,60,0|0|8,3:0|0:0|0:0,0:0:0:0:
19,225,90748,2,0,B|14:163|14:163|33:85,1,120,0|8,3:0|0:0,0:0:0:0:
176,153,91414,2,0,L|260:147,2,60,0|0|8,3:0|0:0|0:0,0:0:0:0:
108,293,92081,6,0,L|254:283,1,120,0|8,3:0|0:0,0:0:0:0:
288,334,92581,1,8,0:0:0:0:
351,287,92748,2,0,L|345:215,1,60,0|0,3:0|0:0,0:0:0:0:
392,164,93081,1,2,0:3:0:0:
235,148,93414,2,0,B|234:117|234:117|250:69,3,60,0|0|8|0,3:0|0:0|0:0|0:0,0:0:0:0:
320,81,94081,2,0,B|347:90|347:90|378:89,3,60,0|0|8|0,3:0|0:0|0:0|3:0,0:0:0:0:
441,43,94748,5,0,3:0:0:0:
203,22,96081,1,0,3:0:0:0:
203,22,97414,6,0,L|198:103,1,60,0|0,3:0|3:0,0:0:0:0:
142,136,97748,2,0,L|69:129,1,60,8|0,0:0|3:0,0:0:0:0:
25,184,98081,2,0,L|20:265,1,60,0|0,0:0|3:0,0:0:0:0:
71,303,98414,1,8,0:0:0:0:
207,227,98748,1,0,3:0:0:0:
207,227,99248,1,0,3:0:0:0:
302,349,100081,6,0,L|373:344,1,60,0|0,3:0|3:0,0:0:0:0:
413,285,100414,1,8,0:0:0:0:
413,285,100581,1,0,3:0:0:0:
353,234,100748,2,0,L|348:161,1,60,2|2,0:0|0:0,0:0:0:0:
397,113,101081,1,8,0:0:0:0:
503,226,101414,1,0,3:0:0:0:
353,234,102748,6,0,L|348:161,1,60,0|0,3:0|3:0,0:0:0:0:
284,130,103081,1,8,0:0:0:0:
284,130,103248,1,0,3:0:0:0:
218,172,103414,2,0,L|222:231,2,60,0|2|8,3:0|0:0|0:0,0:0:0:0:
153,127,103914,1,0,3:0:0:0:
153,127,104081,2,0,L|59:133,2,90,0|8|2,3:0|0:0|0:0,0:0:0:0:
197,62,104748,2,0,L|273:56,1,60,10|0,0:0|3:0,0:0:0:0:
334,67,105081,2,0,B|328:97|328:97|334:129,1,60,0|8,3:0|0:0,0:0:0:0:
397,169,105414,5,0,3:0:0:0:
397,169,105581,1,0,3:0:0:0:
342,225,105748,2,0,L|266:231,1,60,8|0,0:0|3:0,0:0:0:0:
206,209,106081,2,0,L|200:135,2,60,0|0|8,3:0|3:0|0:0,0:0:0:0:
163,274,106581,1,0,3:0:0:0:
229,314,106748,2,0,L|367:301,2,120,0|8|0,3:0|0:0|3:0,0:0:0:0:
86,377,107748,1,8,0:0:0:0:
103,222,108081,6,0,L|91:88,2,120,0|8|0,3:0|0:0|3:0,0:0:0:0:
229,314,109081,1,8,0:0:0:0:
346,211,109414,1,0,3:0:0:0:
344,191,109748,1,8,0:0:0:0:
342,172,110081,1,0,3:0:0:0:
340,152,110414,1,8,0:0:0:0:
466,59,110748,6,0,B|437:63|437:63|392:56,1,60,0|0,3:0|3:0,0:0:0:0:
332,16,111081,2,0,L|328:96,1,60,8|0,0:0|0:0,0:0:0:0:
268,124,111414,2,0,L|198:119,1,60,0|8,3:0|0:0,0:0:0:0:
152,63,111748,1,2,0:0:0:0:
28,158,112081,2,0,L|22:290,1,120,0|8,3:0|0:0,0:0:0:0:
170,328,112748,2,0,B|228:320|228:320|290:334,1,120,2|2,0:3|0:0,0:0:0:0:
438,292,113414,6,0,L|444:365,2,60,0|0|0,3:0|0:0|0:0,0:0:0:0:
494,237,113914,1,0,3:0:0:0:
494,237,114081,1,8,0:0:0:0:
381,128,114414,1,0,3:0:0:0:
381,128,114581,1,0,3:0:0:0:
326,184,114748,2,0,L|251:192,1,60,0|2,3:0|0:0,0:0:0:0:
203,144,115081,2,0,L|198:84,1,60,2|2,0:0|0:0,0:0:0:0:
260,36,115414,1,2,0:3:0:0:
125,115,115748,1,0,3:0:0:0:
4,16,116081,5,2,0:3:0:0:
