osu file format v14

[General]
AudioFilename: D.mp3
AudioLeadIn: 0
PreviewTime: 6
Countdown: 0
SampleSet: Soft
StackLeniency: 0.3
Mode: 0
LetterboxInBreaks: 1
WidescreenStoryboard: 1

[Editor]
Bookmarks: 29339
DistanceSpacing: 0.5
BeatDivisor: 8
GridSize: 8
TimelineZoom: 3.699999

[Metadata]
Title:Passage D
TitleUnicode:Passage D
Artist:The Flashbulb
ArtistUnicode:The Flashbulb
Creator:z1085684963
Version:Insane
Source:osu!
Tags:ErMei moonlightleaf Lyric pata-mon Kirlian Selections benn jordan breakcore featured artist
BeatmapID:871639
BeatmapSetID:400300

[Difficulty]
HPDrainRate:6
CircleSize:4
OverallDifficulty:8
ApproachRate:9
SliderMultiplier:1.6
SliderTickRate:1

[Events]
//Background and Video events
0,0,"44585426.jpg",0,0
//Break Periods
//Storyboard Layer 0 (Background)
//Storyboard Layer 1 (Fail)
//Storyboard Layer 2 (Pass)
//Storyboard Layer 3 (Foreground)
//Storyboard Layer 4 (Overlay)
//Storyboard Sound Samples

[TimingPoints]
5415,333.333333333333,4,2,0,60,1,0
16081,-133.333333333333,4,2,0,60,0,0
16748,-100,4,2,0,60,0,0

[Colours]
Combo1 : 255,181,255
Combo2 : 102,179,255
Combo3 : 255,172,172
Combo4 : 255,177,140

[HitObjects]
144,80,5414,6,0,L|136:216,2,120
208,16,6081,1,0,3:0:0:0:
64,48,6248,1,2,0:0:0:0:
288,56,6414,1,8,0:0:0:0:
144,80,6581,1,2,0:0:0:0:
368,96,6748,6,0,P|424:96|472:0,1,160,0|8,3:0|0:0,0:0:0:0:
456,96,7248,2,0,L|472:264,1,160,0|0,3:0|0:0,0:0:0:0:
504,328,7748,2,0,P|448:336|416:312,1,80,8|0,0:0|0:0,0:0:0:0:
392,256,8081,6,0,P|336:224|272:240,2,120,0|0|0,3:0|0:0|3:0,0:0:0:0:
192,296,8748,1,0,3:0:0:0:
320,312,8914,1,2,0:0:0:0:
240,384,9081,1,8,0:0:0:0:
272,224,9248,1,2,0:0:0:0:
120,176,9414,6,0,B|96:128|96:128|128:16,1,160,0|8,3:0|0:0,0:0:0:0:
336,280,9914,2,0,B|360:232|360:232|328:120,1,160,0|0,3:0|0:0,0:0:0:0:
176,120,10414,2,0,L|168:224,1,80,8|0,0:0|0:0,0:0:0:0:
120,384,10748,6,0,L|112:248,2,120,0|0|0,3:0|0:0|3:0,0:0:0:0:
224,352,11414,1,0,3:0:0:0:
128,368,11581,1,2,0:0:0:0:
8,240,11748,1,2,0:3:0:0:
104,256,11914,1,2,0:0:0:0:
264,160,12081,6,0,L|176:168,2,80,0|0|8,3:0|3:0|0:0,0:0:0:0:
344,208,12581,1,0,3:0:0:0:
256,176,12748,2,0,P|232:112|240:80,1,80,0|2,3:0|0:3,0:0:0:0:
240,80,12998,1,0,0:0:0:0:
256,64,13081,1,8,0:0:0:0:
72,0,13248,1,0,3:0:0:0:
88,16,13331,1,0,0:0:0:0:
94,38,13414,6,0,P|91:77|16:128,1,120,0|8,3:0|0:0,0:0:0:0:
0,120,13748,2,0,L|8:216,2,80,0|8|0,0:0|0:0|0:0,0:0:0:0:
16,280,14248,1,0,3:0:0:0:
112,352,14414,1,0,3:0:0:0:
128,232,14581,1,8,0:0:0:0:
128,368,14748,6,0,L|224:352,1,80,0|0,3:0|3:0,0:0:0:0:
376,328,15081,2,0,L|297:341,1,80,8|0,0:0|3:0,0:0:0:0:
448,376,15331,1,0,0:0:0:0:
448,376,15414,2,0,P|464:320|448:272,1,80,0|0,3:0|3:0,0:0:0:0:
392,240,15664,1,0,0:0:0:0:
392,240,15748,2,0,P|360:232|336:216,1,40,8|0,0:0|0:0,0:0:0:0:
496,184,15914,2,0,P|485:200|470:213,1,40,0|0,3:0|3:0,0:0:0:0:
400,144,16081,6,0,B|408:104|408:104|384:64|384:64|392:8,2,120.000004577637,0|0|0,3:0|0:0|0:0,0:0:0:0:
472,40,16914,1,0,0:0:0:0:
320,120,17081,1,0,0:0:0:0:
184,16,17248,2,0,L|192:88,1,40
168,96,17414,5,0,3:0:0:0:
133,116,17498,1,0,0:0:0:0:
94,118,17581,1,0,0:0:0:0:
57,103,17664,1,0,3:0:0:0:
31,74,17748,1,8,0:0:0:0:
31,74,17914,2,0,L|24:144,1,40,0|0,3:0|0:0,0:0:0:0:
88,256,18081,2,0,P|136:264|112:224,1,120,0|0,3:0|0:0,0:0:0:0:
40,200,18414,2,0,L|32:272,1,40,8|0,0:0|0:0,0:0:0:0:
49,326,18581,2,0,L|40:400,1,40,0|0,3:0|0:0,0:0:0:0:
208,360,18748,6,0,B|200:320|200:320|224:280|224:280|216:224,2,120,0|0|0,3:0|3:0|3:0,0:0:0:0:
288,336,19414,1,0,3:0:0:0:
136,256,19581,1,2,0:0:0:0:
296,192,19748,1,0,0:0:0:0:
448,272,19914,1,2,0:0:0:0:
296,344,20081,6,0,P|320:272|296:200,1,120,0|0,3:0|3:0,0:0:0:0:
296,192,20414,2,0,L|224:200,1,40,8|0,0:0|0:0,0:0:0:0:
184,240,20581,2,0,L|112:248,1,40
64,216,20748,1,0,3:0:0:0:
45,180,20831,1,0,0:0:0:0:
40,141,20914,1,0,0:0:0:0:
47,102,20998,1,0,0:0:0:0:
72,72,21081,2,0,L|111:76,1,40,8|0,0:0|0:0,0:0:0:0:
192,88,21248,2,0,L|228:91,2,20,2|0|0,0:3|0:0|0:0,0:0:0:0:
208,112,21414,6,0,P|256:88|264:32,1,80,0|0,3:0|0:0,0:0:0:0:
152,176,21748,2,0,P|184:192|216:200,1,40,8|0,0:0|0:0,0:0:0:0:
312,152,21914,2,0,P|347:149|379:140,1,40,0|0,3:0|3:0,0:0:0:0:
438,51,22081,1,0,3:0:0:0:
488,176,22248,1,2,0:0:0:0:
448,40,22414,1,8,0:0:0:0:
498,165,22581,1,2,0:0:0:0:
448,288,22748,6,0,P|400:264|392:208,1,80,0|2,3:0|0:0,0:0:0:0:
504,352,23081,2,0,P|472:368|440:376,1,40,8|0,0:0|0:0,0:0:0:0:
344,328,23248,2,0,P|308:325|276:316,1,40,0|0,3:0|0:0,0:0:0:0:
218,227,23414,1,0,0:0:0:0:
200,272,23498,1,2,0:0:0:0:
184,312,23581,1,2,0:0:0:0:
168,352,23664,1,2,0:0:0:0:
128,336,23748,1,2,0:0:0:0:
43,302,23914,2,0,L|64:248,1,40,2|0,0:0|0:0,0:0:0:0:
93,177,24081,1,0,0:0:0:0:
312,312,26748,6,0,L|464:320,1,120,0|0,3:0|3:0,0:0:0:0:
512,304,27081,1,8,0:0:0:0:
392,200,27248,1,0,3:0:0:0:
304,328,27414,2,0,B|264:344|264:344|224:336,1,80,0|0,3:0|3:0,0:0:0:0:
88,288,27748,2,0,B|128:272|128:272|168:280,1,80,8|2,0:0|0:0,0:0:0:0:
64,368,27998,1,0,0:0:0:0:
48,360,28081,6,0,L|64:176,1,160,0|8,3:0|0:0,0:0:0:0:
208,304,28581,2,0,L|192:120,1,160,0|0,0:0|3:0,0:0:0:0:
40,64,29081,2,0,P|64:112|112:112,1,80,8|0,0:0|0:0,0:0:0:0:
240,56,29414,6,0,L|88:48,1,120,0|0,3:0|3:0,0:0:0:0:
40,64,29748,1,8,0:0:0:0:
160,168,29914,1,0,3:0:0:0:
248,40,30081,2,0,B|288:24|288:24|328:32,1,80,0|0,3:0|3:0,0:0:0:0:
464,80,30414,2,0,B|424:96|424:96|384:88,1,80,8|2,0:0|0:0,0:0:0:0:
488,0,30664,1,0,0:0:0:0:
504,8,30748,6,0,L|488:192,1,160,0|8,3:0|0:0,0:0:0:0:
344,64,31248,2,0,L|360:248,1,160,0|2,0:0|0:0,0:0:0:0:
472,320,31748,2,0,P|448:272|400:272,1,80,8|0,0:0|0:0,0:0:0:0:
296,296,32081,6,0,L|368:303,2,60,0|0|8,3:0|3:0|0:0,0:0:0:0:
248,360,32498,1,0,3:0:0:0:
256,368,32581,2,0,L|360:376,1,80,0|0,3:0|3:0,0:0:0:0:
352,384,32831,2,0,P|376:384|400:376,1,40,0|0,0:0|3:0,0:0:0:0:
264,224,33081,1,8,0:0:0:0:
424,288,33248,2,0,P|448:288|472:280,1,40,0|0,3:0|3:0,0:0:0:0:
496,216,33414,6,0,L|504:112,1,80,0|2,3:0|0:0,0:0:0:0:
320,88,33748,2,0,L|326:167,1,80,8|2,0:0|0:0,0:0:0:0:
488,200,34081,2,0,P|480:152|456:112,1,80,0|2,0:0|0:0,0:0:0:0:
312,72,34414,2,0,P|294:117|295:164,1,80,2|2,0:3|0:0,0:0:0:0:
360,232,34748,5,0,3:0:0:0:
256,280,34914,1,0,0:0:0:0:
152,328,35081,2,0,P|104:336|72:320,1,80,8|0,0:0|3:0,0:0:0:0:
152,232,35414,1,0,3:0:0:0:
256,280,35581,1,0,0:0:0:0:
360,328,35748,2,0,P|408:336|440:320,1,80,0|2,0:0|0:3,0:0:0:0:
360,232,36081,5,0,0:0:0:0:
256,280,36248,1,2,0:0:0:0:
152,232,36414,1,2,0:3:0:0:
256,184,36581,1,0,0:0:0:0:
312,120,36748,2,0,P|328:64|320:32,1,80,0|0,3:0|3:0,0:0:0:0:
187,43,37081,2,0,P|185:83|200:120,1,80,2|2,0:0|0:0,0:0:0:0:
256,192,37414,5,0,3:0:0:0:
360,240,37581,1,0,3:0:0:0:
256,288,37748,1,8,0:0:0:0:
152,240,37914,5,0,3:0:0:0:
40,264,38081,2,0,L|0:264,4,40,0|2|2|2|8,3:0|0:0|0:0|0:0|0:0,0:0:0:0:
256,288,38581,5,0,3:0:0:0:
256,384,38748,2,0,L|256:336,4,40,0|0|0|0|0,0:0|0:0|0:0|0:0|0:0,0:0:0:0:
360,240,39248,5,0,0:0:0:0:
472,264,39414,2,0,L|512:264,4,40,2|2|2|2|0,0:0|0:0|0:0|0:0|0:0,0:0:0:0:
256,192,39914,5,2,0:0:0:0:
336,120,40081,2,0,B|368:104|368:104|416:128,1,80,0|2,3:0|0:0,0:0:0:0:
384,320,40414,2,0,P|336:320|296:288,1,80,0|2,3:0|0:0,0:0:0:0:
176,120,40748,2,0,B|144:104|144:104|96:128,1,80,0|2,3:0|0:0,0:0:0:0:
128,320,41081,2,0,P|176:320|216:288,1,80,0|2,3:0|0:0,0:0:0:0:
256,240,41414,5,0,3:0:0:0:
256,48,41581,1,0,3:0:0:0:
256,144,41748,1,8,0:0:0:0:
56,288,41914,1,2,0:0:0:0:
56,288,41998,1,2,0:0:0:0:
56,288,42081,2,0,L|0:280,4,40,0|0|0|0|8,3:0|0:0|3:0|0:0|0:0,0:0:0:0:
24,168,42581,1,2,0:0:0:0:
64,368,42748,5,0,3:0:0:0:
256,192,42831,12,2,43914,0:0:0:0:
64,368,44081,5,0,3:0:0:0:
256,192,44164,12,0,45248,3:0:0:0:
64,368,45414,5,0,3:0:0:0:
256,192,45498,12,2,46581,0:0:0:0:
64,368,46748,5,2,0:0:0:0:
64,368,47414,2,0,L|128:376,1,40,2|2,0:0|0:0,0:0:0:0:
176,352,47581,2,0,L|215:356,1,40,2|2,0:0|0:0,0:0:0:0:
120,296,47748,2,0,P|136:248|128:216,1,80,2|2,0:0|0:0,0:0:0:0:
64,168,47998,1,0,3:0:0:0:
48,176,48081,6,0,L|56:48,1,120,0|2,3:0|0:0,0:0:0:0:
40,40,48414,2,0,L|136:48,1,80,8|0,0:0|3:0,0:0:0:0:
232,200,48748,1,0,3:0:0:0:
168,144,48914,1,0,0:0:0:0:
248,120,49081,2,0,L|327:113,1,80,8|0,0:0|0:0,0:0:0:0:
456,312,49414,5,0,3:0:0:0:
328,360,49581,1,0,3:0:0:0:
216,280,49748,1,8,0:0:0:0:
456,192,49914,2,0,L|464:264,1,40,0|0,3:0|0:0,0:0:0:0:
472,320,50081,1,2,0:0:0:0:
328,376,50248,1,0,3:0:0:0:
200,296,50414,1,8,0:0:0:0:
8,376,50748,6,0,P|72:368|96:320,1,120,0|0,3:0|0:0,0:0:0:0:
56,256,51081,1,8,0:0:0:0:
96,120,51248,1,0,3:0:0:0:
56,256,51414,2,0,P|32:192|48:160,1,80,0|0,0:0|0:0,0:0:0:0:
96,120,51664,1,0,0:0:0:0:
96,120,51748,2,0,L|112:216,1,80,8|2,0:0|0:0,0:0:0:0:
176,232,52081,6,0,P|184:184|168:144,1,80,0|0,3:0|3:0,0:0:0:0:
256,96,52414,1,8,0:0:0:0:
256,96,52581,1,0,3:0:0:0:
337,154,52748,2,0,P|327:193|336:232,1,80,2|2,0:0|0:0,0:0:0:0:
392,288,52998,1,2,0:0:0:0:
400,272,53081,2,0,L|408:336,1,40,10|0,0:0|0:0,0:0:0:0:
408,96,53248,2,0,L|416:160,1,40,2|0,0:0|0:0,0:0:0:0:
464,208,53414,6,0,L|456:336,1,120,0|0,3:0|0:0,0:0:0:0:
472,344,53748,2,0,L|376:336,1,80,8|0,0:0|3:0,0:0:0:0:
280,184,54081,1,0,3:0:0:0:
344,240,54248,1,0,0:0:0:0:
264,264,54414,2,0,L|184:270,1,80,2|0,0:3|0:0,0:0:0:0:
56,72,54748,5,2,0:3:0:0:
184,24,54914,1,2,0:3:0:0:
296,104,55081,1,0,0:0:0:0:
56,192,55248,2,0,L|48:120,1,40,2|0,0:0|0:0,0:0:0:0:
40,64,55414,1,2,0:0:0:0:
184,8,55581,1,2,0:3:0:0:
312,88,55748,1,2,0:3:0:0:
456,128,55914,1,2,0:0:0:0:
504,8,56081,6,0,P|440:16|416:64,1,120,0|0,3:0|0:0,0:0:0:0:
456,128,56414,1,8,0:0:0:0:
416,264,56581,1,0,0:0:0:0:
456,128,56748,2,0,P|480:192|464:224,1,80,0|0,3:0|0:0,0:0:0:0:
416,264,56998,1,0,0:0:0:0:
416,264,57081,2,0,L|400:168,1,80,0|0,0:0|0:0,0:0:0:0:
336,152,57414,6,0,P|328:200|344:240,1,80,0|0,0:0|3:0,0:0:0:0:
256,288,57748,1,8,0:0:0:0:
256,288,57914,1,0,3:0:0:0:
174,229,58081,2,0,P|184:190|176:152,1,80,0|0,0:0|3:0,0:0:0:0:
120,96,58331,1,0,3:0:0:0:
112,112,58414,2,0,L|104:48,1,40,8|0,0:0|0:0,0:0:0:0:
104,288,58581,2,0,L|96:224,1,40,0|0,0:0|0:0,0:0:0:0:
0,144,58748,5,0,3:0:0:0:
72,176,58914,1,0,0:0:0:0:
8,224,59081,1,8,0:0:0:0:
8,224,59248,1,0,3:0:0:0:
224,80,59414,1,0,3:0:0:0:
152,112,59581,1,0,0:0:0:0:
216,160,59748,1,8,0:0:0:0:
224,80,59914,1,0,0:0:0:0:
96,24,60081,6,0,P|40:32|24:64,1,80,0|0,3:0|0:0,0:0:0:0:
72,120,60414,2,0,L|79:199,1,80,0|0,3:0|0:0,0:0:0:0:
96,208,60664,1,2,0:0:0:0:
112,216,60748,1,8,0:0:0:0:
256,272,60914,1,0,0:0:0:0:
400,328,61081,1,0,0:0:0:0:
416,336,61164,1,2,0:0:0:0:
432,344,61248,1,8,0:0:0:0:
512,144,61414,5,0,3:0:0:0:
440,176,61581,1,0,0:0:0:0:
504,224,61748,1,8,0:0:0:0:
504,224,61914,1,0,0:0:0:0:
288,80,62081,1,0,3:0:0:0:
360,112,62248,1,0,3:0:0:0:
296,160,62414,1,8,0:0:0:0:
288,80,62581,1,0,3:0:0:0:
416,24,62748,6,0,P|472:32|488:64,1,80,0|0,3:0|0:0,0:0:0:0:
440,120,63081,2,0,L|432:199,1,80,0|0,0:0|3:0,0:0:0:0:
416,208,63331,1,0,0:0:0:0:
400,216,63414,1,0,0:0:0:0:
256,272,63581,1,0,3:0:0:0:
112,328,63748,1,8,0:0:0:0:
96,336,63831,1,0,0:0:0:0:
80,344,63914,1,0,0:0:0:0:
16,296,64081,6,0,P|8:240|24:200,1,80,0|0,3:0|3:0,0:0:0:0:
64,152,64414,2,0,L|136:160,1,40,8|0,0:0|0:0,0:0:0:0:
184,168,64581,2,0,L|256:176,1,40,0|0,3:0|0:0,0:0:0:0:
304,184,64748,1,0,3:0:0:0:
232,256,64914,1,0,3:0:0:0:
184,168,65081,1,8,0:0:0:0:
136,80,65248,1,0,0:0:0:0:
64,152,65414,5,0,3:0:0:0:
368,80,66748,6,0,L|376:216,2,120,0|0|0,3:0|0:0|0:0,0:0:0:0:
304,16,67414,1,0,0:0:0:0:
448,48,67581,1,0,0:0:0:0:
224,56,67748,1,8,0:0:0:0:
368,80,67914,1,0,0:0:0:0:
144,96,68081,6,0,P|88:96|40:0,1,160,0|0,0:0|0:0,0:0:0:0:
56,96,68581,2,0,L|40:264,1,160,0|0,0:0|0:0,0:0:0:0:
8,328,69081,2,0,P|64:336|96:312,1,80,8|0,0:0|3:0,0:0:0:0:
120,256,69414,6,0,P|176:224|240:240,2,120,0|0|0,3:0|0:0|0:0,0:0:0:0:
320,296,70081,1,0,0:0:0:0:
192,312,70248,1,0,0:0:0:0:
272,384,70414,1,8,0:0:0:0:
240,224,70581,1,0,0:0:0:0:
392,176,70748,6,0,B|416:128|416:128|384:16,1,160,0|8,3:0|0:0,0:0:0:0:
176,280,71248,2,0,B|152:232|152:232|184:120,1,160,8|0,0:0|0:0,0:0:0:0:
336,120,71748,2,0,L|344:224,1,80,8|0,0:0|3:0,0:0:0:0:
392,384,72081,6,0,L|400:248,2,120,0|0|0,3:0|0:0|3:0,0:0:0:0:
288,352,72748,1,0,3:0:0:0:
384,368,72914,1,0,0:0:0:0:
504,240,73081,1,8,0:0:0:0:
408,256,73248,1,0,3:0:0:0:
248,160,73414,6,0,L|336:168,2,80,0|0|0,0:0|0:0|0:0,0:0:0:0:
168,208,73914,1,0,0:0:0:0:
256,176,74081,2,0,P|280:112|272:80,1,80,0|0,0:0|0:0,0:0:0:0:
272,80,74331,1,0,3:0:0:0:
256,64,74414,1,0,0:0:0:0:
440,0,74581,1,0,3:0:0:0:
424,16,74664,1,0,0:0:0:0:
418,38,74748,6,0,P|421:77|496:128,1,120,0|0,0:0|0:0,0:0:0:0:
512,120,75081,2,0,L|504:216,1,80,0|0,3:0|0:0,0:0:0:0:
496,288,75414,2,0,L|488:384,1,80,0|0,3:0|0:0,0:0:0:0:
392,320,75748,2,0,L|400:392,3,40,2|2|2|2,0:3|0:3|0:0|0:0,0:0:0:0:
376,296,76081,6,0,P|344:256|280:280,1,120,2|0,3:0|3:0,0:0:0:0:
232,336,76414,1,8,0:0:0:0:
256,192,76623,1,0,3:0:0:0:
280,48,76873,1,0,3:0:0:0:
480,32,77081,2,0,L|360:16,1,120,8|0,0:0|3:0,0:0:0:0:
200,80,77581,2,0,L|80:64,1,120,8|0,0:0|3:0,0:0:0:0:
280,48,78081,1,8,0:0:0:0:
256,192,78331,1,0,0:0:0:0:
232,336,78581,1,0,0:0:0:0:
40,320,78831,6,0,P|107:332|160:296,1,120,0|8,0:0|0:0,0:0:0:0:
0,112,79248,1,0,3:0:0:0:
80,168,79414,1,0,3:0:0:0:
80,168,79498,1,0,0:0:0:0:
80,168,79581,1,0,0:0:0:0:
80,168,79664,1,0,3:0:0:0:
80,168,79748,2,0,L|86:247,1,80,8|0,0:0|3:0,0:0:0:0:
152,104,79998,1,0,0:0:0:0:
142,111,80081,6,0,L|150:7,1,80,0|0,0:0|0:0,0:0:0:0:
166,199,80414,1,8,0:0:0:0:
166,199,80498,1,0,0:0:0:0:
166,199,80581,1,0,0:0:0:0:
166,199,80664,1,0,0:0:0:0:
166,199,80748,2,0,L|172:278,1,80,0|0,0:0|0:0,0:0:0:0:
228,142,81081,2,0,L|236:38,1,80,0|0,0:0|0:0,0:0:0:0:
440,120,81414,6,0,L|448:272,1,120,0|0,3:0|0:0,0:0:0:0:
432,320,81748,1,8,0:0:0:0:
328,200,81914,1,0,0:0:0:0:
456,112,82081,2,0,B|472:72|472:72|464:32,1,80,0|0,3:0|3:0,0:0:0:0:
376,16,82331,1,0,0:0:0:0:
352,8,82414,2,0,B|336:48|336:48|344:88,1,80,8|2,0:0|0:0,0:0:0:0:
352,216,82748,6,0,P|304:240|256:224,1,80,0|0,3:0|3:0,0:0:0:0:
176,312,83081,2,0,P|131:282|121:232,1,80,8|0,0:0|0:0,0:0:0:0:
4,207,83414,2,0,P|7:153|45:119,1,80,0|0,3:0|3:0,0:0:0:0:
40,120,83664,1,0,3:0:0:0:
64,112,83748,6,0,P|83:157|-5:202,1,160,8|0,0:0|0:0,0:0:0:0:
16,288,84164,1,0,0:0:0:0:
20,314,84248,1,0,3:0:0:0:
24,340,84331,1,0,0:0:0:0:
29,366,84414,1,8,0:0:0:0:
104,320,84581,1,0,0:0:0:0:
108,346,84664,1,0,0:0:0:0:
112,372,84748,1,0,3:0:0:0:
184,328,84914,1,0,0:0:0:0:
188,354,84998,1,0,0:0:0:0:
192,380,85081,5,10,0:0:0:0:
256,288,85248,2,0,L|256:240,2,40,0|0|0,3:0|3:0|0:0,0:0:0:0:
320,380,85581,2,0,L|408:376,1,80,2|8,0:0|0:0,0:0:0:0:
512,296,85914,2,0,L|432:299,1,80,2|0,0:0|3:0,0:0:0:0:
320,224,86248,2,0,L|408:220,1,80,2|8,0:0|0:0,0:0:0:0:
512,140,86581,2,0,L|432:143,1,80,0|0,0:0|3:0,0:0:0:0:
416,136,86831,5,0,3:0:0:0:
400,128,86914,1,0,3:0:0:0:
392,8,87081,1,8,0:0:0:0:
288,104,87248,1,0,3:0:0:0:
304,104,87331,1,0,3:0:0:0:
320,104,87414,1,0,3:0:0:0:
392,8,87581,1,0,0:0:0:0:
336,184,87748,2,0,B|320:232|320:232|336:288,1,80,8|0,0:0|3:0,0:0:0:0:
352,336,88081,5,0,3:0:0:0:
192,380,88248,2,0,L|104:376,1,80,2|8,0:0|0:0,0:0:0:0:
0,296,88581,2,0,L|79:299,1,80,2|0,0:0|3:0,0:0:0:0:
192,224,88914,2,0,L|104:220,1,80,2|8,0:0|0:0,0:0:0:0:
0,140,89248,2,0,L|79:143,1,80,0|0,3:0|3:0,0:0:0:0:
96,136,89498,5,0,0:0:0:0:
112,128,89581,1,2,0:0:0:0:
128,120,89664,1,2,0:0:0:0:
144,112,89748,1,8,0:0:0:0:
0,56,89914,2,0,L|79:59,1,80,8|0,0:0|3:0,0:0:0:0:
96,52,90164,1,8,0:0:0:0:
112,44,90248,1,0,0:0:0:0:
128,36,90331,1,0,3:0:0:0:
144,28,90414,1,8,0:0:0:0:
216,72,90581,1,0,3:0:0:0:
296,48,90748,6,0,P|328:96|320:144,1,80,0|0,3:0|0:0,0:0:0:0:
440,168,91081,2,0,P|408:120|416:72,2,80,8|0|0,0:0|0:0|3:0,0:0:0:0:
448,32,91581,1,0,0:0:0:0:
448,32,91748,2,0,P|480:80|472:128,1,80,8|0,0:0|3:0,0:0:0:0:
352,264,92081,6,0,L|272:272,1,80,0|0,3:0|0:0,0:0:0:0:
160,264,92414,2,0,L|240:272,1,80,8|8,0:0|0:0,0:0:0:0:
256,280,92664,1,0,0:0:0:0:
256,296,92748,2,0,L|256:376,1,80,0|0,3:0|0:0,0:0:0:0:
256,192,93081,2,0,L|256:112,1,80,2|0,0:3|0:0,0:0:0:0:
216,48,93414,6,0,P|184:96|192:144,1,80,0|0,3:0|0:0,0:0:0:0:
72,168,93748,2,0,P|104:120|96:72,2,80,8|0|0,0:0|0:0|3:0,0:0:0:0:
64,32,94248,1,0,0:0:0:0:
64,32,94414,2,0,P|32:80|40:128,1,80,8|0,0:0|3:0,0:0:0:0:
160,264,94748,6,0,L|240:272,1,80,0|0,3:0|0:0,0:0:0:0:
352,264,95081,2,0,L|272:272,1,80,0|0,3:0|0:0,0:0:0:0:
256,280,95331,1,0,0:0:0:0:
256,296,95414,2,0,L|256:376,1,80,0|2,3:0|0:3,0:0:0:0:
256,192,95748,2,0,L|256:112,1,80,8|0,3:0|0:0,0:0:0:0:
48,208,96081,6,0,L|56:336,1,120,0|0,3:0|0:0,0:0:0:0:
40,344,96414,2,0,L|136:336,1,80,8|0,0:0|3:0,0:0:0:0:
232,184,96748,1,0,3:0:0:0:
168,240,96914,1,0,0:0:0:0:
248,264,97081,2,0,L|327:271,1,80,8|0,0:0|0:0,0:0:0:0:
456,72,97414,5,0,3:0:0:0:
328,24,97581,1,0,3:0:0:0:
216,104,97748,1,8,0:0:0:0:
456,192,97914,1,0,3:0:0:0:
472,64,98081,1,0,0:0:0:0:
328,8,98248,1,0,3:0:0:0:
200,88,98414,1,8,0:0:0:0:
8,8,98748,6,0,P|72:16|96:64,1,120,0|0,3:0|0:0,0:0:0:0:
56,128,99081,1,8,0:0:0:0:
96,264,99248,1,0,3:0:0:0:
56,128,99414,2,0,P|32:192|48:224,1,80,0|0,3:0|0:0,0:0:0:0:
96,264,99664,1,0,0:0:0:0:
96,264,99748,2,0,L|112:168,1,80,8|2,0:0|0:0,0:0:0:0:
176,152,100081,2,0,P|184:200|168:240,1,80,0|0,3:0|3:0,0:0:0:0:
256,288,100414,1,8,0:0:0:0:
256,288,100581,1,0,3:0:0:0:
337,230,100748,2,0,P|327:191|336:152,1,80,2|2,0:0|0:0,0:0:0:0:
392,96,100998,1,2,0:0:0:0:
400,112,101081,6,0,L|408:48,1,40,8|0,0:0|0:0,0:0:0:0:
408,288,101248,2,0,L|416:224,1,40,0|0,0:0|0:0,0:0:0:0:
464,176,101414,2,0,L|456:48,1,120,0|2,3:0|0:0,0:0:0:0:
472,40,101748,2,0,L|376:48,1,80,8|0,0:0|3:0,0:0:0:0:
280,200,102081,1,0,3:0:0:0:
344,144,102248,1,0,0:0:0:0:
264,120,102414,2,0,L|184:114,1,80,2|0,0:3|0:0,0:0:0:0:
56,312,102748,5,0,3:0:0:0:
184,360,102914,1,0,3:0:0:0:
296,280,103081,1,8,0:0:0:0:
56,192,103248,1,0,3:0:0:0:
40,320,103414,1,0,3:0:0:0:
184,376,103581,1,2,0:0:0:0:
312,296,103748,1,8,0:0:0:0:
456,256,103914,1,0,3:0:0:0:
504,376,104081,6,0,P|440:368|416:320,1,120,0|8,3:0|0:0,0:0:0:0:
456,256,104414,1,2,0:0:0:0:
416,120,104581,1,0,0:0:0:0:
456,256,104748,2,0,P|480:192|464:160,1,80,10|0,0:0|3:0,0:0:0:0:
416,120,104998,1,0,0:0:0:0:
416,120,105081,2,0,L|400:216,1,80,0|8,0:0|0:0,0:0:0:0:
336,232,105414,6,0,P|328:184|344:144,1,80,0|0,3:0|3:0,0:0:0:0:
256,96,105748,1,8,0:0:0:0:
256,96,105914,1,0,3:0:0:0:
174,155,106081,2,0,P|184:194|176:232,1,80,0|0,0:0|0:0,0:0:0:0:
120,288,106331,1,0,0:0:0:0:
112,272,106414,2,0,L|104:336,1,40,8|0,0:0|3:0,0:0:0:0:
104,96,106581,2,0,L|96:160,1,40,0|0,3:0|3:0,0:0:0:0:
0,240,106748,5,0,3:0:0:0:
40,224,106831,1,0,0:0:0:0:
72,208,106914,1,0,0:0:0:0:
40,184,106998,1,0,3:0:0:0:
8,160,107081,1,8,0:0:0:0:
8,160,107248,1,0,3:0:0:0:
224,304,107414,1,0,3:0:0:0:
192,288,107498,1,0,0:0:0:0:
152,272,107581,1,0,3:0:0:0:
184,248,107664,1,0,0:0:0:0:
216,224,107748,1,8,0:0:0:0:
224,304,107914,1,0,0:0:0:0:
96,360,108081,6,0,P|40:352|24:320,1,80,0|0,3:0|3:0,0:0:0:0:
72,264,108414,2,0,L|79:185,1,80,8|0,0:0|3:0,0:0:0:0:
96,176,108664,1,0,3:0:0:0:
112,168,108748,1,0,3:0:0:0:
256,112,108914,1,0,3:0:0:0:
400,56,109081,1,8,0:0:0:0:
416,48,109164,1,0,0:0:0:0:
432,40,109248,2,0,L|424:112,1,40,0|0,0:0|0:0,0:0:0:0:
507,279,109414,6,0,L|512:240,1,40,0|0,3:0|0:0,0:0:0:0:
407,184,109581,2,0,L|440:208,1,40,0|0,0:0|0:0,0:0:0:0:
504,160,109748,1,8,0:0:0:0:
504,160,109831,1,0,3:0:0:0:
504,160,109914,2,0,L|508:120,2,40,0|0|0,3:0|3:0|3:0,0:0:0:0:
360,272,110248,1,0,0:0:0:0:
328,248,110331,1,0,0:0:0:0:
296,224,110414,1,8,0:0:0:0:
288,304,110581,1,2,0:0:0:0:
416,360,110748,6,0,L|464:352,1,40,0|0,3:0|0:0,0:0:0:0:
512,280,110914,2,0,L|464:272,1,40,0|0,3:0|0:0,0:0:0:0:
440,264,111081,1,8,0:0:0:0:
440,264,111164,2,0,L|432:185,1,80,0|8,0:0|0:0,0:0:0:0:
376,104,111414,2,0,B|352:136|352:136|304:152,1,80,0|8,3:0|0:0,0:0:0:0:
112,56,111748,1,2,0:0:0:0:
96,48,111831,1,2,0:0:0:0:
80,40,111914,2,0,L|96:96,1,40,2|2,0:0|0:0,0:0:0:0:
16,88,112081,6,0,P|8:144|24:184,1,80,0|0,3:0|0:0,0:0:0:0:
64,232,112414,1,8,0:0:0:0:
184,216,112539,1,8,0:0:0:0:
304,200,112664,1,8,0:0:0:0:
304,200,112748,6,0,L|352:192,1,40,2|2,0:3|0:0,0:0:0:0:
232,128,112914,2,0,L|280:120,1,40,0|0,0:0|0:0,0:0:0:0:
184,216,113081,2,0,L|232:208,1,40,2|0,0:0|0:0,0:0:0:0:
136,304,113248,2,0,L|184:296,1,40,0|0,3:0|3:0,0:0:0:0:
64,232,113414,5,0,3:0:0:0:
49,227,113498,1,0,0:0:0:0:
37,219,113581,1,0,0:0:0:0:
29,206,113664,1,0,0:0:0:0:
26,191,113748,1,0,0:0:0:0:
29,177,113831,1,0,0:0:0:0:
37,164,113914,1,0,3:0:0:0:
49,155,113998,1,0,0:0:0:0:
64,151,114081,5,8,0:0:0:0:
64,152,114414,1,0,3:0:0:0:
216,192,114581,2,0,L|136:192,1,80,0|0,3:0|3:0,0:0:0:0:
232,112,114914,6,0,P|280:96|312:112,1,80,2|2,0:0|0:0,0:0:0:0:
305,277,115164,2,0,P|267:288|232:272,1,80,2|2,0:0|0:0,0:0:0:0:
360,160,115414,2,0,B|336:192|336:192|360:224,1,80,2|2,0:3|0:0,0:0:0:0:
440,192,115748,1,0,3:0:0:0:
440,192,115914,2,0,L|480:192,2,40,2|0|2,0:0|0:0|0:3,0:0:0:0:
