osu file format v14

[General]
AudioFilename: D.mp3
AudioLeadIn: 0
PreviewTime: 6
Countdown: 0
SampleSet: Soft
StackLeniency: 0.5
Mode: 0
LetterboxInBreaks: 1
WidescreenStoryboard: 1

[Editor]
Bookmarks: 29339
DistanceSpacing: 1
BeatDivisor: 4
GridSize: 4
TimelineZoom: 2

[Metadata]
Title:Passage D
TitleUnicode:Passage D
Artist:The Flashbulb
ArtistUnicode:The Flashbulb
Creator:z1085684963
Version:ErMei's Normal
Source:osu!
Tags:ErMei moonlightleaf Lyric pata-mon Kirlian Selections benn jordan breakcore featured artist
BeatmapID:975580
BeatmapSetID:400300

[Difficulty]
HPDrainRate:4
CircleSize:4
OverallDifficulty:4
ApproachRate:5
SliderMultiplier:1
SliderTickRate:1

[Events]
//Background and Video events
0,0,"44585426.jpg",0,0
//Break Periods
2,24281,25548
2,45615,46881
2,73614,74881
2,79031,80214
//Storyboard Layer 0 (Background)
//Storyboard Layer 1 (Fail)
//Storyboard Layer 2 (Pass)
//Storyboard Layer 3 (Foreground)
//Storyboard Layer 4 (Overlay)
//Storyboard Sound Samples

[TimingPoints]
5415,333.333333333333,4,2,0,60,1,0

[Colours]
Combo1 : 255,181,255
Combo2 : 102,179,255
Combo3 : 255,172,172
Combo4 : 255,177,140

[HitObjects]
66,59,5414,5,0,3:0:0:0:
159,95,5748,2,0,P|168:143|161:193,1,100,8|0,0:0|3:0,0:0:0:0:
136,240,6248,2,0,L|248:216,1,100,2|2,0:0|0:0,0:0:0:0:
280,232,6748,1,0,3:0:0:0:
376,252,7081,2,0,L|390:299,1,50,8|0,0:0|3:0,0:0:0:0:
448,220,7581,2,0,L|462:172,1,50,0|8,3:0|0:0,0:0:0:0:
411,88,8081,5,0,3:0:0:0:
312,104,8414,1,8,0:0:0:0:
212,92,8748,2,0,P|163:83|121:57,1,100,0|8,3:0|0:0,0:0:0:0:
44,120,9414,2,0,L|34:169,2,50,0|0|8,3:0|3:0|0:0,0:0:0:0:
92,132,9914,2,0,P|134:157|183:167,1,100,0|2,3:0|0:0,0:0:0:0:
232,168,10414,1,10,0:0:0:0:
260,264,10748,5,0,3:0:0:0:
331,196,11081,2,0,P|381:195|430:206,1,100,8|0,0:0|3:0,0:0:0:0:
492,284,11748,1,2,0:3:0:0:
408,340,12081,2,0,P|358:339|309:350,1,100,0|8,3:0|0:0,0:0:0:0:
260,364,12581,1,0,3:0:0:0:
180,304,12914,2,2,L|172:353,1,50,2|8,0:3|0:0,0:0:0:0:
80,312,13414,5,0,3:0:0:0:
88,212,13748,2,0,B|96:184|96:184|124:168|151:140,1,100,2|8,0:0|0:0,0:0:0:0:
248,112,14414,2,0,L|304:100,1,50,0|8,3:0|0:0,0:0:0:0:
332,64,14748,2,0,L|359:160,1,100,0|8,3:0|0:0,0:0:0:0:
388,256,15414,2,0,L|402:303,2,50,0|0|8,3:0|3:0|0:0,0:0:0:0:
287,243,16081,6,0,P|238:243|189:253,1,100,0|0,3:0|0:0,0:0:0:0:
96,296,16748,2,0,L|84:248,1,50,2|2,0:0|0:0,0:0:0:0:
71,198,17081,2,0,L|56:133,1,50,2|2,0:0|0:0,0:0:0:0:
50,100,17414,2,0,P|99:100|143:78,1,100,0|8,3:0|0:0,0:0:0:0:
185,50,17914,2,0,P|257:29|327:51,1,150,0|10,3:0|0:0,0:0:0:0:
428,55,18748,5,0,3:0:0:0:
404,152,19081,2,0,B|396:192|396:192|404:220|403:250,1,100,8|0,0:0|3:0,0:0:0:0:
360,340,19748,1,0,0:0:0:0:
284,274,20081,2,0,B|233:274|233:274|186:257,1,100,0|8,3:0|0:0,0:0:0:0:
102,203,20748,2,0,L|81:248,2,50,0|0|0,3:0|0:0|0:0,0:0:0:0:
164,124,21414,5,0,3:0:0:0:
252,76,21748,2,0,L|312:76,1,50,8|0,0:0|3:0,0:0:0:0:
320,176,22248,2,0,L|366:156,1,50,2|8,0:0|0:0,0:0:0:0:
460,120,22748,1,0,3:0:0:0:
464,220,23081,2,0,L|472:269,1,50,8|0,0:0|3:0,0:0:0:0:
424,356,23581,2,0,L|384:325,1,50,2|2,0:0|0:0,0:0:0:0:
312,256,24081,5,0,0:0:0:0:
340,104,26748,6,0,B|288:112|288:112|240:109,1,100,0|8,3:0|0:0,0:0:0:0:
144,136,27414,2,0,B|152:176|152:176|152:235,1,100,0|8,3:0|0:0,0:0:0:0:
132,336,28082,1,0,3:0:0:0:
228,308,28414,2,0,L|276:322,1,50,8|0,0:0|0:0,0:0:0:0:
360,264,28914,2,0,L|313:250,1,50,0|8,3:0|0:0,0:0:0:0:
220,211,29414,6,0,B|224:160|224:160|212:112,1,100,0|8,3:0|0:0,0:0:0:0:
312,136,30082,2,0,P|360:127|403:100,1,100,0|8,3:0|0:0,0:0:0:0:
488,48,30748,1,0,3:0:0:0:
500,148,31081,2,0,L|505:197,1,50,8|0,0:0|0:0,0:0:0:0:
428,260,31581,2,0,L|422:309,1,50,2|8,0:0|0:0,0:0:0:0:
324,332,32081,6,0,B|272:328|272:328|225:338,1,100,0|0,3:0|0:0,0:0:0:0:
129,366,32748,2,0,P|126:341|117:317,1,50,0|0,3:0|3:0,0:0:0:0:
69,302,33081,2,0,P|45:293|26:277,1,50,8|0,0:0|3:0,0:0:0:0:
0,235,33414,2,0,P|28:195|73:176,1,100,0|8,3:0|0:0,0:0:0:0:
163,215,34081,2,0,P|213:220|262:210,1,100,0|2,0:0|0:3,0:0:0:0:
364,215,34748,6,0,P|351:263|365:311,1,100,0|8,3:0|0:0,0:0:0:0:
459,338,35414,2,0,P|463:314|461:289,1,50,0|0,3:0|0:0,0:0:0:0:
459,239,35748,2,0,P|462:210|472:182,1,50,0|2,3:0|0:3,0:0:0:0:
485,143,36081,2,0,L|385:143,1,100,0|2,0:0|0:3,0:0:0:0:
295,187,36748,2,0,L|245:187,1,50,0|0,3:0|3:0,0:0:0:0:
201,211,37081,2,0,L|151:211,1,50,2|2,0:0|0:0,0:0:0:0:
107,236,37414,6,0,P|117:284|117:334,2,100,0|8|0,3:0|0:0|3:0,0:0:0:0:
18,56,38748,5,0,0:0:0:0:
192,153,39414,1,2,0:0:0:0:
376,72,40081,6,0,B|392:108|392:108|384:136|387:168,1,100,0|0,3:0|3:0,0:0:0:0:
396,268,40748,2,0,L|398:317,2,50,0|2|0,3:0|0:0|3:0,0:0:0:0:
296,276,41414,2,0,L|288:325,2,50,0|0|8,3:0|3:0|0:0,0:0:0:0:
244,192,42081,2,0,B|194:201|194:201|145:193,1,100,0|8,3:0|0:0,0:0:0:0:
48,164,42748,5,0,3:0:0:0:
72,264,44082,5,0,3:0:0:0:
168,304,45415,5,0,3:0:0:0:
368,248,48081,6,0,B|376:208|376:208|368:144,1,100,0|8,3:0|0:0,0:0:0:0:
320,60,48748,1,0,3:0:0:0:
220,52,49081,1,8,0:0:0:0:
124,71,49414,2,0,P|81:97|31:104,1,100,0|8,3:0|0:0,0:0:0:0:
36,204,50081,2,0,B|40:256|40:256|40:316,1,100,2|8,0:0|0:0,0:0:0:0:
136,336,50748,6,0,B|176:324|176:324|233:330,1,100,0|8,3:0|0:0,0:0:0:0:
284,340,51248,1,0,3:0:0:0:
332,348,51414,2,0,B|380:360|380:360|428:345,1,100,0|8,0:0|0:0,0:0:0:0:
476,256,52081,2,0,L|478:206,2,50,0|0|8,3:0|3:0|0:0,0:0:0:0:
376,260,52748,2,0,B|324:248|324:248|278:260,1,100,2|10,0:0|0:0,0:0:0:0:
183,292,53414,6,0,P|134:294|93:267,1,100,0|8,3:0|0:0,0:0:0:0:
72,168,54081,2,0,P|121:166|162:193,1,100,0|2,3:0|0:3,0:0:0:0:
256,224,54748,2,0,L|351:195,1,100,2|0,0:3|0:0,0:0:0:0:
400,180,55248,1,2,0:0:0:0:
448,168,55414,2,0,L|462:266,1,100,2|2,0:0|0:3,0:0:0:0:
396,344,56081,6,0,B|360:336|360:336|298:350,1,100,0|8,3:0|0:0,0:0:0:0:
204,380,56748,1,0,3:0:0:0:
176,284,57081,2,0,L|162:235,1,50,0|10,3:0|0:0,0:0:0:0:
139,192,57414,2,0,P|92:205|42:208,2,100,0|8|0,3:0|0:0|3:0,0:0:0:0:
184,168,58248,2,0,L|227:143,1,50,0|8,3:0|0:0,0:0:0:0:
311,91,58748,6,0,P|361:95|409:83,2,100,0|8|0,3:0|0:0|3:0,0:0:0:0:
267,67,59581,2,0,L|222:44,1,50,0|8,0:0|0:0,0:0:0:0:
124,56,60081,5,0,3:0:0:0:
68,140,61414,5,0,3:0:0:0:
68,240,62748,5,0,3:0:0:0:
124,324,64081,5,0,3:0:0:0:
220,344,65414,5,0,3:0:0:0:
220,344,66748,6,0,B|224:292|224:292|208:246,1,100,0|8,3:0|0:0,0:0:0:0:
260,161,67414,2,0,B|294:158|309:165,1,50,0|0,3:0|0:0,0:0:0:0:
343,203,67748,2,0,P|358:226|379:238,1,50,10|2,0:0|0:0,0:0:0:0:
427,240,68081,2,0,P|462:204|472:156,1,100,0|10,3:0|0:0,0:0:0:0:
419,72,68748,2,0,B|367:72|367:72|323:51,1,100,0|8,3:0|0:0,0:0:0:0:
225,69,69414,6,0,L|139:67,2,75,0|2|2,3:0|0:0|0:0,0:0:0:0:
259,106,70081,1,0,3:0:0:0:
298,197,70414,1,8,0:0:0:0:
220,260,70748,2,0,B|180:260|180:260|123:242,2,100,0|8|0,3:0|0:0|3:0,0:0:0:0:
313,296,71748,1,8,0:0:0:0:
400,247,72081,5,0,3:0:0:0:
414,47,72748,1,0,3:0:0:0:
233,133,73414,1,0,3:0:0:0:
256,192,76081,12,0,78831,3:0:0:0:
116,192,81414,6,0,B|148:184|148:184|214:191,1,100,0|8,3:0|0:0,0:0:0:0:
256,284,82081,2,0,L|256:334,2,50,0|0|8,3:0|3:0|0:0,0:0:0:0:
297,191,82748,2,0,B|364:184|364:184|396:192,1,100,0|8,3:0|0:0,0:0:0:0:
463,265,83414,2,0,L|463:315,2,50,0|0|8,3:0|3:0|0:0,0:0:0:0:
494,169,84081,6,0,L|485:119,3,50,0|0|8|2,3:0|3:0|0:0|0:0,0:0:0:0:
459,76,84748,2,0,B|419:92|419:92|362:85,1,100,0|10,3:0|0:0,0:0:0:0:
313,72,85248,1,0,3:0:0:0:
264,82,85414,2,0,B|216:97|216:97|177:128,1,100,0|8,3:0|0:0,0:0:0:0:
209,223,86081,2,0,B|221:255|221:255|218:320,1,100,0|8,3:0|0:0,0:0:0:0:
315,343,86748,6,0,B|362:333|362:333|391:299|442:271,2,150,0|2|8,3:0|0:0|0:0,0:0:0:0:
264,256,88081,6,0,B|232:244|232:244|200:248|166:245,1,100,0|8,3:0|0:0,0:0:0:0:
84,304,88748,2,0,P|63:258|70:210,1,100,0|8,3:0|0:0,0:0:0:0:
92,164,89248,1,0,3:0:0:0:
112,120,89414,2,0,B|144:116|144:116|209:134,1,100,0|8,3:0|0:0,0:0:0:0:
304,164,90081,2,0,B|356:168|356:168|402:156,1,100,0|8,3:0|0:0,0:0:0:0:
470,228,90748,6,0,B|462:268|462:268|462:332,1,100,0|8,3:0|0:0,0:0:0:0:
364,348,91414,2,0,L|315:359,2,50,0|0|8,3:0|0:0|0:0,0:0:0:0:
320,256,92081,2,0,B|296:244|296:244|224:257,1,100,0|8,3:0|0:0,0:0:0:0:
140,312,92748,2,0,L|136:361,2,50,0|0|2,3:0|0:0|0:3,0:0:0:0:
128,212,93414,6,0,B|104:176|104:176|55:146,1,100,0|8,3:0|0:0,0:0:0:0:
92,52,94081,2,0,B|128:60|128:60|189:45,1,100,0|8,3:0|0:0,0:0:0:0:
288,32,94748,2,0,L|296:136,1,100,0|0,3:0|3:0,0:0:0:0:
308,232,95414,1,0,3:0:0:0:
308,232,95581,2,0,L|311:281,1,50,2|0,0:3|3:0,0:0:0:0:
392,344,96081,6,0,P|411:298|407:248,1,100,0|8,3:0|0:0,0:0:0:0:
372,156,96748,2,0,L|352:109,2,50,0|0|8,3:0|0:0|0:0,0:0:0:0:
308,232,97414,2,0,P|212:254|120:219,1,200,0|0,3:0|0:0,0:0:0:0:
84,184,98248,2,0,L|48:148,1,50,0|8,3:0|0:0,0:0:0:0:
104,64,98748,6,0,B|144:76|144:76|201:65,1,100,0|8,3:0|0:0,0:0:0:0:
252,60,99248,2,0,L|256:120,1,50,0|0,3:0|3:0,0:0:0:0:
260,208,99748,1,8,0:0:0:0:
344,156,100081,2,0,L|394:156,2,50,0|0|8,3:0|3:0|0:0,0:0:0:0:
260,208,100748,2,0,B|228:216|228:216|161:209,1,100,2|8,0:0|0:0,0:0:0:0:
64,183,101414,6,0,B|63:215|63:215|46:280,1,100,0|8,3:0|0:0,0:0:0:0:
120,348,102081,2,0,B|152:344|152:344|218:355,1,100,0|2,3:0|0:3,0:0:0:0:
319,352,102748,2,0,P|381:312|398:241,1,150,0|0,3:0|3:0,0:0:0:0:
368,204,103414,2,0,B|344:208|344:208|268:198,1,100,0|8,3:0|0:0,0:0:0:0:
176,164,104081,6,0,B|132:164|132:164|81:187,2,100,0|2|10,3:0|0:0|0:0,0:0:0:0:
192,264,105081,1,0,3:0:0:0:
163,359,105414,2,0,P|120:336|96:293,1,100,0|8,3:0|0:0,0:0:0:0:
68,196,106081,1,0,3:0:0:0:
36,100,106414,2,0,L|50:52,1,50,8|0,0:0|3:0,0:0:0:0:
100,52,106748,6,0,B|128:64|128:64|196:49,1,100,0|8,3:0|0:0,0:0:0:0:
256,128,107414,2,0,L|272:184,2,50,0|0|8,3:0|3:0|0:0,0:0:0:0:
300,36,108081,2,0,L|350:36,1,50,0|0,3:0|3:0,0:0:0:0:
400,36,108414,2,0,B|396:80|396:80|406:134,1,100,8|0,0:0|3:0,0:0:0:0:
428,232,109081,1,8,0:0:0:0:
392,323,109414,6,0,P|345:340|296:331,1,100,0|8,3:0|0:0,0:0:0:0:
208,284,110081,2,0,L|201:333,2,50,0|0|8,3:0|0:0|0:0,0:0:0:0:
200,183,110748,2,0,P|132:211|103:278,1,150,0|0,3:0|0:0,0:0:0:0:
76,320,111414,2,0,L|43:173,1,150,0|2,3:0|0:0,0:0:0:0:
32,124,112081,5,0,3:0:0:0:
108,56,113414,6,0,B|156:60|156:60|224:52,1,100,0|0,3:0|0:0,0:0:0:0:
304,32,114081,1,8,0:0:0:0:
388,84,114414,2,0,L|389:133,1,50,0|0,3:0|3:0,0:0:0:0:
384,184,114748,6,0,B|341:199|341:199|295:229,1,100,0|2,3:0|0:0,0:0:0:0:
212,284,115414,1,2,0:3:0:0:
152,204,115748,1,0,3:0:0:0:
235,149,116081,1,2,0:3:0:0:
