osu file format v14

[General]
AudioFilename: audio.mp3
AudioLeadIn: 0
PreviewTime: 5456
Countdown: 0
SampleSet: Soft
StackLeniency: 0.2
Mode: 0
LetterboxInBreaks: 0
WidescreenStoryboard: 1

[Editor]
Bookmarks: 5498,26831,48164,66831,76164,96164,116164
DistanceSpacing: 0.6
BeatDivisor: 4
GridSize: 8
TimelineZoom: 1.2

[Metadata]
Title:Passage D
TitleUnicode:Passage D
Artist:The Flashbulb
ArtistUnicode:The Flashbulb
Creator:fieryrage
Version:Mismagius' Insane
Source:osu!
Tags:featured artist mappers mappers' guild kirlian selections instrumental electronic breakcore mismagius blue dragon bd leader pachiru greenhue
BeatmapID:2024425
BeatmapSetID:966225

[Difficulty]
HPDrainRate:5
CircleSize:4
OverallDifficulty:8
ApproachRate:8.5
SliderMultiplier:1.8
SliderTickRate:1

[Events]
//Background and Video events
0,0,"flash.jpg",0,0
//Break Periods
//Storyboard Layer 0 (Background)
//Storyboard Layer 1 (Fail)
//Storyboard Layer 2 (Pass)
//Storyboard Layer 3 (Foreground)
//Storyboard Sound Samples

[TimingPoints]
165,333.333333333333,4,2,1,60,1,0
5498,-100,4,2,1,60,0,0
6664,-100,4,2,1,40,0,0
6748,-100,4,2,1,50,0,0
6831,-100,4,2,1,60,0,0
9331,-100,4,2,1,40,0,0
9414,-100,4,2,1,50,0,0
9498,-100,4,2,1,60,0,0
10164,-100,4,2,1,30,0,0
10331,-100,4,2,1,60,0,0
11998,-100,4,2,1,40,0,0
12081,-100,4,2,1,50,0,0
12164,-100,4,2,1,60,0,0
12998,-100,4,2,1,40,0,0
13081,-100,4,2,1,50,0,0
13164,-100,4,2,1,60,0,0
17331,-100,4,2,1,40,0,0
17414,-100,4,2,1,50,0,0
17498,-100,4,2,1,60,0,0
18331,-100,4,2,1,35,0,0
18498,-100,4,2,1,60,0,0
21331,-100,4,2,1,30,0,0
21373,-100,4,2,1,40,0,0
21414,-100,4,2,1,50,0,0
21456,-100,4,2,1,60,0,0
23998,-100,4,2,1,40,0,0
24081,-100,4,2,1,50,0,0
24164,-100,4,2,1,60,0,0
24276,-100,4,2,1,50,0,0
24387,-100,4,2,1,40,0,0
24498,-100,4,2,1,30,0,0
24609,-100,4,2,1,20,0,0
24720,-100,4,2,1,10,0,0
25164,-100,4,2,1,8,0,0
25498,-100,4,2,1,5,0,0
25831,-100,4,2,1,8,0,0
25998,-100,4,2,1,10,0,0
26289,-100,4,2,1,20,0,0
26414,-100,4,2,1,30,0,0
26498,-100,4,2,1,40,0,0
26581,-100,4,2,1,50,0,0
26664,-100,4,2,1,60,0,0
26873,-100,4,2,1,35,0,0
27081,-100,4,2,1,60,0,0
29539,-100,4,2,1,35,0,0
29748,-100,4,2,1,60,0,0
31526,-100,4,2,1,30,0,0
31664,-100,4,2,1,60,0,0
32248,-100,4,2,1,35,0,0
32414,-100,4,2,1,60,0,0
39164,-100,4,2,1,20,0,0
39220,-100,4,2,1,30,0,0
39331,-100,4,2,1,40,0,0
39498,-100,4,2,1,60,0,0
39539,-100,4,2,1,40,0,0
39664,-100,4,2,1,43,0,0
39706,-100,4,2,1,45,0,0
39748,-100,4,2,1,50,0,0
39831,-100,4,2,1,53,0,0
39873,-100,4,2,1,55,0,0
39998,-100,4,2,1,60,0,0
42664,-100,4,2,1,35,0,0
42831,-100,4,2,1,50,0,0
42998,-100,4,2,1,40,0,0
43831,-100,4,2,1,50,0,0
43998,-100,4,2,1,40,0,0
44164,-100,4,2,1,50,0,0
44331,-100,4,2,1,40,0,0
44998,-100,4,2,1,50,0,0
45164,-100,4,2,1,40,0,0
45331,-100,4,2,1,50,0,0
45664,-100,4,2,1,40,0,0
46164,-100,4,2,1,30,0,0
46498,-100,4,2,1,20,0,0
46831,-100,4,2,1,15,0,0
47164,-100,4,2,1,20,0,0
47498,-100,4,2,1,40,0,0
48081,-100,4,2,1,50,0,0
48164,-100,4,2,1,60,0,0
52831,-100,4,2,1,35,0,0
52998,-100,4,2,1,60,0,0
65581,-100,4,2,2,5,0,0
66831,-100,4,2,1,60,0,0
67998,-100,4,2,1,30,0,0
68164,-100,4,2,1,60,0,0
70664,-100,4,2,1,30,0,0
70831,-100,4,2,1,60,0,0
75873,-100,4,2,1,20,0,0
75914,-100,4,2,1,30,0,0
75956,-100,4,2,1,40,0,0
75998,-100,4,2,1,50,0,0
76039,-100,4,2,1,60,0,0
76664,-100,4,2,1,30,0,0
76706,-100,4,2,1,60,0,0
76748,-100,4,2,1,20,0,0
76831,-100,4,2,1,30,0,0
76914,-100,4,2,1,50,0,0
76956,-100,4,2,1,60,0,0
80664,-100,4,2,1,35,0,0
81164,-100,4,2,1,60,0,0
82581,-100,4,2,1,40,0,0
82664,-100,4,2,1,60,0,0
82692,-100,4,2,1,40,0,0
82831,-100,4,2,1,60,0,0
83998,-100,4,2,1,30,0,0
84164,-100,4,2,1,60,0,0
86664,-100,4,2,1,30,0,0
86831,-100,4,2,1,60,0,0
89331,-100,4,2,1,35,0,0
89498,-100,4,2,1,60,0,0
93192,-100,4,2,1,40,0,0
93331,-100,4,2,1,60,0,0
94664,-100,4,2,1,35,0,0
94831,-100,4,2,1,60,0,0
94998,-100,4,2,1,40,0,0
95164,-100,4,2,1,50,0,0
95331,-100,4,2,1,40,0,0
95498,-100,4,2,1,50,0,0
95664,-100,4,2,1,60,0,0
95692,-100,4,2,1,40,0,0
95831,-100,4,2,1,60,0,0
95914,-100,4,2,1,5,0,0
96081,-100,4,2,1,60,0,0
98998,-100,4,2,1,30,0,0
99081,-100,4,2,1,60,0,0
99998,-100,4,2,1,30,0,0
100081,-100,4,2,1,40,0,0
100164,-100,4,2,1,60,0,0
100831,-100,4,2,1,35,0,0
100998,-100,4,2,1,60,0,0
103664,-100,4,2,1,40,0,0
103748,-100,4,2,1,50,0,0
103831,-100,4,2,1,60,0,0
107914,-100,4,2,1,20,0,0
107998,-100,4,2,1,60,0,0
110664,-100,4,2,1,40,0,0
110748,-100,4,2,1,50,0,0
110831,-100,4,2,1,60,0,0
112789,-100,4,2,1,5,0,0
112831,-100,4,2,1,60,0,0
114248,-100,4,2,1,5,0,0
114498,-100,4,2,1,60,0,0
116164,-100,4,2,1,40,0,0

[Colours]
Combo1 : 123,128,183
Combo2 : 48,83,165
Combo3 : 113,199,208
Combo4 : 96,102,97

[HitObjects]
72,249,5498,6,0,P|129:240|192:289,1,135,2|2,1:2|0:2,0:0:0:0:
203,326,5831,2,0,P|205:358|200:376,2,45,8|0|2,0:2|0:2|1:2,0:0:0:0:
273,269,6164,1,2,1:2:0:0:
335,334,6331,1,2,0:2:0:0:
335,334,6414,1,0,0:2:0:0:
335,334,6498,2,0,L|395:316,1,45,10|0,0:2|1:2,0:0:0:0:
449,302,6664,2,0,L|509:284,1,45,2|0,0:2|0:2,0:0:0:0:
505,213,6831,5,2,1:2:0:0:
508,186,6914,1,0,0:2:0:0:
491,164,6998,1,0,1:2:0:0:
494,137,7081,1,0,0:2:0:0:
477,115,7164,1,8,0:2:0:0:
423,42,7331,1,2,1:2:0:0:
358,105,7498,2,0,P|352:153|367:197,1,90,0|0,0:2|1:2,0:0:0:0:
302,258,7831,1,8,0:2:0:0:
302,258,8164,6,0,P|266:253|251:257,1,45,2|0,1:2|0:2,0:0:0:0:
194,289,8331,2,0,P|171:317|167:332,1,45,0|2,0:2|0:2,0:0:0:0:
103,366,8498,1,8,0:2:0:0:
91,341,8581,1,0,0:2:0:0:
89,314,8664,1,2,1:2:0:0:
90,286,8748,1,8,0:2:0:0:
99,260,8831,2,0,B|121:247|121:247|128:218,1,45,2|0,1:2|0:2,0:0:0:0:
185,188,8998,2,0,B|172:166|172:166|143:159,1,45,2|0,0:2|0:2,0:0:0:0:
113,102,9164,2,0,B|91:115|91:115|84:144,1,45,10|0,0:2|1:2,0:0:0:0:
27,174,9331,2,0,B|40:196|40:196|69:203,1,45,2|0,0:2|0:2,0:0:0:0:
113,102,9498,5,2,1:2:0:0:
137,88,9581,1,0,0:2:0:0:
163,82,9664,1,0,1:2:0:0:
190,82,9748,1,0,0:2:0:0:
215,91,9831,2,0,P|272:101|321:73,1,90,8|2,0:2|1:2,0:0:0:0:
357,20,10164,2,0,B|401:13|401:13|444:34,1,90,4|0,0:3|0:2,0:0:0:0:
465,45,10414,1,0,0:2:0:0:
488,59,10498,1,8,0:2:0:0:
473,81,10581,1,0,1:2:0:0:
464,106,10664,1,0,0:2:0:0:
459,132,10748,1,0,0:2:0:0:
462,158,10831,6,0,P|470:208|478:228,2,45,2|4|0,1:2|0:3|0:0,0:0:0:0:
377,125,11164,1,8,0:2:0:0:
351,133,11248,1,0,0:2:0:0:
325,141,11331,1,2,0:2:0:0:
245,98,11498,1,2,1:2:0:0:
212,181,11664,1,2,0:2:0:0:
206,207,11748,1,0,0:2:0:0:
226,224,11831,1,14,0:3:0:0:
220,250,11915,1,0,0:2:0:0:
240,267,11998,1,2,0:2:0:0:
234,293,12082,1,0,0:2:0:0:
254,310,12164,6,0,L|350:302,1,90,2|2,1:2|1:2,0:0:0:0:
368,313,12414,1,0,0:2:0:0:
393,324,12498,2,0,L|489:316,1,90,8|2,0:2|1:2,0:0:0:0:
505,229,12831,1,0,1:2:0:0:
479,220,12914,1,0,0:0:0:0:
452,213,12998,2,0,P|435:157|447:114,2,90,4|8|0,0:3|0:2|1:2,0:0:0:0:
457,239,13414,1,0,0:2:0:0:
463,265,13498,5,2,1:2:0:0:
457,291,13581,1,0,0:2:0:0:
444,315,13664,1,0,1:2:0:0:
422,332,13748,2,0,P|368:341|313:315,1,112.5,10|8,0:2|0:2,0:0:0:0:
262,220,14164,2,0,L|162:247,1,90,10|2,0:2|1:2,0:0:0:0:
149,251,14414,1,0,0:2:0:0:
122,258,14498,2,0,L|72:245,1,45,2|0,1:2|0:2,0:0:0:0:
11,222,14664,1,10,0:2:0:0:
77,160,14831,5,2,1:2:0:0:
101,73,14998,1,2,1:2:0:0:
161,139,15164,2,0,P|223:138|261:124,1,90,8|6,0:2|1:3,0:0:0:0:
291,49,15498,1,0,1:2:0:0:
345,119,15664,1,0,1:2:0:0:
294,193,15831,1,8,0:2:0:0:
300,219,15914,1,0,1:2:0:0:
307,245,15998,1,0,1:2:0:0:
314,270,16081,1,0,1:2:0:0:
321,295,16164,6,0,L|334:338,3,45,2|0|0|2,1:2|0:2|0:2|0:2,0:0:0:0:
402,303,16498,6,0,L|415:346,3,45,0|0|2|0,1:2|0:2|0:2|0:2,0:0:0:0:
483,311,16831,6,0,L|496:354,3,45,2|0|2|0,1:2|0:2|0:2|0:2,0:0:0:0:
402,303,17164,5,2,0:2:0:0:
406,276,17248,1,0,0:2:0:0:
410,249,17331,1,10,0:0:0:0:
414,222,17414,1,8,0:0:0:0:
418,195,17498,6,0,B|430:139|430:139|414:95,1,90,2|0,1:2|0:2,0:0:0:0:
405,84,17748,1,0,1:2:0:0:
390,61,17831,2,0,L|298:79,1,90,8|2,0:2|1:2,0:0:0:0:
275,85,18081,1,0,0:2:0:0:
248,91,18164,1,0,1:2:0:0:
78,29,18498,1,8,0:2:0:0:
68,54,18581,1,0,1:2:0:0:
65,80,18664,1,0,1:2:0:0:
67,107,18748,1,0,0:2:0:0:
74,132,18831,6,0,P|82:163|81:181,1,45,2|0,1:2|0:2,0:0:0:0:
156,172,18998,2,0,P|151:203|143:219,1,45,0|2,0:2|1:2,0:0:0:0:
102,274,19164,2,0,B|95:324|115:370,1,90,8|2,0:2|0:2,0:0:0:0:
136,374,19414,1,0,0:2:0:0:
163,375,19498,2,0,L|214:366,2,45,2|0|2,1:2|0:2|0:2,0:0:0:0:
196,290,19831,2,0,L|247:281,2,45,6|0|2,0:3|0:2|0:2,0:0:0:0:
146,215,20164,6,0,P|134:167|144:121,1,90,2|0,1:2|0:2,0:0:0:0:
156,105,20414,1,0,0:2:0:0:
179,91,20498,2,0,P|227:79|273:89,1,90,8|2,0:2|0:2,0:0:0:0:
289,101,20748,1,0,0:2:0:0:
314,109,20831,1,0,1:2:0:0:
340,108,20914,1,0,0:2:0:0:
366,101,20998,1,0,0:2:0:0:
389,87,21081,1,0,0:2:0:0:
407,67,21164,1,8,0:2:0:0:
488,101,21331,2,0,L|501:149,1,45,8|8,0:3|0:3,0:0:0:0:
432,174,21498,6,0,L|458:270,1,90,2|0,1:2|0:2,0:0:0:0:
464,286,21748,1,0,0:2:0:0:
471,311,21831,1,8,0:2:0:0:
444,305,21914,1,0,1:2:0:0:
416,307,21998,1,0,1:2:0:0:
389,313,22081,1,0,1:2:0:0:
365,325,22164,2,0,P|348:355|348:376,1,45,0|0,1:2|0:2,0:0:0:0:
276,340,22331,2,0,P|272:374|280:393,1,45,0|0,0:2|0:2,0:0:0:0:
195,359,22498,1,8,0:2:0:0:
222,274,22664,1,4,0:3:0:0:
151,216,22831,6,0,P|139:167|150:126,1,90,2|0,1:2|1:2,0:0:0:0:
162,106,23081,1,0,0:2:0:0:
169,80,23164,1,8,0:2:0:0:
192,93,23248,1,0,0:0:0:0:
215,106,23331,1,0,1:2:0:0:
238,119,23414,1,0,1:2:0:0:
261,132,23498,5,8,0:2:0:0:
302,115,23581,1,8,0:2:0:0:
346,118,23664,1,8,0:2:0:0:
384,142,23748,1,8,0:2:0:0:
404,181,23831,1,8,0:2:0:0:
325,225,23998,1,8,0:2:0:0:
376,298,24164,6,0,L|383:332,10,30,2|0|0|0|0|0|0|0|0|0|0,1:2|1:2|1:2|1:2|1:2|1:2|1:2|1:2|1:2|1:2|1:2,0:0:0:0:
256,192,24831,12,0,26498,0:2:0:0:
56,54,26831,6,0,L|129:40,1,67.5,2|4,1:2|0:3,0:0:0:0:
195,29,27081,1,2,1:2:0:0:
195,29,27164,2,0,P|214:72|203:118,1,90,8|2,0:2|1:2,0:0:0:0:
196,138,27414,1,0,0:2:0:0:
189,164,27498,2,0,P|181:207|199:247,1,90,2|2,1:2|0:2,0:0:0:0:
217,268,27748,1,0,0:2:0:0:
243,274,27831,1,10,0:2:0:0:
316,221,27998,2,0,P|356:224|365:229,1,45,2|0,0:0|0:0,0:0:0:0:
414,274,28164,6,0,L|514:257,1,90,2|0,1:2|0:2,0:0:0:0:
508,168,28498,2,0,P|505:143|487:109,1,45,8|0,0:2|1:2,0:0:0:0:
455,66,28664,1,2,0:2:0:0:
428,72,28748,1,0,1:2:0:0:
401,72,28831,1,0,1:2:0:0:
374,66,28914,1,0,1:2:0:0:
349,55,28998,1,0,0:2:0:0:
326,40,29081,1,0,0:2:0:0:
308,19,29164,2,0,L|286:106,1,90,8|0,0:2|0:2,0:0:0:0:
261,193,29498,6,0,P|263:227|286:272,1,67.5,2|4,1:2|0:3,0:0:0:0:
319,320,29748,1,2,1:2:0:0:
319,320,29831,2,0,P|267:334|227:315,1,90,8|2,0:2|1:2,0:0:0:0:
215,302,30081,1,0,0:2:0:0:
202,278,30164,1,2,1:2:0:0:
129,333,30331,1,2,0:2:0:0:
129,333,30414,1,0,0:2:0:0:
129,333,30498,2,0,L|29:318,1,90,10|2,0:2|0:0,0:0:0:0:
86,242,30831,5,2,1:2:0:0:
106,154,30998,1,0,0:2:0:0:
108,127,31081,1,0,0:2:0:0:
97,102,31164,1,8,0:2:0:0:
123,105,31248,1,0,1:2:0:0:
149,100,31331,1,2,0:2:0:0:
173,87,31414,1,0,1:2:0:0:
193,69,31498,2,0,B|212:53|217:28|217:28|212:67|242:98,1,120,4|0,0:3|1:2,0:0:0:0:
267,115,31831,2,0,B|312:124|312:124|374:95,1,90,8|0,0:2|0:2,0:0:0:0:
375,90,32081,1,0,0:2:0:0:
397,75,32164,6,0,L|483:86,2,67.5,2|0|10,1:2|0:0|0:2,0:0:0:0:
428,160,32581,1,0,0:2:0:0:
440,183,32664,2,0,L|430:238,1,45,2|0,1:2|0:2,0:0:0:0:
362,207,32831,2,0,L|352:262,1,45,2|0,1:2|0:2,0:0:0:0:
284,231,32998,2,0,L|274:286,1,45,2|0,1:2|0:2,0:0:0:0:
219,322,33164,2,0,P|174:313|127:327,1,90,10|2,0:2|1:2,0:0:0:0:
112,343,33414,1,0,1:2:0:0:
97,319,33498,5,2,1:2:0:0:
90,292,33581,1,0,0:2:0:0:
91,265,33664,1,2,0:2:0:0:
96,238,33748,1,0,0:2:0:0:
107,213,33831,1,10,0:2:0:0:
177,156,33998,2,0,P|207:153|229:157,1,45,2|0,0:2|0:2,0:0:0:0:
288,182,34164,1,2,1:2:0:0:
315,184,34248,1,0,1:2:0:0:
341,181,34331,1,2,1:2:0:0:
367,175,34414,1,0,1:2:0:0:
392,165,34498,2,0,L|454:179,2,45,10|8|2,0:2|0:2|1:2,0:0:0:0:
365,78,34831,5,2,1:2:0:0:
296,17,34998,1,2,1:2:0:0:
269,22,35081,1,4,0:3:0:0:
242,28,35164,1,10,0:2:0:0:
215,34,35248,1,0,1:2:0:0:
188,40,35331,1,2,1:2:0:0:
161,46,35414,1,0,1:2:0:0:
134,52,35498,2,0,L|65:41,2,60,2|0|0,1:2|1:2|1:2,0:0:0:0:
172,115,35831,1,10,0:2:0:0:
177,141,35914,1,0,1:2:0:0:
173,167,35998,1,2,0:2:0:0:
103,220,36164,6,0,L|124:320,1,90,6|6,0:3|0:3,0:0:0:0:
211,316,36498,2,0,L|204:352,4,22.5,10|8|8|8|10,0:2|0:2|0:2|0:2|0:2,0:0:0:0:
280,258,36831,1,2,1:2:0:0:
306,254,36914,1,0,1:2:0:0:
332,258,36998,1,2,1:2:0:0:
356,269,37081,1,0,1:2:0:0:
385,302,37164,5,10,0:2:0:0:
396,258,37247,1,8,0:2:0:0:
407,214,37330,1,10,0:2:0:0:
418,170,37414,1,8,0:2:0:0:
429,126,37498,6,0,L|478:120,1,45,2|0,1:2|0:2,0:0:0:0:
457,49,37664,2,0,L|408:55,1,45,2|0,1:2|0:2,0:0:0:0:
357,104,37831,2,0,P|312:106|271:83,1,90,10|0,0:2|1:2,0:0:0:0:
205,26,38164,1,2,1:2:0:0:
178,32,38248,1,0,0:2:0:0:
152,39,38331,1,2,0:2:0:0:
126,46,38414,1,0,0:2:0:0:
99,53,38498,2,0,L|41:42,1,45,8|0,0:2|0:2,0:0:0:0:
5,100,38664,1,0,1:2:0:0:
5,100,38748,1,0,1:2:0:0:
5,100,38831,6,0,P|-1:133|2:153,1,45,2|0,1:2|0:2,0:0:0:0:
4,218,38998,2,0,P|11:250|21:267,1,45,2|0,0:2|0:2,0:0:0:0:
67,312,39164,2,0,L|169:287,5,90,8|8|10|8|8|8,0:2|0:2|0:2|0:2|0:2|0:2,0:0:0:0:
242,269,40164,5,2,1:2:0:0:
299,338,40331,1,0,0:2:0:0:
331,255,40498,1,0,1:2:0:0:
388,324,40664,1,0,0:2:0:0:
388,324,40748,1,0,0:2:0:0:
388,324,40831,2,0,L|451:331,1,45,0|0,1:2|0:2,0:0:0:0:
423,256,40998,2,0,L|486:263,1,45,0|0,0:2|0:2,0:0:0:0:
462,188,41164,2,0,L|417:183,1,45,0|0,1:2|0:2,0:0:0:0:
456,115,41331,2,0,L|411:110,1,45,0|0,0:2|0:2,0:0:0:0:
363,53,41498,5,0,1:2:0:0:
274,40,41664,1,0,1:2:0:0:
184,28,41831,2,0,L|81:42,1,90,8|0,0:2|0:2,0:0:0:0:
68,45,42081,1,0,0:2:0:0:
47,61,42164,1,2,1:2:0:0:
35,85,42248,1,0,0:2:0:0:
34,111,42331,1,0,1:2:0:0:
42,136,42414,1,0,0:2:0:0:
61,155,42498,2,0,B|81:193|81:193|65:247,1,90,8|4,0:2|0:3,0:0:0:0:
97,323,42831,6,0,L|214:309,5,90,2|0|0|0|0|0,1:2|0:2|0:2|0:2|0:2|0:2,0:0:0:0:
213,226,43831,2,0,L|330:240,1,90,0|0,1:2|0:2,0:0:0:0:
367,299,44164,6,0,L|484:285,4,90,2|0|0|0|0,1:2|0:2|0:2|0:2|0:2,0:0:0:0:
303,237,44998,1,0,1:2:0:0:
335,152,45164,1,0,0:2:0:0:
279,80,45331,1,0,1:2:0:0:
279,80,45414,1,0,1:2:0:0:
279,80,45498,6,0,L|162:94,11,90,2|0|0|0|0|0|0|0|0|0|0|0,1:2|0:2|0:2|0:2|0:2|0:2|0:2|0:2|0:2|0:2|0:2|0:2,0:0:0:0:
106,55,47498,5,0,0:2:0:0:
96,80,47581,1,0,0:2:0:0:
86,105,47664,1,0,0:2:0:0:
76,130,47748,1,0,0:2:0:0:
66,155,47831,2,0,L|91:295,1,135,4|4,0:3|1:3,0:0:0:0:
111,303,48164,6,0,P|174:295|233:338,1,135,2|0,1:2|0:2,0:0:0:0:
249,353,48498,2,0,L|321:341,1,45,8|0,0:2|0:2,0:0:0:0:
365,333,48664,1,0,1:2:0:0:
452,359,48831,1,0,1:2:0:0:
482,273,48998,1,0,0:2:0:0:
473,247,49081,1,0,0:2:0:0:
464,221,49164,1,8,0:2:0:0:
455,195,49248,1,0,1:2:0:0:
447,169,49331,2,0,L|459:117,1,45,0|0,0:2|0:2,0:0:0:0:
484,57,49498,5,2,1:2:0:0:
457,51,49581,1,0,0:2:0:0:
430,56,49664,1,2,1:2:0:0:
407,71,49748,1,0,0:2:0:0:
391,92,49831,2,0,P|342:113|297:109,1,90,10|2,0:2|1:2,0:0:0:0:
239,51,50164,2,0,L|175:66,1,45,2|0,0:2|0:2,0:0:0:0:
125,77,50331,1,2,1:2:0:0:
39,43,50498,1,10,0:2:0:0:
141,193,50831,6,0,L|197:204,1,45,2|0,1:2|0:2,0:0:0:0:
149,271,50998,2,0,L|93:260,1,45,0|0,0:2|0:2,0:0:0:0:
194,333,51164,1,8,0:2:0:0:
220,328,51248,1,0,0:2:0:0:
246,332,51331,1,0,1:2:0:0:
270,344,51414,1,8,0:2:0:0:
288,363,51498,2,0,P|314:368|355:349,1,45,0|0,1:2|0:2,0:0:0:0:
396,331,51664,2,0,P|413:310|417:265,1,45,0|0,0:2|0:2,0:0:0:0:
408,221,51831,1,8,0:2:0:0:
416,195,51914,1,0,1:2:0:0:
424,169,51998,1,0,0:2:0:0:
432,143,52081,1,0,0:2:0:0:
440,117,52164,6,0,L|490:108,1,45,0|0,1:2|0:2,0:0:0:0:
449,44,52331,2,0,L|499:35,1,45,0|0,1:2|0:2,0:0:0:0:
376,16,52498,2,0,L|276:34,1,90,8|0,0:2|1:2,0:0:0:0:
215,88,52831,2,0,P|163:98|123:84,1,90,4|0,0:3|0:2,0:0:0:0:
106,71,53081,1,0,0:2:0:0:
100,44,53164,1,8,0:2:0:0:
92,70,53248,1,0,1:2:0:0:
84,95,53331,1,0,0:2:0:0:
76,120,53414,1,0,0:2:0:0:
68,146,53498,6,0,L|94:286,1,135,2|0,1:2|0:2,0:0:0:0:
99,304,53831,2,0,P|101:341|95:360,1,45,8|0,0:2|0:2,0:0:0:0:
36,384,53998,1,4,0:3:0:0:
175,347,54164,2,0,L|287:358,1,90,0|0,1:2|0:2,0:0:0:0:
291,361,54414,1,0,0:2:0:0:
317,367,54498,2,0,L|386:358,1,45,12|0,0:3|0:2,0:0:0:0:
331,293,54664,2,0,L|400:284,1,45,0|0,0:2|0:2,0:0:0:0:
435,242,54831,6,0,P|449:277|448:292,1,45,6|0,0:3|0:2,0:0:0:0:
363,214,54998,2,0,P|349:179|350:164,1,45,6|0,0:3|0:2,0:0:0:0:
363,101,55164,1,14,0:3:0:0:
404,17,55331,2,0,L|463:8,1,45,2|0,0:2|0:2,0:0:0:0:
510,49,55498,1,2,1:2:0:0:
504,75,55581,1,0,0:2:0:0:
498,101,55664,1,6,0:3:0:0:
512,190,55831,1,10,0:3:0:0:
506,216,55914,1,8,0:3:0:0:
500,242,55997,1,6,0:3:0:0:
494,268,56081,1,0,0:2:0:0:
488,294,56164,6,0,L|432:305,1,45,2|0,1:2|0:2,0:0:0:0:
407,365,56331,2,0,L|351:354,1,45,0|0,1:2|0:2,0:0:0:0:
315,301,56498,1,8,0:2:0:0:
288,297,56581,1,0,1:2:0:0:
261,302,56664,1,2,1:2:0:0:
236,314,56748,1,0,1:2:0:0:
215,331,56831,2,0,P|195:341|171:344,3,45,0|0|0|0,1:2|0:2|0:2|0:2,0:0:0:0:
169,269,57164,2,0,P|146:267|124:258,1,45,0|0,1:2|0:2,0:0:0:0:
85,197,57331,1,8,0:2:0:0:
152,136,57498,6,0,P|161:89|152:43,1,90,2|0,1:2|1:2,0:0:0:0:
70,13,57831,1,8,0:2:0:0:
15,84,57998,1,2,1:2:0:0:
59,163,58164,1,0,1:2:0:0:
64,189,58248,1,2,1:2:0:0:
63,215,58331,1,0,1:2:0:0:
57,241,58414,1,0,1:2:0:0:
45,265,58498,2,0,P|32:301|29:322,1,45,10|0,0:2|1:2,0:0:0:0:
107,313,58664,2,0,P|113:350|121:370,1,45,2|0,1:2|1:2,0:0:0:0:
183,323,58831,6,0,P|232:317|277:333,1,90,2|0,1:2|0:2,0:0:0:0:
291,345,59081,1,0,1:2:0:0:
316,352,59164,2,0,P|356:358|372:353,1,45,8|0,0:2|1:2,0:0:0:0:
426,329,59331,1,0,1:2:0:0:
483,257,59498,1,0,1:2:0:0:
489,230,59581,1,0,0:2:0:0:
480,204,59664,1,0,0:2:0:0:
486,177,59747,1,0,0:2:0:0:
477,151,59831,1,8,0:2:0:0:
496,64,59998,1,0,0:2:0:0:
496,64,60081,1,0,0:2:0:0:
496,64,60164,6,0,L|393:49,1,90,2|0,1:2|0:2,0:0:0:0:
384,66,60414,1,0,0:2:0:0:
361,81,60498,2,0,L|258:66,1,90,0|0,1:2|0:2,0:0:0:0:
249,83,60748,1,0,0:2:0:0:
233,60,60832,1,8,0:2:0:0:
151,22,60998,1,0,1:2:0:0:
124,22,61081,1,0,0:2:0:0:
97,28,61164,1,0,0:2:0:0:
76,45,61248,1,0,0:2:0:0:
61,67,61331,1,8,0:2:0:0:
46,154,61498,6,0,L|66:247,1,90,2|0,1:2|0:2,0:0:0:0:
71,268,61748,1,0,0:2:0:0:
76,294,61831,1,8,0:2:0:0:
150,239,61998,1,0,0:2:0:0:
176,234,62081,1,4,0:3:0:0:
202,239,62164,1,0,1:2:0:0:
223,255,62248,1,0,0:2:0:0:
238,276,62331,1,0,1:2:0:0:
245,301,62414,1,0,1:2:0:0:
244,328,62498,2,0,L|233:375,1,45,8|0,0:2|1:2,0:0:0:0:
310,369,62664,2,0,L|320:325,1,45,0|0,1:2|0:2,0:0:0:0:
383,287,62831,5,2,1:2:0:0:
409,290,62914,1,0,0:2:0:0:
436,293,62998,1,0,0:2:0:0:
462,296,63081,1,0,0:2:0:0:
488,299,63164,2,0,L|476:249,1,45,8|8,0:2|0:2,0:0:0:0:
458,180,63331,1,0,1:2:0:0:
484,183,63414,1,0,0:2:0:0:
511,186,63498,1,0,1:2:0:0:
482,95,63664,1,0,1:2:0:0:
456,98,63747,1,0,1:2:0:0:
429,101,63831,2,0,P|383:102|338:79,1,90,8|0,0:2|0:2,0:0:0:0:
277,15,64164,6,0,P|242:12|223:18,1,45,2|0,1:2|0:2,0:0:0:0:
202,79,64331,2,0,P|167:82|148:76,1,45,0|0,1:2|0:2,0:0:0:0:
99,37,64498,1,8,0:2:0:0:
87,61,64581,1,0,1:2:0:0:
75,85,64664,1,0,1:2:0:0:
63,109,64748,1,0,0:2:0:0:
51,133,64831,2,0,L|63:213,1,45,0|0,1:2|0:2,0:0:0:0:
128,192,64998,2,0,L|140:272,1,45,0|0,1:2|0:2,0:0:0:0:
88,292,65164,1,8,0:2:0:0:
176,307,65331,1,0,0:2:0:0:
264,322,65498,5,2,1:2:0:0:
264,322,66831,5,2,1:2:0:0:
273,296,66914,1,0,0:2:0:0:
275,268,66998,1,0,0:2:0:0:
272,241,67081,1,2,0:2:0:0:
264,215,67164,2,0,L|243:166,1,45,8|0,1:2|0:2,0:0:0:0:
196,120,67331,1,2,0:2:0:0:
204,94,67414,1,0,0:2:0:0:
222,73,67498,1,2,1:2:0:0:
246,61,67581,1,0,0:2:0:0:
272,58,67664,1,2,0:2:0:0:
298,62,67748,1,0,0:2:0:0:
323,69,67831,2,0,P|361:82|387:80,1,45,10|0,1:2|0:0,0:0:0:0:
434,57,67998,1,6,0:3:0:0:
498,126,68164,5,2,1:2:0:0:
489,151,68248,1,0,0:2:0:0:
480,176,68331,1,0,0:2:0:0:
471,201,68414,1,0,0:2:0:0:
462,226,68498,2,0,L|479:284,1,45,8|0,1:2|0:2,0:0:0:0:
507,333,68664,1,2,0:2:0:0:
481,342,68748,1,0,1:2:0:0:
454,346,68831,1,0,1:2:0:0:
427,345,68914,1,0,0:2:0:0:
400,337,68998,1,0,0:2:0:0:
376,324,69081,1,0,1:2:0:0:
355,307,69164,2,0,L|298:310,1,45,8|0,1:2|0:2,0:0:0:0:
265,367,69331,2,0,L|208:370,1,45,0|0,1:2|0:2,0:0:0:0:
161,326,69498,5,2,1:2:0:0:
152,300,69581,1,0,0:2:0:0:
149,273,69664,1,0,0:2:0:0:
150,245,69748,1,2,0:2:0:0:
155,218,69831,2,0,P|159:193|155:166,1,45,8|0,1:2|0:2,0:0:0:0:
184,106,69998,1,2,0:2:0:0:
163,88,70081,1,0,0:2:0:0:
137,79,70164,1,2,1:2:0:0:
109,79,70248,1,0,0:2:0:0:
83,85,70331,1,2,0:2:0:0:
58,96,70414,1,0,1:2:0:0:
38,114,70498,2,0,P|24:144|32:206,1,90,10|6,1:2|1:3,0:0:0:0:
72,282,70831,5,2,1:2:0:0:
98,277,70914,1,0,0:2:0:0:
124,272,70998,1,0,0:2:0:0:
150,267,71081,1,0,0:2:0:0:
176,262,71164,2,0,L|225:275,1,45,8|0,1:2|0:2,0:0:0:0:
224,199,71331,2,0,L|273:212,1,45,10|0,0:2|1:2,0:0:0:0:
337,234,71498,1,0,1:2:0:0:
363,229,71580,1,8,0:2:0:0:
389,224,71664,1,0,0:2:0:0:
415,219,71747,1,0,1:2:0:0:
441,214,71831,2,0,L|416:317,1,90,10|0,1:2|1:2,0:0:0:0:
337,234,72164,6,0,P|326:182|339:140,1,90,2|0,1:2|0:2,0:0:0:0:
351,125,72414,1,0,0:2:0:0:
367,103,72498,2,0,P|378:51|365:9,1,90,8|0,0:2|1:2,0:0:0:0:
342,21,72748,1,0,1:2:0:0:
315,26,72831,1,2,1:2:0:0:
253,89,72998,1,0,0:2:0:0:
253,89,73081,1,0,0:2:0:0:
253,89,73164,1,8,0:2:0:0:
169,57,73331,1,0,1:2:0:0:
169,57,73414,1,0,1:2:0:0:
169,57,73498,6,0,P|135:58|115:66,1,45,2|0,1:2|0:2,0:0:0:0:
110,132,73664,2,0,P|144:131|164:123,1,45,0|0,0:2|0:2,0:0:0:0:
208,175,73831,1,8,0:2:0:0:
132,237,73998,1,0,1:2:0:0:
132,237,74081,1,0,0:2:0:0:
132,237,74164,2,0,L|112:293,1,45,0|0,1:2|0:2,0:0:0:0:
181,311,74331,2,0,L|161:367,1,45,0|0,0:2|1:2,0:0:0:0:
99,382,74498,2,0,L|4:364,1,90,8|0,0:2|1:2,0:0:0:0:
181,311,74831,6,0,L|276:329,1,90,0|0,1:2|0:2,0:0:0:0:
189,303,75164,6,0,L|284:321,1,90,0|0,1:2|0:2,0:0:0:0:
197,295,75498,6,0,L|292:313,1,90,0|0,1:2|0:2,0:0:0:0:
205,287,75831,6,0,P|240:224|231:150,1,135,8|8,0:2|0:2,0:0:0:0:
226,137,76164,6,0,L|382:95,1,135,2|2,1:2|1:2,0:0:0:0:
380,114,76498,1,8,0:2:0:0:
474,206,76706,2,0,B|488:284|488:284|469:340,1,135,4|0,1:3|1:2,0:0:0:0:
362,292,77164,2,0,B|348:214|348:214|367:158,1,135,10|2,0:2|1:2,0:0:0:0:
375,28,77664,6,0,L|235:49,1,135,2|2,1:2|1:2,0:0:0:0:
196,75,78039,2,0,L|126:63,1,67.5,0|10,1:2|0:2,0:0:0:0:
31,147,78414,2,0,L|22:231,1,67.5,10|0,0:2|1:2,0:0:0:0:
96,247,78664,2,0,L|103:179,1,67.5,2|8,1:2|0:2,0:0:0:0:
174,153,78914,6,0,P|223:145|308:180,1,135,2|8,1:2|0:2,0:0:0:0:
333,258,79331,1,0,1:2:0:0:
414,220,79498,2,0,L|466:214,1,45,0|0,1:2|0:0,0:0:0:0:
496,152,79664,1,0,0:2:0:0:
496,152,79748,1,0,0:2:0:0:
496,152,79831,1,8,0:2:0:0:
470,65,79998,1,0,1:2:0:0:
443,59,80081,1,0,1:2:0:0:
416,53,80164,6,0,L|327:60,1,90,0|0,1:2|1:2,0:0:0:0:
248,14,80498,1,8,0:2:0:0:
228,32,80581,1,0,1:2:0:0:
216,56,80664,1,0,0:2:0:0:
214,83,80748,1,0,0:2:0:0:
218,109,80831,2,0,P|222:142|219:161,1,45,0|0,0:2|0:2,0:0:0:0:
150,176,80998,2,0,P|146:143|149:124,1,45,0|0,0:2|0:2,0:0:0:0:
115,66,81164,2,0,L|23:84,1,90,8|0,0:2|1:2,0:0:0:0:
5,174,81498,5,2,1:2:0:0:
50,253,81664,1,0,0:2:0:0:
45,279,81748,1,2,0:2:0:0:
40,305,81831,1,8,0:2:0:0:
113,357,81998,1,2,2:2:0:0:
139,361,82081,1,0,0:2:0:0:
165,357,82164,2,0,L|217:370,1,45,2|0,1:2|0:2,0:0:0:0:
216,296,82331,2,0,L|268:309,1,45,2|0,1:2|1:2,0:0:0:0:
267,235,82498,2,0,P|329:243|374:298,1,120,10|0,0:2|0:0,0:0:0:0:
420,340,82831,6,0,P|443:305|436:251,1,90,2|2,1:2|1:2,0:0:0:0:
430,232,83081,1,0,0:2:0:0:
418,207,83164,2,0,P|410:182|412:158,1,45,10|0,0:2|0:2,0:0:0:0:
461,108,83331,1,2,0:2:0:0:
465,81,83414,1,0,0:2:0:0:
460,54,83498,1,2,1:2:0:0:
448,29,83581,1,0,1:2:0:0:
427,11,83664,1,2,1:2:0:0:
401,2,83748,1,0,1:2:0:0:
374,3,83831,2,0,L|272:29,1,90,10|6,0:2|0:3,0:0:0:0:
258,110,84164,5,0,1:2:0:0:
231,116,84248,1,0,0:2:0:0:
204,115,84331,1,0,1:2:0:0:
178,107,84414,1,0,1:2:0:0:
154,92,84498,2,0,P|138:78|126:52,1,45,8|0,0:2|1:2,0:0:0:0:
52,21,84664,1,0,0:2:0:0:
48,47,84748,1,0,0:2:0:0:
44,73,84831,1,0,1:2:0:0:
40,99,84914,1,0,0:2:0:0:
36,126,84998,1,0,0:2:0:0:
32,152,85081,1,0,0:2:0:0:
29,178,85164,2,0,L|34:235,1,45,8|0,0:2|0:0,0:0:0:0:
74,291,85331,1,0,0:2:0:0:
74,291,85414,1,0,0:2:0:0:
74,291,85498,6,0,L|146:275,1,45,2|0,1:2|0:2,0:0:0:0:
188,264,85664,2,0,L|260:248,1,45,0|0,0:2|0:2,0:0:0:0:
265,321,85831,2,0,L|193:337,1,45,8|0,1:2|0:2,0:0:0:0:
151,348,85998,2,0,L|79:364,1,45,0|0,0:2|0:2,0:0:0:0:
78,282,86164,6,0,L|150:266,1,45,0|0,1:2|0:2,0:0:0:0:
192,255,86330,2,0,L|264:239,1,45,0|0,0:2|0:2,0:0:0:0:
269,312,86497,2,0,L|379:287,1,90,8|4,1:2|0:3,0:0:0:0:
434,216,86831,6,0,P|449:177|450:158,1,45,2|0,1:2|0:2,0:0:0:0:
439,102,86998,2,0,P|400:87|381:86,1,45,0|0,0:2|0:2,0:0:0:0:
325,97,87164,2,0,P|310:136|309:155,1,45,8|0,1:2|0:2,0:0:0:0:
326,217,87331,1,2,0:2:0:0:
326,217,87414,1,0,1:2:0:0:
326,217,87497,2,0,P|365:232|384:233,1,45,0|0,1:2|0:2,0:0:0:0:
417,301,87664,1,0,0:2:0:0:
417,301,87747,1,0,1:2:0:0:
417,301,87830,2,0,P|378:316|359:317,1,45,10|4,1:2|0:3,0:0:0:0:
326,371,87998,2,0,P|287:354|273:341,1,45,0|4,1:2|0:3,0:0:0:0:
246,289,88164,5,2,1:2:0:0:
219,282,88248,1,0,0:2:0:0:
192,282,88331,1,0,0:2:0:0:
165,288,88414,1,0,0:2:0:0:
140,299,88498,2,0,P|108:309|89:307,1,45,8|0,1:2|0:2,0:0:0:0:
35,269,88664,1,0,0:2:0:0:
25,243,88748,1,0,0:2:0:0:
20,216,88831,1,0,1:2:0:0:
22,189,88914,1,0,0:2:0:0:
28,162,88998,1,0,0:2:0:0:
43,140,89081,1,0,1:2:0:0:
63,122,89164,2,0,P|75:91|65:29,1,90,8|6,1:2|1:3,0:0:0:0:
154,2,89498,5,2,1:2:0:0:
180,7,89581,1,0,0:2:0:0:
206,12,89664,1,0,0:2:0:0:
232,17,89748,1,0,0:2:0:0:
258,22,89831,2,0,L|272:76,1,45,8|0,1:2|0:2,0:0:0:0:
346,62,89998,2,0,L|332:116,1,45,8|0,0:2|1:2,0:0:0:0:
308,174,90164,1,0,1:2:0:0:
350,190,90248,1,8,0:2:0:0:
394,188,90331,1,0,0:2:0:0:
434,169,90414,1,0,1:2:0:0:
457,130,90498,2,0,P|463:86|446:36,1,90,8|0,1:2|1:2,0:0:0:0:
346,62,90831,5,2,1:2:0:0:
319,56,90914,1,0,0:2:0:0:
292,49,90998,1,0,0:2:0:0:
265,43,91081,1,0,0:2:0:0:
238,37,91164,2,0,L|168:51,1,45,8|0,1:2|0:2,0:0:0:0:
123,63,91331,1,0,0:2:0:0:
96,59,91414,1,0,0:2:0:0:
69,54,91498,1,0,1:2:0:0:
79,78,91581,1,0,0:2:0:0:
89,102,91664,1,0,0:2:0:0:
99,127,91748,1,0,1:2:0:0:
109,151,91831,2,0,P|117:189|112:214,2,45,8|0|0,1:2|0:2|1:2,0:0:0:0:
38,220,92164,5,2,1:2:0:0:
32,246,92248,1,0,0:2:0:0:
26,272,92331,1,0,0:2:0:0:
20,298,92414,1,0,0:2:0:0:
14,324,92498,2,0,L|28:374,1,45,8|0,1:2|0:2,0:0:0:0:
92,334,92664,2,0,L|106:384,1,45,8|0,0:2|1:2,0:0:0:0:
170,344,92831,1,0,1:2:0:0:
212,358,92914,1,8,0:2:0:0:
257,356,92998,1,0,0:2:0:0:
298,337,93081,1,0,1:2:0:0:
323,300,93164,2,0,B|335:254|335:254|323:204,1,90,8|8,0:2|0:3,0:0:0:0:
298,126,93498,5,2,1:2:0:0:
322,115,93581,1,8,0:2:0:0:
348,114,93664,1,0,0:2:0:0:
373,122,93748,1,0,0:2:0:0:
395,136,93831,2,0,P|424:148|443:146,1,45,8|0,1:2|0:2,0:0:0:0:
431,73,93998,2,0,P|462:68|477:57,1,45,0|0,0:2|0:2,0:0:0:0:
433,1,94164,1,0,1:2:0:0:
405,4,94248,2,0,L|361:-2,1,45,8|0,0:2|0:2,0:0:0:0:
307,46,94414,1,8,1:2:0:0:
279,49,94498,2,0,L|185:36,1,90,8|4,1:2|1:3,0:0:0:0:
110,73,94831,6,0,B|100:115|100:115|126:180,1,90,2|0,1:2|0:2,0:0:0:0:
102,77,95164,6,0,B|92:119|92:119|118:184,1,90,0|0,1:2|0:2,0:0:0:0:
94,81,95498,6,0,B|84:123|84:123|110:188,1,90,0|8,1:2|0:2,0:0:0:0:
145,244,95831,1,8,0:2:0:0:
257,180,96081,1,0,1:2:0:0:
281,168,96164,6,0,L|385:175,1,90,2|0,1:2|0:2,0:0:0:0:
396,165,96414,1,0,0:2:0:0:
421,156,96498,2,0,L|476:160,1,45,8|0,0:2|0:2,0:0:0:0:
510,217,96664,1,0,1:2:0:0:
435,266,96831,1,0,1:2:0:0:
480,345,96998,1,0,0:2:0:0:
457,359,97081,1,0,0:2:0:0:
431,367,97164,2,0,P|401:371|381:366,1,45,8|0,0:2|1:2,0:0:0:0:
337,315,97331,2,0,P|307:311|287:316,1,45,0|0,0:2|0:2,0:0:0:0:
236,359,97498,5,2,1:2:0:0:
211,347,97581,1,0,0:2:0:0:
185,355,97664,1,2,1:2:0:0:
160,343,97747,1,0,0:2:0:0:
134,351,97831,2,0,P|114:311|128:262,1,90,10|2,0:2|1:2,0:0:0:0:
209,239,98164,2,0,P|229:199|215:150,1,90,2|2,0:2|1:2,0:0:0:0:
173,78,98498,1,10,0:2:0:0:
173,78,98831,5,2,1:2:0:0:
148,88,98914,1,0,0:2:0:0:
120,88,98998,1,0,1:2:0:0:
94,79,99081,1,0,0:2:0:0:
75,59,99164,2,0,L|69:6,1,45,8|0,0:2|0:2,0:0:0:0:
0,49,99331,2,0,L|6:102,1,45,2|8,1:2|0:2,0:0:0:0:
46,154,99498,1,0,1:2:0:0:
38,179,99581,1,0,0:2:0:0:
56,198,99664,1,0,0:2:0:0:
48,223,99747,1,4,0:3:0:0:
66,242,99831,2,0,L|51:295,1,45,8|0,0:2|1:2,0:0:0:0:
83,361,99998,1,0,0:2:0:0:
83,361,100081,1,0,0:2:0:0:
83,361,100164,6,0,P|112:361|147:355,1,45,2|0,1:2|0:2,0:0:0:0:
197,335,100331,2,0,P|226:335|261:329,1,45,0|0,1:2|0:2,0:0:0:0:
304,294,100498,2,0,P|346:287|390:308,1,90,8|0,0:2|1:2,0:0:0:0:
465,350,100831,2,0,L|487:248,1,90,4|0,0:3|0:2,0:0:0:0:
474,236,101081,1,0,0:2:0:0:
466,210,101164,2,0,L|475:164,1,45,8|0,0:2|1:2,0:0:0:0:
503,96,101331,1,0,0:2:0:0:
503,96,101414,1,0,0:2:0:0:
503,96,101498,6,0,P|501:64|490:42,1,45,2|4,1:2|0:3,0:0:0:0:
420,9,101748,1,0,0:2:0:0:
401,28,101831,2,0,L|346:39,1,45,8|0,0:2|0:2,0:0:0:0:
287,15,101998,1,4,0:3:0:0:
256,102,102164,1,0,1:2:0:0:
345,128,102331,1,0,0:2:0:0:
359,150,102414,1,0,0:2:0:0:
367,175,102498,2,0,P|375:211|370:229,1,45,12|0,0:3|0:2,0:0:0:0:
365,291,102664,1,0,0:2:0:0:
291,342,102831,6,0,L|237:331,1,45,2|0,1:2|0:2,0:0:0:0:
279,266,102998,2,0,L|225:255,1,45,2|0,1:2|0:2,0:0:0:0:
267,190,103164,2,0,L|170:170,1,90,10|2,0:2|1:2,0:0:0:0:
121,100,103498,2,0,L|67:89,2,45,2|0|6,1:2|0:0|0:3,0:0:0:0:
178,27,103831,2,0,L|266:44,1,90,10|0,0:2|1:2,0:0:0:0:
292,51,104081,1,0,0:2:0:0:
318,57,104164,6,0,L|372:46,2,45,2|0|0,1:2|0:2|1:2,0:0:0:0:
310,83,104414,2,0,P|294:137|306:197,1,112.5,10|8,0:2|0:2,0:0:0:0:
415,226,104831,2,0,L|395:323,1,90,8|0,0:2|1:2,0:0:0:0:
370,322,105081,1,0,0:2:0:0:
343,328,105164,2,0,L|287:318,1,45,2|0,1:2|0:2,0:0:0:0:
229,348,105331,1,8,0:2:0:0:
159,287,105498,6,0,L|69:306,1,90,0|2,1:2|1:2,0:0:0:0:
12,233,105831,1,8,0:2:0:0:
54,150,105998,2,0,P|61:120|59:101,1,45,0|0,1:2|0:2,0:0:0:0:
30,38,106164,1,2,1:2:0:0:
48,18,106248,1,0,0:2:0:0:
74,24,106331,1,2,1:2:0:0:
92,6,106415,1,0,0:2:0:0:
118,12,106498,2,0,L|176:7,1,45,10|0,0:2|1:2,0:0:0:0:
228,58,106664,1,2,1:2:0:0:
228,58,106748,1,0,1:2:0:0:
228,58,106831,6,0,P|245:98|243:108,1,45,2|0,1:2|0:2,0:0:0:0:
172,107,106998,2,0,P|175:129|189:146,1,45,0|0,0:2|1:2,0:0:0:0:
252,185,107164,2,0,P|267:229|258:275,1,90,8|0,0:2|1:2,0:0:0:0:
246,294,107414,1,0,0:2:0:0:
208,319,107498,5,0,1:2:0:0:
252,327,107581,1,8,0:2:0:0:
296,335,107664,1,0,1:2:0:0:
340,343,107748,1,0,1:2:0:0:
384,351,107831,2,0,L|481:338,1,90,8|0,0:2|0:2,0:0:0:0:
496,251,108164,5,2,1:2:0:0:
472,163,108331,1,0,1:2:0:0:
449,75,108498,1,8,0:2:0:0:
382,135,108664,1,0,1:2:0:0:
355,140,108748,1,0,1:2:0:0:
328,136,108831,2,0,P|304:111|300:82,1,45,0|0,1:2|0:2,0:0:0:0:
230,111,108998,2,0,P|230:76|248:53,1,45,0|0,1:2|0:2,0:0:0:0:
178,24,109164,2,0,L|63:44,1,90,8|2,0:2|0:2,0:0:0:0:
24,98,109498,5,2,1:2:0:0:
35,122,109581,1,0,0:2:0:0:
46,146,109664,1,0,0:2:0:0:
57,170,109748,1,0,0:2:0:0:
68,194,109831,2,0,L|60:255,1,45,8|0,1:2|0:2,0:0:0:0:
136,225,109998,2,0,L|128:286,1,45,8|8,0:2|0:2,0:0:0:0:
204,256,110164,2,0,L|265:264,1,45,0|0,1:2|0:2,0:0:0:0:
310,218,110331,1,8,0:3:0:0:
310,218,110414,1,8,0:3:0:0:
310,218,110498,1,8,1:2:0:0:
369,285,110664,2,0,L|430:276,1,45,8|8,0:2|0:2,0:0:0:0:
474,235,110831,5,2,1:2:0:0:
480,208,110914,1,0,0:2:0:0:
481,180,110998,1,0,1:2:0:0:
477,153,111081,1,0,1:2:0:0:
469,127,111164,2,0,L|465:77,1,45,8|0,0:2|1:2,0:0:0:0:
418,24,111331,1,0,0:2:0:0:
400,44,111414,2,0,L|350:48,2,45,8|0|0,0:2|1:2|0:2,0:0:0:0:
392,118,111664,2,0,L|388:168,1,45,8|0,0:2|1:2,0:0:0:0:
381,238,111831,2,0,B|378:278|378:278|363:266|363:266|279:278,1,135,8|8,0:2|0:2,0:0:0:0:
261,280,112164,6,0,P|235:250|236:176,1,90,2|0,1:2|0:2,0:0:0:0:
247,110,112498,2,0,L|260:28,2,67.5,8|8|8,0:2|0:2|0:2,0:0:0:0:
224,125,112831,2,0,B|211:133|200:135|190:132|181:124|179:111|171:104|163:102|152:104|145:112|136:124|123:127|113:125|102:117,1,135,4|0,0:3|1:2,0:0:0:0:
78,101,113164,1,8,0:2:0:0:
69,126,113248,1,0,1:2:0:0:
60,151,113331,1,0,0:2:0:0:
51,176,113414,1,0,1:2:0:0:
44,202,113498,6,0,L|60:275,1,45,2|0,1:2|0:2,0:0:0:0:
118,304,113664,1,0,0:2:0:0:
118,304,113748,1,0,0:2:0:0:
118,304,113831,2,0,L|134:231,1,45,0|0,0:2|0:2,0:0:0:0:
192,202,113997,1,0,1:2:0:0:
192,202,114081,1,0,0:2:0:0:
192,202,114164,1,8,0:2:0:0:
296,349,114498,1,0,1:2:0:0:
384,335,114664,2,0,L|410:287,1,45,0|0,0:2|0:2,0:0:0:0:
473,322,114831,5,2,1:2:0:0:
502,236,114998,1,8,0:3:0:0:
504,209,115081,1,0,0:2:0:0:
499,182,115164,1,0,0:2:0:0:
487,157,115248,1,8,0:3:0:0:
469,136,115331,1,0,0:2:0:0:
445,122,115414,1,0,0:2:0:0:
418,117,115498,2,0,B|394:115|394:115|381:131|381:131|359:129|359:129|340:144|340:144|322:141,1,90,8|0,0:2|0:0,0:0:0:0:
257,109,115831,1,0,1:2:0:0:
224,194,115998,1,0,0:2:0:0:
233,219,116081,1,0,0:2:0:0:
242,244,116164,5,6,0:3:0:0:
