osu file format v14

[General]
AudioFilename: audio.mp3
AudioLeadIn: 0
PreviewTime: 5456
Countdown: 0
SampleSet: Soft
StackLeniency: 0.8
Mode: 0
LetterboxInBreaks: 0
WidescreenStoryboard: 1

[Editor]
DistanceSpacing: 1
BeatDivisor: 4
GridSize: 8
TimelineZoom: 1

[Metadata]
Title:Passage D
TitleUnicode:Passage D
Artist:The Flashbulb
ArtistUnicode:The Flashbulb
Creator:fieryrage
Version:Easy
Source:osu!
Tags:featured artist mappers mappers' guild kirlian selections instrumental electronic breakcore mismagius blue dragon bd leader pachiru greenhue
BeatmapID:2022478
BeatmapSetID:966225

[Difficulty]
HPDrainRate:2
CircleSize:2
OverallDifficulty:2
ApproachRate:3.5
SliderMultiplier:0.8
SliderTickRate:1

[Events]
//Background and Video events
0,0,"flash.jpg",0,0
//Break Periods
//Storyboard Layer 0 (Background)
//Storyboard Layer 1 (Fail)
//Storyboard Layer 2 (Pass)
//Storyboard Layer 3 (Foreground)
//Storyboard Sound Samples

[TimingPoints]
165,333.333333333333,4,2,1,60,1,0
5498,-100,4,2,1,60,0,0
6664,-100,4,2,1,40,0,0
6748,-100,4,2,1,50,0,0
6831,-100,4,2,1,60,0,0
9331,-100,4,2,1,40,0,0
9414,-100,4,2,1,50,0,0
9498,-100,4,2,1,60,0,0
10164,-100,4,2,1,30,0,0
10331,-100,4,2,1,60,0,0
11998,-100,4,2,1,40,0,0
12081,-100,4,2,1,50,0,0
12164,-100,4,2,1,60,0,0
12998,-100,4,2,1,40,0,0
13081,-100,4,2,1,50,0,0
13164,-100,4,2,1,60,0,0
17331,-100,4,2,1,40,0,0
17414,-100,4,2,1,50,0,0
17498,-100,4,2,1,60,0,0
18331,-100,4,2,1,35,0,0
18498,-100,4,2,1,60,0,0
21331,-100,4,2,1,30,0,0
21373,-100,4,2,1,40,0,0
21414,-100,4,2,1,50,0,0
21456,-100,4,2,1,60,0,0
23998,-100,4,2,1,40,0,0
24081,-100,4,2,1,50,0,0
24164,-100,4,2,1,60,0,0
24276,-100,4,2,1,50,0,0
24387,-100,4,2,1,40,0,0
24498,-100,4,2,1,30,0,0
24609,-100,4,2,1,20,0,0
24720,-100,4,2,1,10,0,0
25164,-100,4,2,1,8,0,0
25498,-100,4,2,1,5,0,0
25831,-100,4,2,1,8,0,0
25998,-100,4,2,1,10,0,0
26289,-100,4,2,1,20,0,0
26414,-100,4,2,1,30,0,0
26498,-100,4,2,1,40,0,0
26581,-100,4,2,1,50,0,0
26664,-100,4,2,1,60,0,0
26873,-100,4,2,1,35,0,0
27081,-100,4,2,1,60,0,0
29539,-100,4,2,1,35,0,0
29748,-100,4,2,1,60,0,0
31526,-100,4,2,1,30,0,0
31664,-100,4,2,1,60,0,0
32248,-100,4,2,1,35,0,0
32414,-100,4,2,1,60,0,0
39164,-100,4,2,1,20,0,0
39220,-100,4,2,1,30,0,0
39331,-100,4,2,1,40,0,0
39498,-100,4,2,1,60,0,0
39539,-100,4,2,1,40,0,0
39664,-100,4,2,1,43,0,0
39706,-100,4,2,1,45,0,0
39748,-100,4,2,1,50,0,0
39831,-100,4,2,1,53,0,0
39873,-100,4,2,1,55,0,0
39998,-100,4,2,1,60,0,0
42664,-100,4,2,1,35,0,0
42831,-100,4,2,1,50,0,0
42998,-100,4,2,1,40,0,0
43831,-100,4,2,1,50,0,0
43998,-100,4,2,1,40,0,0
44164,-100,4,2,1,50,0,0
44331,-100,4,2,1,40,0,0
44998,-100,4,2,1,50,0,0
45164,-100,4,2,1,40,0,0
45331,-100,4,2,1,50,0,0
45664,-100,4,2,1,40,0,0
46164,-100,4,2,1,30,0,0
46498,-100,4,2,1,20,0,0
46831,-100,4,2,1,15,0,0
47164,-100,4,2,1,20,0,0
47498,-100,4,2,1,40,0,0
48081,-100,4,2,1,50,0,0
48164,-100,4,2,1,60,0,0
52831,-100,4,2,1,35,0,0
52998,-100,4,2,1,60,0,0
65581,-100,4,2,2,5,0,0
66831,-100,4,2,1,60,0,0
67998,-100,4,2,1,30,0,0
68164,-100,4,2,1,60,0,0
70664,-100,4,2,1,30,0,0
70831,-100,4,2,1,60,0,0
75873,-100,4,2,1,20,0,0
75914,-100,4,2,1,30,0,0
75956,-100,4,2,1,40,0,0
75998,-100,4,2,1,50,0,0
76039,-100,4,2,1,60,0,0
76664,-100,4,2,1,30,0,0
76706,-100,4,2,1,60,0,0
76748,-100,4,2,1,20,0,0
76831,-100,4,2,1,30,0,0
76914,-100,4,2,1,50,0,0
76956,-100,4,2,1,60,0,0
80664,-100,4,2,1,35,0,0
81164,-100,4,2,1,60,0,0
82581,-100,4,2,1,40,0,0
82664,-100,4,2,1,60,0,0
82692,-100,4,2,1,40,0,0
82831,-100,4,2,1,60,0,0
83998,-100,4,2,1,30,0,0
84164,-100,4,2,1,60,0,0
86664,-100,4,2,1,30,0,0
86831,-100,4,2,1,60,0,0
89331,-100,4,2,1,35,0,0
89498,-100,4,2,1,60,0,0
93192,-100,4,2,1,40,0,0
93331,-100,4,2,1,60,0,0
94664,-100,4,2,1,35,0,0
94831,-100,4,2,1,60,0,0
94998,-100,4,2,1,40,0,0
95164,-100,4,2,1,50,0,0
95331,-100,4,2,1,40,0,0
95498,-100,4,2,1,50,0,0
95664,-100,4,2,1,60,0,0
95692,-100,4,2,1,40,0,0
95831,-100,4,2,1,60,0,0
95914,-100,4,2,1,5,0,0
96081,-100,4,2,1,60,0,0
98998,-100,4,2,1,30,0,0
99081,-100,4,2,1,60,0,0
99998,-100,4,2,1,30,0,0
100081,-100,4,2,1,40,0,0
100164,-100,4,2,1,60,0,0
100831,-100,4,2,1,35,0,0
100998,-100,4,2,1,60,0,0
103664,-100,4,2,1,40,0,0
103748,-100,4,2,1,50,0,0
103831,-100,4,2,1,60,0,0
107914,-100,4,2,1,20,0,0
107998,-100,4,2,1,60,0,0
110664,-100,4,2,1,40,0,0
110748,-100,4,2,1,50,0,0
110831,-100,4,2,1,60,0,0
112789,-100,4,2,1,5,0,0
112831,-100,4,2,1,60,0,0
114248,-100,4,2,1,5,0,0
114498,-100,4,2,1,60,0,0
116164,-100,4,2,1,40,0,0

[Colours]
Combo1 : 123,128,183
Combo2 : 48,83,165
Combo3 : 113,199,208
Combo4 : 96,102,97

[HitObjects]
52,171,5498,6,0,P|128:146|213:160,1,160,2|2,1:2|1:2,0:0:0:0:
269,205,6498,1,10,0:2:0:0:
335,249,6831,2,0,P|398:264|457:254,2,120,2|2|8,1:2|1:2|0:2,0:0:0:0:
269,205,8164,6,0,L|93:207,1,160,2|2,1:2|1:2,0:0:0:0:
28,209,9164,1,10,0:2:0:0:
2,132,9498,2,0,P|-3:72|19:7,2,120,2|2|8,1:2|1:2|0:2,0:0:0:0:
28,209,10831,6,0,P|33:249|24:303,1,80,2|8,1:2|0:2,0:0:0:0:
10,366,11498,1,2,1:2:0:0:
154,297,12164,2,0,P|192:284|246:289,1,80,2|8,1:2|0:2,0:0:0:0:
308,305,12831,1,0,1:2:0:0:
460,255,13498,6,0,P|475:199|455:84,1,160,2|10,1:2|0:2,0:0:0:0:
313,38,14831,2,0,L|218:36,2,80,2|8|0,1:2|0:2|1:2,0:0:0:0:
393,40,15831,1,8,0:2:0:0:
472,43,16164,5,2,1:2:0:0:
470,203,16831,1,2,1:2:0:0:
309,200,17498,2,0,L|181:197,2,120,2|2|8,1:2|1:2|0:2,0:0:0:0:
389,202,18831,6,0,L|388:291,1,80,2|8,1:2|0:2,0:0:0:0:
339,345,19498,2,0,L|250:344,1,80,2|6,1:2|0:3,0:0:0:0:
196,294,20164,2,0,P|133:278|66:292,2,120,2|2|8,1:2|0:2|0:2,0:0:0:0:
259,344,21498,6,0,P|337:353|420:319,1,160,2|0,1:2|1:2,0:0:0:0:
476,178,22831,2,0,P|398:169|315:203,1,160,2|8,1:2|0:2,0:0:0:0:
259,344,24164,6,0,B|147:387|43:332|43:332|-25:216|46:77,1,480,2|4,1:2|0:3,0:0:0:0:
194,39,26831,6,0,L|368:40,1,160,2|2,1:2|1:2,0:0:0:0:
429,65,27831,1,10,0:2:0:0:
504,91,28164,2,0,P|514:144|506:218,2,120,2|2|8,1:2|0:2|0:2,0:0:0:0:
429,65,29498,6,0,P|364:75|259:61,1,160,2|2,1:2|1:2,0:0:0:0:
195,38,30498,1,10,0:2:0:0:
121,68,30831,2,0,P|110:131|120:201,2,120,2|2|8,1:2|0:2|0:2,0:0:0:0:
195,38,32164,6,0,L|320:35,1,120,2|2,1:2|1:2,0:0:0:0:
426,78,33164,1,10,0:2:0:0:
458,151,33498,2,0,P|464:194|456:238,1,80,2|10,1:2|0:2,0:0:0:0:
399,283,34164,2,0,P|356:289|312:281,1,80,2|10,1:2|0:2,0:0:0:0:
260,230,34831,6,0,P|184:220|98:254,1,160,2|2,1:2|1:2,0:0:0:0:
52,305,35831,1,10,0:2:0:0:
7,238,36164,1,6,0:3:0:0:
34,162,36498,2,0,B|40:134|40:134|32:107|32:107|36:80,2,80,10|2|10,0:2|1:2|0:2,0:0:0:0:
7,238,37498,6,0,P|0:282|5:320,1,80,2|10,1:2|0:2,0:0:0:0:
68,364,38164,2,0,P|112:371|150:366,1,80,2|8,1:2|0:2,0:0:0:0:
212,320,38831,2,0,P|286:296|371:306,1,160,2|10,1:2|0:2,0:0:0:0:
501,217,40164,6,0,L|497:124,1,80,2|0,1:2|1:2,0:0:0:0:
428,96,40831,2,0,L|335:100,1,80,0|0,1:2|1:2,0:0:0:0:
282,145,41498,2,0,L|286:238,1,80,0|8,1:2|0:2,0:0:0:0:
245,294,42164,1,2,1:2:0:0:
100,225,42831,6,0,B|42:149|86:50|86:50|149:25|218:47,2,320,2|2|2,1:2|1:2|1:2,0:0:0:0:
100,225,48164,6,0,P|222:196|335:233,1,240,2|8,1:2|0:2,0:0:0:0:
400,266,49498,2,0,P|447:278|487:275,2,80,2|10|2,1:2|0:2|0:2,0:0:0:0:
328,229,50498,1,10,0:2:0:0:
251,253,50831,6,0,P|160:259|86:230,1,160,2|0,1:2|1:2,0:0:0:0:
77,158,51831,1,8,0:2:0:0:
112,86,52164,2,0,P|203:80|277:109,1,160,0|4,1:2|0:3,0:0:0:0:
365,228,53498,6,0,P|449:235|420:112,1,240,2|12,1:2|0:3,0:0:0:0:
357,90,54831,2,0,B|332:94|332:94|317:91|317:91|304:94|304:94|291:88|291:88|272:94|272:94|254:88|254:88|225:93|225:93|172:76|115:95,1,240,6|10,0:3|0:3,0:0:0:0:
73,154,56164,6,0,P|66:211|82:278,2,120,2|2|0,1:2|1:2|1:2,0:0:0:0:
123,92,57498,2,0,P|204:63|356:94,1,240,2|10,1:2|0:2,0:0:0:0:
394,159,58831,5,2,1:2:0:0:
107,300,60164,1,2,1:2:0:0:
394,159,61498,6,0,P|469:150|429:264,1,240,2|8,1:2|0:2,0:0:0:0:
359,261,62831,2,0,B|299:240|242:255|242:255|182:272|120:254,1,240,2|8,1:2|0:2,0:0:0:0:
48,224,64164,6,0,P|23:146|36:53,1,160,2|0,1:2|1:2,0:0:0:0:
102,35,65164,1,8,0:2:0:0:
180,20,65498,1,2,1:2:0:0:
477,138,66831,6,0,L|485:307,1,160,2|2,1:2|1:2,0:0:0:0:
437,362,67831,1,10,1:2:0:0:
367,322,68164,2,0,P|306:307|251:318,1,120,2|2,1:2|0:2,0:0:0:0:
51,300,69498,6,0,P|38:217|55:138,1,160,2|2,1:2|1:2,0:0:0:0:
105,82,70498,1,10,1:2:0:0:
184,77,70831,2,0,L|304:74,2,120,2|10|10,1:2|0:2|1:2,0:0:0:0:
105,82,72164,6,0,P|98:126|105:170,1,80,2|8,1:2|0:2,0:0:0:0:
153,222,72831,2,0,P|160:266|153:310,1,80,2|8,1:2|0:2,0:0:0:0:
111,367,73498,1,2,1:2:0:0:
385,203,74831,6,0,L|471:200,2,80,0|0|0,1:2|1:2|1:2,0:0:0:0:
305,208,75831,1,8,0:2:0:0:
225,212,76164,1,2,1:2:0:0:
256,192,76498,12,0,80164,1:2:0:0:
225,212,81498,6,0,P|176:219|60:192,1,160,2|2,1:2|1:2,0:0:0:0:
38,122,82498,1,10,0:2:0:0:
89,61,82831,2,0,P|138:54|254:81,1,160,2|2,1:2|1:2,0:0:0:0:
314,117,83831,1,10,0:2:0:0:
374,168,84164,2,0,L|380:333,1,160,0|0,1:2|1:2,0:0:0:0:
219,335,85498,6,0,L|213:170,1,160,2|0,1:2|1:2,0:0:0:0:
329,65,86831,2,0,P|386:46|455:53,2,120,2|2|10,1:2|0:2|1:2,0:0:0:0:
264,112,88164,6,0,P|204:121|105:96,1,160,2|0,1:2|1:2,0:0:0:0:
16,229,89498,2,0,P|12:268|21:317,1,80,2|8,1:2|1:2,0:0:0:0:
80,358,90164,2,0,P|119:362|168:353,1,80,0|8,1:2|1:2,0:0:0:0:
224,308,90831,6,0,P|302:294|391:311,1,160,2|0,1:2|1:2,0:0:0:0:
449,349,91831,1,8,1:2:0:0:
488,279,92164,2,0,P|496:200|469:117,1,160,2|0,1:2|1:2,0:0:0:0:
415,67,93164,1,8,0:2:0:0:
340,96,93498,6,0,B|253:117|185:79|185:79|100:38|23:72,1,320,2|2,1:2|1:2,0:0:0:0:
190,345,96164,6,0,P|248:358|426:304,1,240,2|8,1:2|0:2,0:0:0:0:
471,250,97498,2,0,L|474:155,2,80,2|10|2,1:2|0:2|0:2,0:0:0:0:
417,310,98498,1,10,0:2:0:0:
358,255,98831,6,0,P|298:231|235:237,1,120,2|2,1:2|1:2,0:0:0:0:
134,283,99831,1,8,0:2:0:0:
79,224,100164,2,0,P|66:148|93:56,1,160,2|4,1:2|0:3,0:0:0:0:
236,13,101498,6,0,L|404:11,1,160,2|0,1:2|1:2,0:0:0:0:
500,132,102831,2,0,P|508:176|505:211,1,80,2|10,1:2|0:2,0:0:0:0:
449,269,103498,2,0,B|422:278|422:278|413:276|413:276|405:279|405:279|370:274,1,80,2|10,1:2|0:2,0:0:0:0:
296,244,104164,6,0,P|216:229|136:247,1,160,2|8,1:2|0:2,0:0:0:0:
76,293,105164,1,2,1:2:0:0:
16,238,105498,2,0,P|9:163|139:77,1,240,0|10,1:2|0:2,0:0:0:0:
202,112,106831,6,0,P|281:123|373:92,1,160,2|0,1:2|1:2,0:0:0:0:
424,57,107831,1,8,0:2:0:0:
481,112,108164,2,0,P|503:187|491:276,1,160,2|0,1:2|1:2,0:0:0:0:
437,324,109164,1,8,0:2:0:0:
359,301,109498,6,0,P|317:293|270:298,1,80,2|8,1:2|1:2,0:0:0:0:
207,330,110164,2,0,P|167:332|128:324,1,80,0|8,1:2|1:2,0:0:0:0:
65,275,110831,2,0,B|46:193|46:193|51:169|51:169|49:148|49:148|61:115,1,160,2|0,1:2|1:2,0:0:0:0:
121,69,111831,1,8,0:2:0:0:
198,89,112164,5,2,1:2:0:0:
278,87,112498,2,0,B|296:89|311:83|311:83|329:88|329:88|345:78|370:83,2,80,8|4|8,0:2|0:3|0:2,0:0:0:0:
198,89,113498,2,0,P|184:169|210:254,1,160,2|8,1:2|0:2,0:0:0:0:
353,301,114831,5,2,1:2:0:0:
432,297,115164,1,0,0:2:0:0:
511,290,115498,2,0,L|506:199,1,80,8|0,0:2|1:2,0:0:0:0:
500,130,116164,1,6,0:3:0:0:
