osu file format v14

[General]
AudioFilename: audio.mp3
AudioLeadIn: 0
PreviewTime: 47999
Countdown: 0
SampleSet: Soft
StackLeniency: 0.7
Mode: 3
LetterboxInBreaks: 0
SpecialStyle: 0
WidescreenStoryboard: 0

[Editor]
DistanceSpacing: 0.8
BeatDivisor: 4
GridSize: 8
TimelineZoom: 2.2

[Metadata]
Title:Passage D
TitleUnicode:Passage D
Artist:The Flashbulb
ArtistUnicode:The Flashbulb
Creator:Jinjin
Version:Delve
Source:
Tags:
BeatmapID:1016508
BeatmapSetID:475785

[Difficulty]
HPDrainRate:8
CircleSize:4
OverallDifficulty:9
ApproachRate:5
SliderMultiplier:1.4
SliderTickRate:1

[Events]
//Background and Video events
0,0,"passage.jpg",0,0
//Break Periods
//Storyboard Layer 0 (Background)
//Storyboard Layer 1 (Fail)
//Storyboard Layer 2 (Pass)
//Storyboard Layer 3 (Foreground)
//Storyboard Layer 4 (Overlay)
//Storyboard Sound Samples

[TimingPoints]
0,333.333333333333,4,2,0,0,1,0

[HitObjects]
192,192,0,5,0,0:0:0:0:
448,192,166,1,0,0:0:0:0:
320,192,333,1,0,0:0:0:0:
448,192,499,1,0,0:0:0:0:
192,192,666,1,0,0:0:0:0:
448,192,833,1,0,0:0:0:0:
320,192,999,1,0,0:0:0:0:
448,192,1166,1,0,0:0:0:0:
192,192,1333,1,0,0:0:0:0:
448,192,1499,1,0,0:0:0:0:
320,192,1666,1,0,0:0:0:0:
448,192,1833,1,0,0:0:0:0:
64,192,1999,1,0,0:0:0:0:
448,192,2166,1,0,0:0:0:0:
192,192,2333,1,0,0:0:0:0:
448,192,2499,1,0,0:0:0:0:
192,192,2666,1,0,0:0:0:0:
448,192,2833,1,0,0:0:0:0:
320,192,2999,1,0,0:0:0:0:
448,192,3166,1,0,0:0:0:0:
192,192,3333,1,0,0:0:0:0:
448,192,3499,1,0,0:0:0:0:
320,192,3666,1,0,0:0:0:0:
448,192,3833,1,0,0:0:0:0:
192,192,3999,1,0,0:0:0:0:
448,192,4166,1,0,0:0:0:0:
320,192,4333,1,0,0:0:0:0:
448,192,4499,1,0,0:0:0:0:
192,192,4666,1,0,0:0:0:0:
448,192,4833,1,0,0:0:0:0:
320,192,4999,1,0,0:0:0:0:
448,192,5166,1,0,0:0:0:0:
64,192,5333,1,0,0:0:0:0:
320,192,5333,1,0,0:0:0:0:
192,192,5499,1,0,0:0:0:0:
192,192,5583,1,0,0:0:0:0:
448,192,5666,1,0,0:0:0:0:
320,192,5666,1,0,0:0:0:0:
192,192,5749,1,0,0:0:0:0:
64,192,5833,1,0,0:0:0:0:
320,192,5833,1,0,0:0:0:0:
64,192,5999,1,0,0:0:0:0:
320,192,5999,1,0,0:0:0:0:
320,192,6166,1,0,0:0:0:0:
320,192,6249,1,0,0:0:0:0:
448,192,6333,1,0,0:0:0:0:
64,192,6333,1,0,0:0:0:0:
192,192,6416,1,0,0:0:0:0:
320,192,6499,1,0,0:0:0:0:
448,192,6541,1,0,0:0:0:0:
64,192,6583,1,0,0:0:0:0:
192,192,6624,1,0,0:0:0:0:
320,192,6666,1,0,0:0:0:0:
448,192,6666,1,0,0:0:0:0:
64,192,6749,1,0,0:0:0:0:
320,192,6833,1,0,0:0:0:0:
448,192,6833,1,0,0:0:0:0:
192,192,6916,1,0,0:0:0:0:
64,192,6999,1,0,0:0:0:0:
448,192,6999,1,0,0:0:0:0:
64,192,7166,1,0,0:0:0:0:
320,192,7166,1,0,0:0:0:0:
320,192,7333,1,0,0:0:0:0:
64,192,7499,1,0,0:0:0:0:
192,192,7499,1,0,0:0:0:0:
448,192,7666,1,0,0:0:0:0:
192,192,7666,1,0,0:0:0:0:
64,192,7999,1,0,0:0:0:0:
192,192,7999,1,0,0:0:0:0:
448,192,8083,1,0,0:0:0:0:
192,192,8166,1,0,0:0:0:0:
320,192,8249,1,0,0:0:0:0:
448,192,8333,1,0,0:0:0:0:
64,192,8333,1,0,0:0:0:0:
320,192,8416,1,0,0:0:0:0:
192,192,8499,1,0,0:0:0:0:
64,192,8499,1,0,0:0:0:0:
320,192,8583,1,0,0:0:0:0:
448,192,8583,1,0,0:0:0:0:
192,192,8666,1,0,0:0:0:0:
64,192,8666,1,0,0:0:0:0:
320,192,8749,1,0,0:0:0:0:
192,192,8833,1,0,0:0:0:0:
320,192,8916,1,0,0:0:0:0:
448,192,8999,1,0,0:0:0:0:
64,192,8999,1,0,0:0:0:0:
320,192,9083,1,0,0:0:0:0:
192,192,9083,1,0,0:0:0:0:
448,192,9166,1,0,0:0:0:0:
320,192,9208,1,0,0:0:0:0:
192,192,9249,1,0,0:0:0:0:
64,192,9291,1,0,0:0:0:0:
448,192,9333,1,0,0:0:0:0:
320,192,9333,1,0,0:0:0:0:
192,192,9416,1,0,0:0:0:0:
320,192,9499,1,0,0:0:0:0:
448,192,9499,1,0,0:0:0:0:
192,192,9583,1,0,0:0:0:0:
64,192,9666,1,0,0:0:0:0:
448,192,9666,1,0,0:0:0:0:
64,192,9833,1,0,0:0:0:0:
192,192,9833,1,0,0:0:0:0:
448,192,9999,128,0,10166:0:0:0:0:
64,192,10166,1,0,0:0:0:0:
320,192,10208,1,0,0:0:0:0:
64,192,10249,1,0,0:0:0:0:
320,192,10291,1,0,0:0:0:0:
448,192,10333,1,0,0:0:0:0:
64,192,10416,1,0,0:0:0:0:
192,192,10416,1,0,0:0:0:0:
320,192,10499,1,0,0:0:0:0:
320,192,10583,1,0,0:0:0:0:
64,192,10666,1,0,0:0:0:0:
448,192,10666,1,0,0:0:0:0:
192,192,10749,128,0,10833:0:0:0:0:
192,192,10916,1,0,0:0:0:0:
320,192,10999,1,0,0:0:0:0:
448,192,10999,1,0,0:0:0:0:
64,192,11083,1,0,0:0:0:0:
320,192,11166,1,0,0:0:0:0:
448,192,11187,1,0,0:0:0:0:
192,192,11249,128,0,11333:0:0:0:0:
64,192,11333,1,0,0:0:0:0:
448,192,11333,1,0,0:0:0:0:
192,192,11499,128,0,11583:0:0:0:0:
320,192,11583,128,0,11666:0:0:0:0:
192,192,11666,128,0,11749:0:0:0:0:
64,192,11666,128,0,11749:0:0:0:0:
320,192,11749,128,0,11833:0:0:0:0:
448,192,11749,128,0,11833:0:0:0:0:
64,192,11833,1,0,0:0:0:0:
192,192,11874,1,0,0:0:0:0:
448,192,11916,1,0,0:0:0:0:
320,192,11958,1,0,0:0:0:0:
64,192,11999,1,0,0:0:0:0:
192,192,11999,1,0,0:0:0:0:
320,192,12083,1,0,0:0:0:0:
64,192,12166,1,0,0:0:0:0:
192,192,12166,1,0,0:0:0:0:
320,192,12249,1,0,0:0:0:0:
448,192,12333,1,0,0:0:0:0:
64,192,12333,1,0,0:0:0:0:
320,192,12499,1,0,0:0:0:0:
192,192,12499,1,0,0:0:0:0:
320,192,12666,1,0,0:0:0:0:
192,192,12708,1,0,0:0:0:0:
448,192,12749,1,0,0:0:0:0:
320,192,12749,1,0,0:0:0:0:
64,192,12833,1,0,0:0:0:0:
192,192,12854,1,0,0:0:0:0:
320,192,12874,1,0,0:0:0:0:
448,192,12895,1,0,0:0:0:0:
64,192,12916,1,0,0:0:0:0:
192,192,12958,1,0,0:0:0:0:
448,192,12999,1,0,0:0:0:0:
320,192,12999,1,0,0:0:0:0:
192,192,13166,1,0,0:0:0:0:
64,192,13166,1,0,0:0:0:0:
320,192,13249,1,0,0:0:0:0:
64,192,13333,1,0,0:0:0:0:
192,192,13333,1,0,0:0:0:0:
320,192,13416,1,0,0:0:0:0:
192,192,13499,1,0,0:0:0:0:
64,192,13499,1,0,0:0:0:0:
320,192,13583,1,0,0:0:0:0:
448,192,13583,1,0,0:0:0:0:
192,192,13708,1,0,0:0:0:0:
448,192,13791,1,0,0:0:0:0:
320,192,13791,1,0,0:0:0:0:
64,192,13833,1,0,0:0:0:0:
192,192,13833,1,0,0:0:0:0:
320,192,13916,1,0,0:0:0:0:
64,192,13999,1,0,0:0:0:0:
448,192,13999,1,0,0:0:0:0:
192,192,14166,1,0,0:0:0:0:
320,192,14166,1,0,0:0:0:0:
448,192,14249,1,0,0:0:0:0:
192,192,14333,1,0,0:0:0:0:
320,192,14333,1,0,0:0:0:0:
64,192,14416,1,0,0:0:0:0:
320,192,14499,1,0,0:0:0:0:
448,192,14499,1,0,0:0:0:0:
64,192,14666,1,0,0:0:0:0:
192,192,14666,1,0,0:0:0:0:
320,192,14749,1,0,0:0:0:0:
448,192,14791,1,0,0:0:0:0:
64,192,14833,1,0,0:0:0:0:
192,192,14833,1,0,0:0:0:0:
320,192,14916,1,0,0:0:0:0:
448,192,14937,1,0,0:0:0:0:
64,192,14958,1,0,0:0:0:0:
192,192,14979,1,0,0:0:0:0:
320,192,14999,1,0,0:0:0:0:
448,192,14999,1,0,0:0:0:0:
64,192,15166,1,0,0:0:0:0:
192,192,15166,1,0,0:0:0:0:
320,192,15249,1,0,0:0:0:0:
64,192,15333,1,0,0:0:0:0:
192,192,15333,1,0,0:0:0:0:
448,192,15416,1,0,0:0:0:0:
320,192,15499,1,0,0:0:0:0:
64,192,15499,1,0,0:0:0:0:
192,192,15583,1,0,0:0:0:0:
320,192,15666,1,0,0:0:0:0:
448,192,15666,1,0,0:0:0:0:
64,192,15749,1,0,0:0:0:0:
192,192,15749,1,0,0:0:0:0:
320,192,15833,1,0,0:0:0:0:
448,192,15833,1,0,0:0:0:0:
320,192,15916,1,0,0:0:0:0:
448,192,15916,1,0,0:0:0:0:
64,192,15999,1,0,0:0:0:0:
192,192,15999,1,0,0:0:0:0:
192,192,16083,1,0,0:0:0:0:
448,192,16083,1,0,0:0:0:0:
320,192,16166,1,0,0:0:0:0:
448,192,16249,1,0,0:0:0:0:
64,192,16333,1,0,0:0:0:0:
192,192,16333,1,0,0:0:0:0:
192,192,16416,1,0,0:0:0:0:
448,192,16416,1,0,0:0:0:0:
320,192,16499,1,0,0:0:0:0:
448,192,16583,1,0,0:0:0:0:
64,192,16666,1,0,0:0:0:0:
192,192,16666,1,0,0:0:0:0:
448,192,16749,1,0,0:0:0:0:
192,192,16749,1,0,0:0:0:0:
320,192,16833,1,0,0:0:0:0:
64,192,16916,1,0,0:0:0:0:
192,192,16999,128,0,17083:0:0:0:0:
320,192,17083,1,0,0:0:0:0:
448,192,17083,1,0,0:0:0:0:
192,192,17166,1,0,0:0:0:0:
64,192,17208,1,0,0:0:0:0:
448,192,17249,1,0,0:0:0:0:
320,192,17291,1,0,0:0:0:0:
192,192,17333,1,0,0:0:0:0:
64,192,17333,1,0,0:0:0:0:
448,192,17416,1,0,0:0:0:0:
320,192,17499,1,0,0:0:0:0:
64,192,17583,1,0,0:0:0:0:
192,192,17583,1,0,0:0:0:0:
320,192,17666,1,0,0:0:0:0:
448,192,17666,1,0,0:0:0:0:
64,192,17833,1,0,0:0:0:0:
320,192,17833,1,0,0:0:0:0:
448,192,17916,1,0,0:0:0:0:
192,192,17999,1,0,0:0:0:0:
320,192,17999,1,0,0:0:0:0:
448,192,18083,1,0,0:0:0:0:
192,192,18166,1,0,0:0:0:0:
320,192,18208,1,0,0:0:0:0:
64,192,18249,1,0,0:0:0:0:
192,192,18291,1,0,0:0:0:0:
320,192,18333,1,0,0:0:0:0:
448,192,18333,1,0,0:0:0:0:
64,192,18416,1,0,0:0:0:0:
192,192,18416,1,0,0:0:0:0:
192,192,18499,1,0,0:0:0:0:
64,192,18499,1,0,0:0:0:0:
320,192,18583,1,0,0:0:0:0:
64,192,18666,1,0,0:0:0:0:
192,192,18666,1,0,0:0:0:0:
448,192,18749,1,0,0:0:0:0:
320,192,18833,1,0,0:0:0:0:
192,192,18916,1,0,0:0:0:0:
64,192,18916,1,0,0:0:0:0:
320,192,18999,1,0,0:0:0:0:
448,192,18999,1,0,0:0:0:0:
192,192,19166,1,0,0:0:0:0:
448,192,19249,1,0,0:0:0:0:
64,192,19333,1,0,0:0:0:0:
192,192,19333,1,0,0:0:0:0:
320,192,19416,1,0,0:0:0:0:
320,192,19499,1,0,0:0:0:0:
64,192,19583,1,0,0:0:0:0:
192,192,19666,1,0,0:0:0:0:
448,192,19666,1,0,0:0:0:0:
320,192,19749,1,0,0:0:0:0:
320,192,19833,1,0,0:0:0:0:
192,192,19916,1,0,0:0:0:0:
64,192,19999,1,0,0:0:0:0:
448,192,19999,1,0,0:0:0:0:
320,192,20166,1,0,0:0:0:0:
192,192,20249,1,0,0:0:0:0:
64,192,20249,1,0,0:0:0:0:
320,192,20333,1,0,0:0:0:0:
448,192,20333,1,0,0:0:0:0:
192,192,20499,1,0,0:0:0:0:
320,192,20583,1,0,0:0:0:0:
448,192,20583,1,0,0:0:0:0:
64,192,20666,1,0,0:0:0:0:
192,192,20666,1,0,0:0:0:0:
448,192,20749,1,0,0:0:0:0:
320,192,20833,1,0,0:0:0:0:
192,192,20916,1,0,0:0:0:0:
320,192,20999,1,0,0:0:0:0:
448,192,20999,1,0,0:0:0:0:
192,192,21166,1,0,0:0:0:0:
64,192,21208,1,0,0:0:0:0:
448,192,21249,1,0,0:0:0:0:
320,192,21270,1,0,0:0:0:0:
192,192,21291,1,0,0:0:0:0:
64,192,21312,1,0,0:0:0:0:
320,192,21333,1,0,0:0:0:0:
448,192,21333,1,0,0:0:0:0:
192,192,21499,1,0,0:0:0:0:
192,192,21583,1,0,0:0:0:0:
320,192,21666,1,0,0:0:0:0:
448,192,21666,1,0,0:0:0:0:
64,192,21749,1,0,0:0:0:0:
192,192,21749,1,0,0:0:0:0:
320,192,21833,1,0,0:0:0:0:
448,192,21833,1,0,0:0:0:0:
64,192,21916,1,0,0:0:0:0:
192,192,21916,1,0,0:0:0:0:
320,192,21999,1,0,0:0:0:0:
192,192,22083,1,0,0:0:0:0:
64,192,22083,1,0,0:0:0:0:
320,192,22166,1,0,0:0:0:0:
192,192,22249,1,0,0:0:0:0:
64,192,22333,1,0,0:0:0:0:
448,192,22333,1,0,0:0:0:0:
192,192,22416,1,0,0:0:0:0:
320,192,22499,128,0,22583:0:0:0:0:
192,192,22583,1,0,0:0:0:0:
448,192,22666,1,0,0:0:0:0:
64,192,22666,1,0,0:0:0:0:
64,192,22833,1,0,0:0:0:0:
448,192,22833,1,0,0:0:0:0:
192,192,22916,1,0,0:0:0:0:
320,192,22999,1,0,0:0:0:0:
448,192,22999,1,0,0:0:0:0:
192,192,23083,1,0,0:0:0:0:
64,192,23166,1,0,0:0:0:0:
64,192,23249,1,0,0:0:0:0:
320,192,23333,1,0,0:0:0:0:
448,192,23333,1,0,0:0:0:0:
320,192,23416,1,0,0:0:0:0:
192,192,23416,1,0,0:0:0:0:
64,192,23499,1,0,0:0:0:0:
192,192,23499,1,0,0:0:0:0:
320,192,23583,1,0,0:0:0:0:
448,192,23583,1,0,0:0:0:0:
192,192,23666,1,0,0:0:0:0:
64,192,23666,1,0,0:0:0:0:
320,192,23833,1,0,0:0:0:0:
448,192,23874,1,0,0:0:0:0:
64,192,23916,1,0,0:0:0:0:
192,192,23958,1,0,0:0:0:0:
320,192,23999,1,0,0:0:0:0:
448,192,23999,1,0,0:0:0:0:
64,192,24055,1,0,0:0:0:0:
320,192,24111,1,0,0:0:0:0:
192,192,24166,1,0,0:0:0:0:
448,192,24222,1,0,0:0:0:0:
192,192,24277,1,0,0:0:0:0:
320,192,24333,1,0,0:0:0:0:
64,192,24388,1,0,0:0:0:0:
320,192,24444,1,0,0:0:0:0:
192,192,24499,1,0,0:0:0:0:
448,192,24555,1,0,0:0:0:0:
192,192,24611,1,0,0:0:0:0:
320,192,24666,128,0,25249:0:0:0:0:
448,192,24666,128,0,25249:0:0:0:0:
64,192,24999,128,0,25916:0:0:0:0:
192,192,24999,128,0,25583:0:0:0:0:
320,192,25333,128,0,25583:0:0:0:0:
448,192,25333,128,0,25999:0:0:0:0:
192,192,25666,128,0,25916:0:0:0:0:
320,192,25666,128,0,25999:0:0:0:0:
64,192,25999,1,0,0:0:0:0:
192,192,26041,1,0,0:0:0:0:
320,192,26083,1,0,0:0:0:0:
448,192,26124,1,0,0:0:0:0:
64,192,26166,1,0,0:0:0:0:
192,192,26208,1,0,0:0:0:0:
320,192,26249,1,0,0:0:0:0:
448,192,26291,1,0,0:0:0:0:
192,192,26333,1,0,0:0:0:0:
64,192,26374,1,0,0:0:0:0:
448,192,26416,1,0,0:0:0:0:
320,192,26458,1,0,0:0:0:0:
192,192,26499,1,0,0:0:0:0:
64,192,26499,1,0,0:0:0:0:
448,192,26583,1,0,0:0:0:0:
320,192,26583,1,0,0:0:0:0:
320,192,26666,1,0,0:0:0:0:
448,192,26666,1,0,0:0:0:0:
64,192,26666,1,0,0:0:0:0:
64,192,26791,1,0,0:0:0:0:
320,192,26916,1,0,0:0:0:0:
192,192,26916,1,0,0:0:0:0:
448,192,26999,1,0,0:0:0:0:
320,192,26999,1,0,0:0:0:0:
64,192,27166,1,0,0:0:0:0:
320,192,27166,1,0,0:0:0:0:
448,192,27249,1,0,0:0:0:0:
64,192,27333,1,0,0:0:0:0:
192,192,27333,1,0,0:0:0:0:
320,192,27499,1,0,0:0:0:0:
192,192,27583,1,0,0:0:0:0:
320,192,27666,1,0,0:0:0:0:
448,192,27666,1,0,0:0:0:0:
192,192,27833,1,0,0:0:0:0:
448,192,27874,1,0,0:0:0:0:
64,192,27916,1,0,0:0:0:0:
320,192,27958,1,0,0:0:0:0:
192,192,27999,1,0,0:0:0:0:
448,192,27999,1,0,0:0:0:0:
320,192,28166,1,0,0:0:0:0:
64,192,28249,1,0,0:0:0:0:
448,192,28333,1,0,0:0:0:0:
320,192,28333,1,0,0:0:0:0:
64,192,28416,1,0,0:0:0:0:
192,192,28416,1,0,0:0:0:0:
320,192,28499,1,0,0:0:0:0:
192,192,28583,1,0,0:0:0:0:
64,192,28583,1,0,0:0:0:0:
64,192,28666,1,0,0:0:0:0:
192,192,28666,1,0,0:0:0:0:
448,192,28749,1,0,0:0:0:0:
448,192,28833,1,0,0:0:0:0:
192,192,28916,1,0,0:0:0:0:
320,192,28999,1,0,0:0:0:0:
448,192,28999,1,0,0:0:0:0:
64,192,29166,1,0,0:0:0:0:
64,192,29333,1,0,0:0:0:0:
320,192,29333,1,0,0:0:0:0:
448,192,29458,1,0,0:0:0:0:
64,192,29583,1,0,0:0:0:0:
192,192,29583,1,0,0:0:0:0:
320,192,29666,1,0,0:0:0:0:
192,192,29666,1,0,0:0:0:0:
64,192,29833,1,0,0:0:0:0:
320,192,29833,1,0,0:0:0:0:
448,192,29916,1,0,0:0:0:0:
64,192,29999,1,0,0:0:0:0:
192,192,29999,1,0,0:0:0:0:
320,192,30166,1,0,0:0:0:0:
448,192,30166,1,0,0:0:0:0:
64,192,30249,1,0,0:0:0:0:
192,192,30333,1,0,0:0:0:0:
448,192,30333,1,0,0:0:0:0:
64,192,30499,1,0,0:0:0:0:
320,192,30541,1,0,0:0:0:0:
192,192,30583,1,0,0:0:0:0:
448,192,30624,1,0,0:0:0:0:
64,192,30666,1,0,0:0:0:0:
320,192,30666,1,0,0:0:0:0:
192,192,30833,1,0,0:0:0:0:
64,192,30916,1,0,0:0:0:0:
320,192,30999,1,0,0:0:0:0:
448,192,30999,1,0,0:0:0:0:
192,192,31083,1,0,0:0:0:0:
64,192,31083,1,0,0:0:0:0:
320,192,31166,1,0,0:0:0:0:
192,192,31249,1,0,0:0:0:0:
320,192,31333,1,0,0:0:0:0:
64,192,31333,128,0,31499:0:0:0:0:
448,192,31416,128,0,31499:0:0:0:0:
64,192,31583,1,0,0:0:0:0:
448,192,31583,1,0,0:0:0:0:
192,192,31666,1,0,0:0:0:0:
320,192,31666,1,0,0:0:0:0:
64,192,31833,1,0,0:0:0:0:
192,192,31874,1,0,0:0:0:0:
448,192,31916,1,0,0:0:0:0:
320,192,31958,1,0,0:0:0:0:
64,192,31999,1,0,0:0:0:0:
192,192,31999,1,0,0:0:0:0:
192,192,32124,1,0,0:0:0:0:
448,192,32249,1,0,0:0:0:0:
320,192,32249,1,0,0:0:0:0:
64,192,32333,1,0,0:0:0:0:
192,192,32416,1,0,0:0:0:0:
448,192,32499,1,0,0:0:0:0:
64,192,32499,1,0,0:0:0:0:
320,192,32583,1,0,0:0:0:0:
64,192,32666,1,0,0:0:0:0:
448,192,32666,1,0,0:0:0:0:
320,192,32749,1,0,0:0:0:0:
64,192,32833,1,0,0:0:0:0:
448,192,32833,1,0,0:0:0:0:
192,192,32916,1,0,0:0:0:0:
320,192,32999,1,0,0:0:0:0:
448,192,32999,1,0,0:0:0:0:
192,192,33166,1,0,0:0:0:0:
320,192,33166,1,0,0:0:0:0:
448,192,33249,1,0,0:0:0:0:
64,192,33249,1,0,0:0:0:0:
192,192,33333,1,0,0:0:0:0:
320,192,33333,1,0,0:0:0:0:
320,192,33416,1,0,0:0:0:0:
192,192,33499,1,0,0:0:0:0:
192,192,33583,1,0,0:0:0:0:
64,192,33666,1,0,0:0:0:0:
448,192,33666,1,0,0:0:0:0:
192,192,33833,1,0,0:0:0:0:
320,192,33916,1,0,0:0:0:0:
448,192,33916,1,0,0:0:0:0:
64,192,33999,1,0,0:0:0:0:
192,192,33999,1,0,0:0:0:0:
64,192,34083,1,0,0:0:0:0:
320,192,34166,1,0,0:0:0:0:
448,192,34166,1,0,0:0:0:0:
448,192,34249,1,0,0:0:0:0:
64,192,34333,1,0,0:0:0:0:
192,192,34333,1,0,0:0:0:0:
320,192,34374,1,0,0:0:0:0:
448,192,34416,1,0,0:0:0:0:
64,192,34416,1,0,0:0:0:0:
192,192,34458,1,0,0:0:0:0:
320,192,34499,1,0,0:0:0:0:
448,192,34499,1,0,0:0:0:0:
64,192,34583,1,0,0:0:0:0:
448,192,34666,1,0,0:0:0:0:
320,192,34666,1,0,0:0:0:0:
64,192,34833,1,0,0:0:0:0:
320,192,34833,1,0,0:0:0:0:
192,192,34916,1,0,0:0:0:0:
320,192,34999,1,0,0:0:0:0:
448,192,34999,1,0,0:0:0:0:
64,192,35083,1,0,0:0:0:0:
192,192,35083,1,0,0:0:0:0:
192,192,35166,1,0,0:0:0:0:
64,192,35166,1,0,0:0:0:0:
320,192,35249,1,0,0:0:0:0:
448,192,35249,1,0,0:0:0:0:
320,192,35333,1,0,0:0:0:0:
448,192,35333,1,0,0:0:0:0:
192,192,35437,1,0,0:0:0:0:
64,192,35437,1,0,0:0:0:0:
192,192,35541,1,0,0:0:0:0:
64,192,35541,1,0,0:0:0:0:
320,192,35666,1,0,0:0:0:0:
448,192,35666,1,0,0:0:0:0:
192,192,35749,1,0,0:0:0:0:
64,192,35749,1,0,0:0:0:0:
448,192,35833,1,0,0:0:0:0:
320,192,35874,1,0,0:0:0:0:
192,192,35916,1,0,0:0:0:0:
64,192,35937,1,0,0:0:0:0:
448,192,35958,1,0,0:0:0:0:
320,192,35979,1,0,0:0:0:0:
192,192,35999,128,0,36083:0:0:0:0:
64,192,36166,128,0,36249:0:0:0:0:
192,192,36249,1,0,0:0:0:0:
448,192,36333,1,0,0:0:0:0:
320,192,36333,1,0,0:0:0:0:
192,192,36374,1,0,0:0:0:0:
64,192,36416,1,0,0:0:0:0:
320,192,36458,1,0,0:0:0:0:
192,192,36499,1,0,0:0:0:0:
448,192,36541,1,0,0:0:0:0:
320,192,36583,1,0,0:0:0:0:
192,192,36624,1,0,0:0:0:0:
64,192,36666,1,0,0:0:0:0:
448,192,36666,1,0,0:0:0:0:
320,192,36749,1,0,0:0:0:0:
192,192,36749,1,0,0:0:0:0:
448,192,36833,1,0,0:0:0:0:
64,192,36833,1,0,0:0:0:0:
320,192,36916,1,0,0:0:0:0:
192,192,36916,1,0,0:0:0:0:
64,192,36999,1,0,0:0:0:0:
448,192,36999,1,0,0:0:0:0:
320,192,37083,1,0,0:0:0:0:
64,192,37166,1,0,0:0:0:0:
192,192,37166,1,0,0:0:0:0:
192,192,37249,1,0,0:0:0:0:
64,192,37249,1,0,0:0:0:0:
320,192,37333,1,0,0:0:0:0:
448,192,37333,1,0,0:0:0:0:
64,192,37416,1,0,0:0:0:0:
320,192,37499,1,0,0:0:0:0:
448,192,37499,1,0,0:0:0:0:
192,192,37583,1,0,0:0:0:0:
64,192,37666,1,0,0:0:0:0:
448,192,37666,1,0,0:0:0:0:
192,192,37833,1,0,0:0:0:0:
320,192,37833,1,0,0:0:0:0:
64,192,37999,1,0,0:0:0:0:
192,192,37999,1,0,0:0:0:0:
320,192,38083,1,0,0:0:0:0:
192,192,38166,1,0,0:0:0:0:
320,192,38249,1,0,0:0:0:0:
64,192,38333,1,0,0:0:0:0:
448,192,38333,1,0,0:0:0:0:
192,192,38416,1,0,0:0:0:0:
320,192,38499,1,0,0:0:0:0:
448,192,38499,1,0,0:0:0:0:
64,192,38583,1,0,0:0:0:0:
192,192,38583,1,0,0:0:0:0:
320,192,38666,1,0,0:0:0:0:
448,192,38666,1,0,0:0:0:0:
192,192,38749,1,0,0:0:0:0:
320,192,38833,1,0,0:0:0:0:
192,192,38916,1,0,0:0:0:0:
320,192,38999,1,0,0:0:0:0:
192,192,39055,1,0,0:0:0:0:
448,192,39111,1,0,0:0:0:0:
320,192,39166,1,0,0:0:0:0:
64,192,39222,1,0,0:0:0:0:
192,192,39277,1,0,0:0:0:0:
320,192,39333,1,0,0:0:0:0:
448,192,39333,1,0,0:0:0:0:
64,192,39374,1,0,0:0:0:0:
192,192,39416,1,0,0:0:0:0:
448,192,39458,1,0,0:0:0:0:
320,192,39499,1,0,0:0:0:0:
192,192,39541,1,0,0:0:0:0:
448,192,39583,1,0,0:0:0:0:
64,192,39624,1,0,0:0:0:0:
320,192,39666,1,0,0:0:0:0:
192,192,39708,1,0,0:0:0:0:
448,192,39749,1,0,0:0:0:0:
320,192,39791,1,0,0:0:0:0:
64,192,39833,1,0,0:0:0:0:
192,192,39874,1,0,0:0:0:0:
320,192,39916,1,0,0:0:0:0:
448,192,39958,1,0,0:0:0:0:
64,192,39999,1,0,0:0:0:0:
192,192,39999,1,0,0:0:0:0:
320,192,40166,1,0,0:0:0:0:
64,192,40333,1,0,0:0:0:0:
192,192,40333,1,0,0:0:0:0:
320,192,40499,1,0,0:0:0:0:
320,192,40583,1,0,0:0:0:0:
192,192,40666,1,0,0:0:0:0:
64,192,40666,1,0,0:0:0:0:
448,192,40749,1,0,0:0:0:0:
320,192,40833,1,0,0:0:0:0:
320,192,40916,1,0,0:0:0:0:
64,192,40999,1,0,0:0:0:0:
192,192,40999,1,0,0:0:0:0:
448,192,41083,1,0,0:0:0:0:
320,192,41166,1,0,0:0:0:0:
320,192,41249,1,0,0:0:0:0:
64,192,41333,1,0,0:0:0:0:
192,192,41333,1,0,0:0:0:0:
64,192,41499,1,0,0:0:0:0:
192,192,41499,1,0,0:0:0:0:
320,192,41666,1,0,0:0:0:0:
448,192,41666,1,0,0:0:0:0:
64,192,41833,1,0,0:0:0:0:
192,192,41916,1,0,0:0:0:0:
64,192,41999,1,0,0:0:0:0:
448,192,41999,1,0,0:0:0:0:
192,192,42083,1,0,0:0:0:0:
64,192,42166,1,0,0:0:0:0:
320,192,42166,1,0,0:0:0:0:
192,192,42249,1,0,0:0:0:0:
320,192,42333,1,0,0:0:0:0:
448,192,42333,1,0,0:0:0:0:
192,192,42499,1,0,0:0:0:0:
320,192,42541,1,0,0:0:0:0:
64,192,42583,1,0,0:0:0:0:
192,192,42624,1,0,0:0:0:0:
320,192,42666,1,0,0:0:0:0:
448,192,42666,1,0,0:0:0:0:
448,192,42833,1,0,0:0:0:0:
448,192,42999,1,0,0:0:0:0:
448,192,43166,1,0,0:0:0:0:
448,192,43333,1,0,0:0:0:0:
448,192,43499,1,0,0:0:0:0:
448,192,43666,1,0,0:0:0:0:
192,192,43666,1,0,0:0:0:0:
448,192,43833,1,0,0:0:0:0:
320,192,43999,1,0,0:0:0:0:
448,192,43999,1,0,0:0:0:0:
64,192,43999,1,0,0:0:0:0:
448,192,44166,1,0,0:0:0:0:
448,192,44333,1,0,0:0:0:0:
448,192,44499,1,0,0:0:0:0:
448,192,44666,1,0,0:0:0:0:
448,192,44833,1,0,0:0:0:0:
192,192,44833,1,0,0:0:0:0:
448,192,44999,1,0,0:0:0:0:
448,192,45166,1,0,0:0:0:0:
192,192,45166,1,0,0:0:0:0:
64,192,45249,1,0,0:0:0:0:
448,192,45333,1,0,0:0:0:0:
192,192,45333,1,0,0:0:0:0:
320,192,45333,1,0,0:0:0:0:
448,192,45499,1,0,0:0:0:0:
448,192,45666,1,0,0:0:0:0:
448,192,45833,1,0,0:0:0:0:
448,192,45999,1,0,0:0:0:0:
448,192,46166,1,0,0:0:0:0:
448,192,46333,1,0,0:0:0:0:
448,192,46499,1,0,0:0:0:0:
448,192,46666,1,0,0:0:0:0:
448,192,46833,1,0,0:0:0:0:
448,192,46999,1,0,0:0:0:0:
448,192,47166,1,0,0:0:0:0:
448,192,47333,1,0,0:0:0:0:
320,192,47416,1,0,0:0:0:0:
448,192,47499,1,0,0:0:0:0:
320,192,47583,1,0,0:0:0:0:
64,192,47666,1,0,0:0:0:0:
192,192,47708,1,0,0:0:0:0:
320,192,47749,1,0,0:0:0:0:
448,192,47791,1,0,0:0:0:0:
64,192,47833,1,0,0:0:0:0:
192,192,47874,1,0,0:0:0:0:
320,192,47916,1,0,0:0:0:0:
448,192,47916,1,0,0:0:0:0:
64,192,47958,1,0,0:0:0:0:
320,192,47999,1,0,0:0:0:0:
448,192,47999,1,0,0:0:0:0:
64,192,48166,1,0,0:0:0:0:
192,192,48249,1,0,0:0:0:0:
448,192,48333,1,0,0:0:0:0:
320,192,48333,1,0,0:0:0:0:
192,192,48416,1,0,0:0:0:0:
320,192,48499,1,0,0:0:0:0:
64,192,48499,1,0,0:0:0:0:
64,192,48666,1,0,0:0:0:0:
320,192,48666,1,0,0:0:0:0:
192,192,48833,1,0,0:0:0:0:
192,192,48916,1,0,0:0:0:0:
320,192,48999,1,0,0:0:0:0:
448,192,48999,1,0,0:0:0:0:
192,192,49083,1,0,0:0:0:0:
64,192,49083,1,0,0:0:0:0:
448,192,49166,1,0,0:0:0:0:
320,192,49208,1,0,0:0:0:0:
192,192,49249,1,0,0:0:0:0:
320,192,49291,1,0,0:0:0:0:
448,192,49333,1,0,0:0:0:0:
64,192,49333,1,0,0:0:0:0:
192,192,49416,1,0,0:0:0:0:
64,192,49499,1,0,0:0:0:0:
448,192,49499,1,0,0:0:0:0:
192,192,49583,1,0,0:0:0:0:
320,192,49666,1,0,0:0:0:0:
448,192,49666,1,0,0:0:0:0:
192,192,49833,1,0,0:0:0:0:
320,192,49833,1,0,0:0:0:0:
64,192,49916,1,0,0:0:0:0:
448,192,49999,1,0,0:0:0:0:
320,192,50083,1,0,0:0:0:0:
192,192,50166,1,0,0:0:0:0:
64,192,50166,1,0,0:0:0:0:
448,192,50333,1,0,0:0:0:0:
192,192,50333,1,0,0:0:0:0:
64,192,50666,1,0,0:0:0:0:
320,192,50666,1,0,0:0:0:0:
448,192,50749,1,0,0:0:0:0:
192,192,50833,1,0,0:0:0:0:
64,192,50833,1,0,0:0:0:0:
320,192,50916,1,0,0:0:0:0:
192,192,50999,1,0,0:0:0:0:
448,192,50999,1,0,0:0:0:0:
320,192,51083,1,0,0:0:0:0:
64,192,51166,1,0,0:0:0:0:
192,192,51166,1,0,0:0:0:0:
320,192,51249,1,0,0:0:0:0:
448,192,51249,1,0,0:0:0:0:
64,192,51333,1,0,0:0:0:0:
192,192,51333,1,0,0:0:0:0:
320,192,51416,1,0,0:0:0:0:
320,192,51499,1,0,0:0:0:0:
64,192,51583,1,0,0:0:0:0:
320,192,51666,1,0,0:0:0:0:
448,192,51666,1,0,0:0:0:0:
64,192,51749,1,0,0:0:0:0:
192,192,51749,1,0,0:0:0:0:
320,192,51833,1,0,0:0:0:0:
448,192,51874,1,0,0:0:0:0:
192,192,51916,1,0,0:0:0:0:
320,192,51958,1,0,0:0:0:0:
448,192,51999,1,0,0:0:0:0:
64,192,51999,1,0,0:0:0:0:
192,192,52083,1,0,0:0:0:0:
448,192,52166,1,0,0:0:0:0:
64,192,52166,1,0,0:0:0:0:
192,192,52249,1,0,0:0:0:0:
320,192,52333,1,0,0:0:0:0:
448,192,52333,1,0,0:0:0:0:
64,192,52499,1,0,0:0:0:0:
192,192,52499,1,0,0:0:0:0:
448,192,52666,128,0,52833:0:0:0:0:
192,192,52833,1,0,0:0:0:0:
320,192,52874,1,0,0:0:0:0:
192,192,52916,1,0,0:0:0:0:
320,192,52958,1,0,0:0:0:0:
448,192,52999,1,0,0:0:0:0:
64,192,52999,1,0,0:0:0:0:
192,192,53083,1,0,0:0:0:0:
320,192,53083,1,0,0:0:0:0:
448,192,53166,1,0,0:0:0:0:
448,192,53249,1,0,0:0:0:0:
64,192,53333,1,0,0:0:0:0:
192,192,53333,1,0,0:0:0:0:
320,192,53416,1,0,0:0:0:0:
448,192,53437,1,0,0:0:0:0:
64,192,53499,1,0,0:0:0:0:
192,192,53499,1,0,0:0:0:0:
320,192,53583,1,0,0:0:0:0:
448,192,53666,1,0,0:0:0:0:
64,192,53666,1,0,0:0:0:0:
192,192,53749,1,0,0:0:0:0:
320,192,53833,128,0,53916:0:0:0:0:
448,192,53833,128,0,53916:0:0:0:0:
64,192,53916,1,0,0:0:0:0:
320,192,53999,1,0,0:0:0:0:
448,192,53999,1,0,0:0:0:0:
192,192,54166,1,0,0:0:0:0:
64,192,54249,1,0,0:0:0:0:
320,192,54333,128,0,54416:0:0:0:0:
448,192,54333,128,0,54416:0:0:0:0:
64,192,54416,1,0,0:0:0:0:
192,192,54499,1,0,0:0:0:0:
448,192,54541,1,0,0:0:0:0:
320,192,54583,1,0,0:0:0:0:
192,192,54624,1,0,0:0:0:0:
64,192,54666,128,0,54749:0:0:0:0:
64,192,54833,128,0,54916:0:0:0:0:
320,192,54999,128,0,55083:0:0:0:0:
448,192,54999,128,0,55083:0:0:0:0:
320,192,55166,1,0,0:0:0:0:
448,192,55166,1,0,0:0:0:0:
64,192,55208,1,0,0:0:0:0:
192,192,55249,1,0,0:0:0:0:
320,192,55291,1,0,0:0:0:0:
448,192,55333,1,0,0:0:0:0:
64,192,55333,1,0,0:0:0:0:
192,192,55416,1,0,0:0:0:0:
320,192,55416,1,0,0:0:0:0:
448,192,55499,1,0,0:0:0:0:
64,192,55499,128,0,55666:0:0:0:0:
320,192,55583,1,0,0:0:0:0:
192,192,55666,1,0,0:0:0:0:
448,192,55666,128,0,55749:0:0:0:0:
192,192,55749,1,0,0:0:0:0:
320,192,55833,1,0,0:0:0:0:
64,192,55833,1,0,0:0:0:0:
448,192,55916,1,0,0:0:0:0:
64,192,55999,1,0,0:0:0:0:
192,192,55999,1,0,0:0:0:0:
448,192,56083,1,0,0:0:0:0:
64,192,56166,1,0,0:0:0:0:
192,192,56166,1,0,0:0:0:0:
320,192,56249,1,0,0:0:0:0:
320,192,56333,1,0,0:0:0:0:
448,192,56333,1,0,0:0:0:0:
192,192,56416,1,0,0:0:0:0:
64,192,56416,1,0,0:0:0:0:
448,192,56499,1,0,0:0:0:0:
320,192,56499,1,0,0:0:0:0:
320,192,56583,1,0,0:0:0:0:
448,192,56583,1,0,0:0:0:0:
64,192,56666,1,0,0:0:0:0:
192,192,56666,1,0,0:0:0:0:
448,192,56749,1,0,0:0:0:0:
320,192,56833,1,0,0:0:0:0:
192,192,56916,1,0,0:0:0:0:
448,192,56999,1,0,0:0:0:0:
64,192,56999,1,0,0:0:0:0:
192,192,57083,1,0,0:0:0:0:
320,192,57166,1,0,0:0:0:0:
448,192,57166,1,0,0:0:0:0:
192,192,57333,1,0,0:0:0:0:
320,192,57333,1,0,0:0:0:0:
64,192,57416,128,0,57499:0:0:0:0:
192,192,57499,1,0,0:0:0:0:
320,192,57499,1,0,0:0:0:0:
64,192,57583,128,0,57666:0:0:0:0:
448,192,57666,1,0,0:0:0:0:
320,192,57666,1,0,0:0:0:0:
64,192,57833,1,0,0:0:0:0:
320,192,57833,1,0,0:0:0:0:
448,192,57916,1,0,0:0:0:0:
64,192,57999,1,0,0:0:0:0:
192,192,57999,1,0,0:0:0:0:
192,192,58083,1,0,0:0:0:0:
320,192,58083,1,0,0:0:0:0:
448,192,58166,1,0,0:0:0:0:
320,192,58166,1,0,0:0:0:0:
192,192,58249,1,0,0:0:0:0:
64,192,58249,1,0,0:0:0:0:
448,192,58333,1,0,0:0:0:0:
320,192,58333,1,0,0:0:0:0:
192,192,58416,1,0,0:0:0:0:
64,192,58416,1,0,0:0:0:0:
320,192,58499,1,0,0:0:0:0:
448,192,58499,1,0,0:0:0:0:
192,192,58541,1,0,0:0:0:0:
64,192,58583,1,0,0:0:0:0:
448,192,58583,1,0,0:0:0:0:
320,192,58624,1,0,0:0:0:0:
192,192,58666,1,0,0:0:0:0:
64,192,58666,1,0,0:0:0:0:
192,192,58833,1,0,0:0:0:0:
320,192,58916,1,0,0:0:0:0:
448,192,58999,1,0,0:0:0:0:
64,192,58999,1,0,0:0:0:0:
192,192,58999,1,0,0:0:0:0:
320,192,59083,1,0,0:0:0:0:
192,192,59166,1,0,0:0:0:0:
64,192,59166,1,0,0:0:0:0:
448,192,59333,1,0,0:0:0:0:
320,192,59333,1,0,0:0:0:0:
320,192,59416,1,0,0:0:0:0:
192,192,59499,1,0,0:0:0:0:
192,192,59583,1,0,0:0:0:0:
64,192,59666,1,0,0:0:0:0:
448,192,59666,1,0,0:0:0:0:
320,192,59833,1,0,0:0:0:0:
320,192,59916,1,0,0:0:0:0:
64,192,59999,1,0,0:0:0:0:
192,192,59999,1,0,0:0:0:0:
448,192,60083,1,0,0:0:0:0:
320,192,60166,1,0,0:0:0:0:
320,192,60249,1,0,0:0:0:0:
192,192,60333,1,0,0:0:0:0:
64,192,60333,1,0,0:0:0:0:
448,192,60416,1,0,0:0:0:0:
320,192,60499,1,0,0:0:0:0:
320,192,60583,1,0,0:0:0:0:
192,192,60666,1,0,0:0:0:0:
448,192,60666,1,0,0:0:0:0:
64,192,60666,1,0,0:0:0:0:
192,192,60833,1,0,0:0:0:0:
448,192,60833,1,0,0:0:0:0:
192,192,60916,1,0,0:0:0:0:
320,192,60999,1,0,0:0:0:0:
192,192,61083,1,0,0:0:0:0:
64,192,61083,1,0,0:0:0:0:
320,192,61166,1,0,0:0:0:0:
448,192,61166,1,0,0:0:0:0:
64,192,61166,1,0,0:0:0:0:
192,192,61333,1,0,0:0:0:0:
448,192,61333,1,0,0:0:0:0:
192,192,61499,1,0,0:0:0:0:
320,192,61583,1,0,0:0:0:0:
448,192,61666,1,0,0:0:0:0:
64,192,61666,1,0,0:0:0:0:
192,192,61666,1,0,0:0:0:0:
320,192,61833,1,0,0:0:0:0:
448,192,61916,128,0,61999:0:0:0:0:
64,192,61999,1,0,0:0:0:0:
192,192,61999,1,0,0:0:0:0:
320,192,62083,1,0,0:0:0:0:
192,192,62166,1,0,0:0:0:0:
64,192,62166,1,0,0:0:0:0:
192,192,62249,1,0,0:0:0:0:
320,192,62249,1,0,0:0:0:0:
64,192,62333,1,0,0:0:0:0:
320,192,62333,1,0,0:0:0:0:
448,192,62333,1,0,0:0:0:0:
192,192,62416,1,0,0:0:0:0:
320,192,62499,1,0,0:0:0:0:
192,192,62583,1,0,0:0:0:0:
320,192,62666,1,0,0:0:0:0:
448,192,62666,1,0,0:0:0:0:
192,192,62749,1,0,0:0:0:0:
320,192,62833,1,0,0:0:0:0:
192,192,62916,1,0,0:0:0:0:
320,192,62999,1,0,0:0:0:0:
448,192,62999,1,0,0:0:0:0:
64,192,62999,1,0,0:0:0:0:
192,192,63041,1,0,0:0:0:0:
320,192,63083,1,0,0:0:0:0:
64,192,63166,1,0,0:0:0:0:
192,192,63166,1,0,0:0:0:0:
448,192,63249,1,0,0:0:0:0:
192,192,63333,1,0,0:0:0:0:
320,192,63333,1,0,0:0:0:0:
192,192,63499,1,0,0:0:0:0:
64,192,63499,1,0,0:0:0:0:
192,192,63583,1,0,0:0:0:0:
64,192,63583,1,0,0:0:0:0:
448,192,63666,1,0,0:0:0:0:
320,192,63666,1,0,0:0:0:0:
64,192,63833,1,0,0:0:0:0:
192,192,63874,1,0,0:0:0:0:
448,192,63916,1,0,0:0:0:0:
320,192,63958,1,0,0:0:0:0:
64,192,63999,1,0,0:0:0:0:
192,192,63999,1,0,0:0:0:0:
320,192,64083,1,0,0:0:0:0:
64,192,64166,1,0,0:0:0:0:
192,192,64166,1,0,0:0:0:0:
320,192,64249,1,0,0:0:0:0:
320,192,64333,1,0,0:0:0:0:
448,192,64333,1,0,0:0:0:0:
192,192,64416,1,0,0:0:0:0:
64,192,64416,1,0,0:0:0:0:
64,192,64499,1,0,0:0:0:0:
192,192,64499,1,0,0:0:0:0:
448,192,64583,1,0,0:0:0:0:
64,192,64666,1,0,0:0:0:0:
320,192,64666,1,0,0:0:0:0:
192,192,64749,1,0,0:0:0:0:
64,192,64833,1,0,0:0:0:0:
320,192,64833,1,0,0:0:0:0:
192,192,64916,1,0,0:0:0:0:
320,192,64999,1,0,0:0:0:0:
64,192,64999,1,0,0:0:0:0:
448,192,64999,1,0,0:0:0:0:
192,192,65166,1,0,0:0:0:0:
64,192,65333,1,0,0:0:0:0:
192,192,65333,1,0,0:0:0:0:
448,192,65333,1,0,0:0:0:0:
64,192,66666,1,0,0:0:0:0:
192,192,66666,1,0,0:0:0:0:
448,192,66666,1,0,0:0:0:0:
320,192,66749,1,0,0:0:0:0:
192,192,66833,1,0,0:0:0:0:
320,192,66916,1,0,0:0:0:0:
192,192,66999,1,0,0:0:0:0:
64,192,66999,1,0,0:0:0:0:
320,192,67083,1,0,0:0:0:0:
192,192,67166,1,0,0:0:0:0:
320,192,67249,1,0,0:0:0:0:
448,192,67333,1,0,0:0:0:0:
192,192,67333,1,0,0:0:0:0:
320,192,67416,1,0,0:0:0:0:
192,192,67499,1,0,0:0:0:0:
320,192,67583,1,0,0:0:0:0:
64,192,67666,1,0,0:0:0:0:
448,192,67666,1,0,0:0:0:0:
192,192,67666,1,0,0:0:0:0:
448,192,67833,1,0,0:0:0:0:
320,192,67874,1,0,0:0:0:0:
64,192,67916,1,0,0:0:0:0:
192,192,67958,1,0,0:0:0:0:
320,192,67999,1,0,0:0:0:0:
448,192,67999,1,0,0:0:0:0:
192,192,68083,1,0,0:0:0:0:
320,192,68166,1,0,0:0:0:0:
192,192,68249,1,0,0:0:0:0:
320,192,68333,1,0,0:0:0:0:
448,192,68333,1,0,0:0:0:0:
192,192,68416,1,0,0:0:0:0:
320,192,68499,1,0,0:0:0:0:
192,192,68583,1,0,0:0:0:0:
64,192,68583,1,0,0:0:0:0:
64,192,68666,1,0,0:0:0:0:
192,192,68666,1,0,0:0:0:0:
320,192,68749,1,0,0:0:0:0:
192,192,68833,1,0,0:0:0:0:
320,192,68916,1,0,0:0:0:0:
64,192,68916,1,0,0:0:0:0:
448,192,68999,1,0,0:0:0:0:
320,192,68999,1,0,0:0:0:0:
192,192,69083,1,0,0:0:0:0:
64,192,69166,1,0,0:0:0:0:
320,192,69166,1,0,0:0:0:0:
64,192,69333,1,0,0:0:0:0:
448,192,69333,1,0,0:0:0:0:
192,192,69416,1,0,0:0:0:0:
320,192,69499,1,0,0:0:0:0:
320,192,69583,1,0,0:0:0:0:
64,192,69666,1,0,0:0:0:0:
448,192,69666,1,0,0:0:0:0:
320,192,69749,1,0,0:0:0:0:
192,192,69833,1,0,0:0:0:0:
192,192,69916,1,0,0:0:0:0:
64,192,69999,1,0,0:0:0:0:
448,192,69999,1,0,0:0:0:0:
192,192,70083,1,0,0:0:0:0:
320,192,70166,1,0,0:0:0:0:
192,192,70249,1,0,0:0:0:0:
320,192,70249,1,0,0:0:0:0:
64,192,70333,1,0,0:0:0:0:
448,192,70333,1,0,0:0:0:0:
192,192,70499,1,0,0:0:0:0:
320,192,70541,1,0,0:0:0:0:
64,192,70583,1,0,0:0:0:0:
192,192,70624,1,0,0:0:0:0:
320,192,70666,1,0,0:0:0:0:
448,192,70666,1,0,0:0:0:0:
64,192,70749,1,0,0:0:0:0:
192,192,70833,1,0,0:0:0:0:
64,192,70916,1,0,0:0:0:0:
320,192,70999,1,0,0:0:0:0:
448,192,70999,1,0,0:0:0:0:
192,192,71083,1,0,0:0:0:0:
448,192,71166,1,0,0:0:0:0:
320,192,71166,1,0,0:0:0:0:
64,192,71249,1,0,0:0:0:0:
192,192,71249,1,0,0:0:0:0:
192,192,71333,1,0,0:0:0:0:
64,192,71333,1,0,0:0:0:0:
448,192,71416,1,0,0:0:0:0:
320,192,71416,1,0,0:0:0:0:
192,192,71499,1,0,0:0:0:0:
64,192,71583,1,0,0:0:0:0:
320,192,71583,1,0,0:0:0:0:
448,192,71666,1,0,0:0:0:0:
192,192,71666,1,0,0:0:0:0:
320,192,71833,1,0,0:0:0:0:
64,192,71833,1,0,0:0:0:0:
320,192,71999,1,0,0:0:0:0:
64,192,71999,1,0,0:0:0:0:
192,192,72166,1,0,0:0:0:0:
64,192,72249,1,0,0:0:0:0:
320,192,72333,1,0,0:0:0:0:
448,192,72333,1,0,0:0:0:0:
320,192,72499,1,0,0:0:0:0:
320,192,72583,1,0,0:0:0:0:
64,192,72666,1,0,0:0:0:0:
448,192,72666,1,0,0:0:0:0:
320,192,72833,1,0,0:0:0:0:
448,192,72916,1,0,0:0:0:0:
192,192,72999,1,0,0:0:0:0:
64,192,72999,1,0,0:0:0:0:
192,192,73166,1,0,0:0:0:0:
192,192,73249,1,0,0:0:0:0:
64,192,73333,1,0,0:0:0:0:
448,192,73333,1,0,0:0:0:0:
320,192,73416,1,0,0:0:0:0:
192,192,73416,1,0,0:0:0:0:
448,192,73499,1,0,0:0:0:0:
192,192,73583,1,0,0:0:0:0:
320,192,73666,1,0,0:0:0:0:
448,192,73666,1,0,0:0:0:0:
64,192,73833,1,0,0:0:0:0:
192,192,73833,1,0,0:0:0:0:
320,192,73916,1,0,0:0:0:0:
192,192,73999,1,0,0:0:0:0:
64,192,73999,1,0,0:0:0:0:
320,192,74083,1,0,0:0:0:0:
448,192,74166,1,0,0:0:0:0:
192,192,74249,1,0,0:0:0:0:
64,192,74249,1,0,0:0:0:0:
320,192,74333,1,0,0:0:0:0:
448,192,74333,1,0,0:0:0:0:
64,192,74499,1,0,0:0:0:0:
192,192,74499,1,0,0:0:0:0:
64,192,74666,1,0,0:0:0:0:
192,192,74666,1,0,0:0:0:0:
320,192,74833,1,0,0:0:0:0:
64,192,74999,1,0,0:0:0:0:
192,192,74999,1,0,0:0:0:0:
320,192,75166,1,0,0:0:0:0:
192,192,75333,1,0,0:0:0:0:
64,192,75333,1,0,0:0:0:0:
320,192,75499,1,0,0:0:0:0:
192,192,75666,1,0,0:0:0:0:
64,192,75666,1,0,0:0:0:0:
320,192,75708,1,0,0:0:0:0:
448,192,75749,1,0,0:0:0:0:
192,192,75791,1,0,0:0:0:0:
320,192,75833,1,0,0:0:0:0:
64,192,75874,1,0,0:0:0:0:
192,192,75916,1,0,0:0:0:0:
320,192,75958,1,0,0:0:0:0:
448,192,75999,1,0,0:0:0:0:
64,192,75999,128,0,76249:0:0:0:0:
192,192,76249,128,0,76499:0:0:0:0:
320,192,76249,1,0,0:0:0:0:
448,192,76249,1,0,0:0:0:0:
64,192,76333,1,0,0:0:0:0:
320,192,76499,128,0,76749:0:0:0:0:
448,192,76499,1,0,0:0:0:0:
64,192,76499,1,0,0:0:0:0:
448,192,76749,128,0,76999:0:0:0:0:
192,192,76749,1,0,0:0:0:0:
64,192,76749,1,0,0:0:0:0:
64,192,76999,128,0,77249:0:0:0:0:
192,192,76999,1,0,0:0:0:0:
320,192,76999,1,0,0:0:0:0:
192,192,77249,128,0,77499:0:0:0:0:
320,192,77249,1,0,0:0:0:0:
448,192,77249,1,0,0:0:0:0:
320,192,77499,128,0,77749:0:0:0:0:
64,192,77499,1,0,0:0:0:0:
448,192,77499,1,0,0:0:0:0:
192,192,77749,128,0,77999:0:0:0:0:
64,192,77749,1,0,0:0:0:0:
448,192,77749,1,0,0:0:0:0:
320,192,77888,1,0,0:0:0:0:
64,192,77999,128,0,78249:0:0:0:0:
320,192,77999,1,0,0:0:0:0:
448,192,77999,1,0,0:0:0:0:
448,192,78249,128,0,78499:0:0:0:0:
192,192,78249,1,0,0:0:0:0:
320,192,78249,1,0,0:0:0:0:
64,192,78388,1,0,0:0:0:0:
320,192,78499,128,0,78749:0:0:0:0:
64,192,78499,1,0,0:0:0:0:
192,192,78499,1,0,0:0:0:0:
448,192,78611,1,0,0:0:0:0:
192,192,78749,128,0,78999:0:0:0:0:
64,192,78749,128,0,78999:0:0:0:0:
448,192,78749,1,0,0:0:0:0:
320,192,78999,1,0,0:0:0:0:
448,192,78999,1,0,0:0:0:0:
192,192,79166,1,0,0:0:0:0:
64,192,79166,1,0,0:0:0:0:
64,192,79333,1,0,0:0:0:0:
192,192,79333,1,0,0:0:0:0:
320,192,79416,1,0,0:0:0:0:
192,192,79499,1,0,0:0:0:0:
320,192,79583,1,0,0:0:0:0:
448,192,79666,1,0,0:0:0:0:
64,192,79666,1,0,0:0:0:0:
192,192,79833,1,0,0:0:0:0:
320,192,79833,1,0,0:0:0:0:
192,192,79916,1,0,0:0:0:0:
320,192,79999,1,0,0:0:0:0:
64,192,79999,1,0,0:0:0:0:
64,192,80166,1,0,0:0:0:0:
320,192,80166,1,0,0:0:0:0:
320,192,80333,1,0,0:0:0:0:
448,192,80333,1,0,0:0:0:0:
192,192,80416,1,0,0:0:0:0:
64,192,80499,1,0,0:0:0:0:
320,192,80583,1,0,0:0:0:0:
192,192,80666,1,0,0:0:0:0:
320,192,80749,1,0,0:0:0:0:
192,192,80833,1,0,0:0:0:0:
320,192,80916,1,0,0:0:0:0:
64,192,80999,1,0,0:0:0:0:
448,192,80999,1,0,0:0:0:0:
448,192,81041,1,0,0:0:0:0:
64,192,81166,1,0,0:0:0:0:
320,192,81166,1,0,0:0:0:0:
64,192,81333,1,0,0:0:0:0:
192,192,81333,1,0,0:0:0:0:
320,192,81499,1,0,0:0:0:0:
192,192,81583,1,0,0:0:0:0:
320,192,81666,1,0,0:0:0:0:
448,192,81666,1,0,0:0:0:0:
192,192,81833,1,0,0:0:0:0:
320,192,81916,1,0,0:0:0:0:
192,192,81999,1,0,0:0:0:0:
64,192,81999,1,0,0:0:0:0:
448,192,82083,1,0,0:0:0:0:
192,192,82166,1,0,0:0:0:0:
64,192,82166,1,0,0:0:0:0:
64,192,82249,1,0,0:0:0:0:
192,192,82249,1,0,0:0:0:0:
448,192,82333,1,0,0:0:0:0:
320,192,82333,1,0,0:0:0:0:
192,192,82399,1,0,0:0:0:0:
64,192,82466,1,0,0:0:0:0:
192,192,82533,1,0,0:0:0:0:
64,192,82599,1,0,0:0:0:0:
448,192,82666,1,0,0:0:0:0:
192,192,82666,1,0,0:0:0:0:
192,192,82832,1,0,0:0:0:0:
448,192,82832,1,0,0:0:0:0:
64,192,82916,1,0,0:0:0:0:
448,192,82999,1,0,0:0:0:0:
320,192,82999,1,0,0:0:0:0:
448,192,83166,1,0,0:0:0:0:
320,192,83249,1,0,0:0:0:0:
64,192,83332,1,0,0:0:0:0:
192,192,83332,1,0,0:0:0:0:
320,192,83416,1,0,0:0:0:0:
448,192,83416,1,0,0:0:0:0:
192,192,83499,1,0,0:0:0:0:
64,192,83499,1,0,0:0:0:0:
320,192,83582,1,0,0:0:0:0:
448,192,83666,1,0,0:0:0:0:
64,192,83666,1,0,0:0:0:0:
320,192,83832,1,0,0:0:0:0:
448,192,83874,1,0,0:0:0:0:
192,192,83916,1,0,0:0:0:0:
320,192,83957,1,0,0:0:0:0:
64,192,83999,1,0,0:0:0:0:
192,192,83999,1,0,0:0:0:0:
320,192,84082,1,0,0:0:0:0:
448,192,84082,1,0,0:0:0:0:
64,192,84166,1,0,0:0:0:0:
192,192,84166,1,0,0:0:0:0:
192,192,84249,1,0,0:0:0:0:
320,192,84332,1,0,0:0:0:0:
448,192,84332,1,0,0:0:0:0:
64,192,84416,1,0,0:0:0:0:
192,192,84416,1,0,0:0:0:0:
320,192,84499,1,0,0:0:0:0:
320,192,84582,1,0,0:0:0:0:
64,192,84666,1,0,0:0:0:0:
192,192,84666,1,0,0:0:0:0:
320,192,84749,1,0,0:0:0:0:
192,192,84832,1,0,0:0:0:0:
192,192,84916,1,0,0:0:0:0:
320,192,84999,1,0,0:0:0:0:
448,192,84999,1,0,0:0:0:0:
64,192,85166,1,0,0:0:0:0:
192,192,85166,1,0,0:0:0:0:
64,192,85249,1,0,0:0:0:0:
320,192,85332,1,0,0:0:0:0:
448,192,85332,1,0,0:0:0:0:
192,192,85416,1,0,0:0:0:0:
448,192,85499,1,0,0:0:0:0:
448,192,85582,1,0,0:0:0:0:
320,192,85666,1,0,0:0:0:0:
64,192,85666,1,0,0:0:0:0:
192,192,85749,1,0,0:0:0:0:
64,192,85832,1,0,0:0:0:0:
64,192,85916,1,0,0:0:0:0:
192,192,85999,1,0,0:0:0:0:
448,192,85999,1,0,0:0:0:0:
320,192,86082,1,0,0:0:0:0:
448,192,86166,1,0,0:0:0:0:
448,192,86249,1,0,0:0:0:0:
64,192,86332,1,0,0:0:0:0:
192,192,86332,1,0,0:0:0:0:
448,192,86499,1,0,0:0:0:0:
320,192,86541,1,0,0:0:0:0:
192,192,86582,1,0,0:0:0:0:
64,192,86624,1,0,0:0:0:0:
320,192,86666,1,0,0:0:0:0:
448,192,86666,1,0,0:0:0:0:
192,192,86749,1,0,0:0:0:0:
192,192,86832,1,0,0:0:0:0:
192,192,86916,1,0,0:0:0:0:
64,192,86999,1,0,0:0:0:0:
448,192,86999,1,0,0:0:0:0:
320,192,87082,1,0,0:0:0:0:
192,192,87166,1,0,0:0:0:0:
64,192,87249,1,0,0:0:0:0:
448,192,87249,1,0,0:0:0:0:
64,192,87332,1,0,0:0:0:0:
448,192,87332,1,0,0:0:0:0:
320,192,87416,1,0,0:0:0:0:
320,192,87499,1,0,0:0:0:0:
320,192,87582,1,0,0:0:0:0:
192,192,87582,1,0,0:0:0:0:
448,192,87666,1,0,0:0:0:0:
64,192,87666,1,0,0:0:0:0:
192,192,87721,1,0,0:0:0:0:
320,192,87777,1,0,0:0:0:0:
448,192,87832,1,0,0:0:0:0:
64,192,87832,1,0,0:0:0:0:
320,192,87888,1,0,0:0:0:0:
192,192,87943,1,0,0:0:0:0:
64,192,87999,1,0,0:0:0:0:
448,192,87999,1,0,0:0:0:0:
448,192,88082,1,0,0:0:0:0:
64,192,88166,1,0,0:0:0:0:
64,192,88249,1,0,0:0:0:0:
320,192,88332,1,0,0:0:0:0:
448,192,88332,1,0,0:0:0:0:
320,192,88416,1,0,0:0:0:0:
192,192,88499,1,0,0:0:0:0:
192,192,88582,1,0,0:0:0:0:
64,192,88666,1,0,0:0:0:0:
448,192,88666,1,0,0:0:0:0:
448,192,88749,1,0,0:0:0:0:
64,192,88832,1,0,0:0:0:0:
64,192,88916,1,0,0:0:0:0:
320,192,88916,1,0,0:0:0:0:
192,192,88999,1,0,0:0:0:0:
448,192,88999,1,0,0:0:0:0:
64,192,89166,1,0,0:0:0:0:
192,192,89166,1,0,0:0:0:0:
448,192,89207,1,0,0:0:0:0:
320,192,89249,1,0,0:0:0:0:
192,192,89291,1,0,0:0:0:0:
64,192,89332,1,0,0:0:0:0:
448,192,89332,1,0,0:0:0:0:
320,192,89416,1,0,0:0:0:0:
192,192,89499,1,0,0:0:0:0:
448,192,89499,1,0,0:0:0:0:
192,192,89582,1,0,0:0:0:0:
64,192,89666,1,0,0:0:0:0:
448,192,89666,128,0,89749:0:0:0:0:
192,192,89832,1,0,0:0:0:0:
448,192,89832,1,0,0:0:0:0:
320,192,89915,1,0,0:0:0:0:
64,192,89915,1,0,0:0:0:0:
64,192,89999,1,0,0:0:0:0:
320,192,89999,1,0,0:0:0:0:
192,192,90082,1,0,0:0:0:0:
448,192,90082,1,0,0:0:0:0:
320,192,90165,1,0,0:0:0:0:
192,192,90249,1,0,0:0:0:0:
64,192,90249,1,0,0:0:0:0:
448,192,90332,1,0,0:0:0:0:
320,192,90332,1,0,0:0:0:0:
192,192,90499,1,0,0:0:0:0:
64,192,90499,1,0,0:0:0:0:
320,192,90665,1,0,0:0:0:0:
448,192,90665,1,0,0:0:0:0:
64,192,90749,1,0,0:0:0:0:
192,192,90832,1,0,0:0:0:0:
320,192,90832,1,0,0:0:0:0:
320,192,90915,1,0,0:0:0:0:
448,192,90999,1,0,0:0:0:0:
64,192,90999,1,0,0:0:0:0:
192,192,91082,1,0,0:0:0:0:
192,192,91165,1,0,0:0:0:0:
448,192,91165,1,0,0:0:0:0:
320,192,91249,1,0,0:0:0:0:
64,192,91332,1,0,0:0:0:0:
448,192,91332,1,0,0:0:0:0:
192,192,91415,1,0,0:0:0:0:
192,192,91499,1,0,0:0:0:0:
320,192,91499,1,0,0:0:0:0:
320,192,91582,1,0,0:0:0:0:
64,192,91582,1,0,0:0:0:0:
448,192,91665,1,0,0:0:0:0:
64,192,91665,1,0,0:0:0:0:
320,192,91749,1,0,0:0:0:0:
192,192,91832,1,0,0:0:0:0:
64,192,91832,1,0,0:0:0:0:
448,192,91915,1,0,0:0:0:0:
320,192,91957,1,0,0:0:0:0:
64,192,91999,1,0,0:0:0:0:
192,192,91999,1,0,0:0:0:0:
448,192,92082,1,0,0:0:0:0:
192,192,92165,1,0,0:0:0:0:
192,192,92249,1,0,0:0:0:0:
448,192,92332,1,0,0:0:0:0:
320,192,92332,1,0,0:0:0:0:
64,192,92415,1,0,0:0:0:0:
448,192,92499,1,0,0:0:0:0:
320,192,92499,1,0,0:0:0:0:
192,192,92582,1,0,0:0:0:0:
64,192,92582,1,0,0:0:0:0:
64,192,92665,1,0,0:0:0:0:
192,192,92665,1,0,0:0:0:0:
448,192,92749,1,0,0:0:0:0:
320,192,92749,1,0,0:0:0:0:
192,192,92832,1,0,0:0:0:0:
64,192,92915,1,0,0:0:0:0:
320,192,92915,1,0,0:0:0:0:
448,192,92999,128,0,93082:0:0:0:0:
192,192,92999,128,0,93082:0:0:0:0:
192,192,93165,1,0,0:0:0:0:
64,192,93332,1,0,0:0:0:0:
320,192,93332,1,0,0:0:0:0:
320,192,93415,1,0,0:0:0:0:
448,192,93415,1,0,0:0:0:0:
192,192,93499,1,0,0:0:0:0:
64,192,93582,1,0,0:0:0:0:
448,192,93665,1,0,0:0:0:0:
320,192,93665,1,0,0:0:0:0:
192,192,93749,1,0,0:0:0:0:
448,192,93832,1,0,0:0:0:0:
320,192,93915,1,0,0:0:0:0:
192,192,93999,1,0,0:0:0:0:
64,192,93999,1,0,0:0:0:0:
320,192,94082,1,0,0:0:0:0:
448,192,94082,1,0,0:0:0:0:
192,192,94165,1,0,0:0:0:0:
320,192,94249,1,0,0:0:0:0:
448,192,94249,1,0,0:0:0:0:
320,192,94332,1,0,0:0:0:0:
448,192,94332,1,0,0:0:0:0:
192,192,94499,1,0,0:0:0:0:
320,192,94499,1,0,0:0:0:0:
64,192,94540,1,0,0:0:0:0:
448,192,94582,1,0,0:0:0:0:
320,192,94624,1,0,0:0:0:0:
64,192,94665,1,0,0:0:0:0:
192,192,94665,1,0,0:0:0:0:
64,192,94832,1,0,0:0:0:0:
64,192,94999,1,0,0:0:0:0:
192,192,94999,1,0,0:0:0:0:
64,192,95165,1,0,0:0:0:0:
64,192,95332,1,0,0:0:0:0:
192,192,95332,1,0,0:0:0:0:
192,192,95499,1,0,0:0:0:0:
320,192,95520,1,0,0:0:0:0:
320,192,95665,1,0,0:0:0:0:
448,192,95665,128,0,95749:0:0:0:0:
64,192,95915,1,0,0:0:0:0:
192,192,95915,1,0,0:0:0:0:
192,192,95999,1,0,0:0:0:0:
448,192,95999,1,0,0:0:0:0:
320,192,96165,1,0,0:0:0:0:
64,192,96165,1,0,0:0:0:0:
192,192,96249,1,0,0:0:0:0:
320,192,96332,1,0,0:0:0:0:
448,192,96332,1,0,0:0:0:0:
192,192,96415,1,0,0:0:0:0:
64,192,96499,1,0,0:0:0:0:
320,192,96499,1,0,0:0:0:0:
320,192,96665,1,0,0:0:0:0:
64,192,96665,1,0,0:0:0:0:
320,192,96832,1,0,0:0:0:0:
192,192,96915,1,0,0:0:0:0:
320,192,96999,1,0,0:0:0:0:
448,192,96999,1,0,0:0:0:0:
192,192,97082,1,0,0:0:0:0:
448,192,97165,1,0,0:0:0:0:
320,192,97207,1,0,0:0:0:0:
64,192,97249,1,0,0:0:0:0:
192,192,97290,1,0,0:0:0:0:
320,192,97332,1,0,0:0:0:0:
448,192,97332,1,0,0:0:0:0:
64,192,97415,1,0,0:0:0:0:
320,192,97499,1,0,0:0:0:0:
448,192,97499,1,0,0:0:0:0:
192,192,97582,1,0,0:0:0:0:
64,192,97665,1,0,0:0:0:0:
448,192,97665,1,0,0:0:0:0:
64,192,97832,1,0,0:0:0:0:
192,192,97832,1,0,0:0:0:0:
320,192,97999,1,0,0:0:0:0:
64,192,98165,1,0,0:0:0:0:
192,192,98165,1,0,0:0:0:0:
192,192,98332,1,0,0:0:0:0:
448,192,98332,1,0,0:0:0:0:
64,192,98665,1,0,0:0:0:0:
320,192,98665,1,0,0:0:0:0:
448,192,98749,1,0,0:0:0:0:
192,192,98832,1,0,0:0:0:0:
320,192,98915,1,0,0:0:0:0:
448,192,98999,1,0,0:0:0:0:
64,192,98999,1,0,0:0:0:0:
320,192,99082,1,0,0:0:0:0:
192,192,99165,1,0,0:0:0:0:
64,192,99165,1,0,0:0:0:0:
320,192,99249,1,0,0:0:0:0:
448,192,99249,1,0,0:0:0:0:
64,192,99332,1,0,0:0:0:0:
192,192,99332,1,0,0:0:0:0:
192,192,99415,1,0,0:0:0:0:
320,192,99499,1,0,0:0:0:0:
64,192,99582,128,0,99665:0:0:0:0:
320,192,99665,1,0,0:0:0:0:
448,192,99665,1,0,0:0:0:0:
64,192,99749,1,0,0:0:0:0:
192,192,99749,1,0,0:0:0:0:
448,192,99832,1,0,0:0:0:0:
320,192,99874,1,0,0:0:0:0:
192,192,99915,1,0,0:0:0:0:
320,192,99957,1,0,0:0:0:0:
64,192,99999,1,0,0:0:0:0:
448,192,99999,1,0,0:0:0:0:
192,192,100082,1,0,0:0:0:0:
448,192,100165,1,0,0:0:0:0:
64,192,100165,1,0,0:0:0:0:
192,192,100249,1,0,0:0:0:0:
320,192,100332,1,0,0:0:0:0:
448,192,100332,1,0,0:0:0:0:
64,192,100499,1,0,0:0:0:0:
192,192,100499,1,0,0:0:0:0:
64,192,100665,1,0,0:0:0:0:
192,192,100707,1,0,0:0:0:0:
448,192,100749,1,0,0:0:0:0:
320,192,100790,1,0,0:0:0:0:
64,192,100832,1,0,0:0:0:0:
192,192,100832,1,0,0:0:0:0:
448,192,100874,1,0,0:0:0:0:
320,192,100915,1,0,0:0:0:0:
192,192,100915,1,0,0:0:0:0:
64,192,100957,1,0,0:0:0:0:
448,192,100999,1,0,0:0:0:0:
320,192,100999,1,0,0:0:0:0:
192,192,101082,1,0,0:0:0:0:
64,192,101082,1,0,0:0:0:0:
320,192,101165,1,0,0:0:0:0:
320,192,101249,1,0,0:0:0:0:
64,192,101332,1,0,0:0:0:0:
448,192,101332,1,0,0:0:0:0:
192,192,101415,128,0,101499:0:0:0:0:
192,192,101582,1,0,0:0:0:0:
320,192,101665,1,0,0:0:0:0:
448,192,101665,1,0,0:0:0:0:
64,192,101749,1,0,0:0:0:0:
320,192,101832,128,0,101915:0:0:0:0:
192,192,101915,128,0,101999:0:0:0:0:
64,192,101999,1,0,0:0:0:0:
448,192,101999,1,0,0:0:0:0:
320,192,102165,128,0,102249:0:0:0:0:
192,192,102249,128,0,102332:0:0:0:0:
448,192,102332,128,0,102415:0:0:0:0:
320,192,102415,128,0,102499:0:0:0:0:
64,192,102499,1,0,0:0:0:0:
192,192,102540,1,0,0:0:0:0:
448,192,102582,1,0,0:0:0:0:
320,192,102624,1,0,0:0:0:0:
64,192,102665,1,0,0:0:0:0:
192,192,102665,1,0,0:0:0:0:
320,192,102749,1,0,0:0:0:0:
64,192,102832,1,0,0:0:0:0:
192,192,102832,1,0,0:0:0:0:
320,192,102915,1,0,0:0:0:0:
448,192,102999,1,0,0:0:0:0:
192,192,102999,1,0,0:0:0:0:
192,192,103165,1,0,0:0:0:0:
64,192,103165,1,0,0:0:0:0:
320,192,103332,1,0,0:0:0:0:
448,192,103332,1,0,0:0:0:0:
192,192,103374,1,0,0:0:0:0:
320,192,103415,1,0,0:0:0:0:
64,192,103499,1,0,0:0:0:0:
192,192,103540,1,0,0:0:0:0:
320,192,103582,1,0,0:0:0:0:
448,192,103603,1,0,0:0:0:0:
64,192,103624,1,0,0:0:0:0:
192,192,103645,1,0,0:0:0:0:
320,192,103665,1,0,0:0:0:0:
448,192,103665,1,0,0:0:0:0:
192,192,103832,1,0,0:0:0:0:
64,192,103832,1,0,0:0:0:0:
320,192,103915,1,0,0:0:0:0:
64,192,103999,1,0,0:0:0:0:
192,192,103999,1,0,0:0:0:0:
320,192,104082,1,0,0:0:0:0:
192,192,104165,1,0,0:0:0:0:
64,192,104165,1,0,0:0:0:0:
320,192,104249,1,0,0:0:0:0:
448,192,104249,1,0,0:0:0:0:
192,192,104374,1,0,0:0:0:0:
320,192,104457,1,0,0:0:0:0:
448,192,104457,1,0,0:0:0:0:
320,192,104499,1,0,0:0:0:0:
448,192,104499,1,0,0:0:0:0:
192,192,104582,1,0,0:0:0:0:
320,192,104665,1,0,0:0:0:0:
448,192,104665,1,0,0:0:0:0:
192,192,104832,1,0,0:0:0:0:
64,192,104832,1,0,0:0:0:0:
448,192,104915,1,0,0:0:0:0:
192,192,104999,1,0,0:0:0:0:
64,192,104999,1,0,0:0:0:0:
320,192,105082,1,0,0:0:0:0:
448,192,105165,1,0,0:0:0:0:
192,192,105165,1,0,0:0:0:0:
64,192,105332,1,0,0:0:0:0:
320,192,105332,1,0,0:0:0:0:
192,192,105415,1,0,0:0:0:0:
64,192,105499,1,0,0:0:0:0:
320,192,105499,1,0,0:0:0:0:
192,192,105582,128,0,105665:0:0:0:0:
320,192,105665,1,0,0:0:0:0:
448,192,105665,1,0,0:0:0:0:
64,192,105832,1,0,0:0:0:0:
192,192,105832,1,0,0:0:0:0:
448,192,105915,1,0,0:0:0:0:
64,192,105999,1,0,0:0:0:0:
192,192,105999,1,0,0:0:0:0:
320,192,106082,1,0,0:0:0:0:
64,192,106165,1,0,0:0:0:0:
192,192,106165,1,0,0:0:0:0:
320,192,106249,1,0,0:0:0:0:
448,192,106332,1,0,0:0:0:0:
64,192,106332,1,0,0:0:0:0:
320,192,106415,1,0,0:0:0:0:
192,192,106415,1,0,0:0:0:0:
192,192,106499,1,0,0:0:0:0:
64,192,106499,1,0,0:0:0:0:
320,192,106582,1,0,0:0:0:0:
448,192,106582,1,0,0:0:0:0:
192,192,106665,1,0,0:0:0:0:
64,192,106665,1,0,0:0:0:0:
320,192,106749,1,0,0:0:0:0:
320,192,106832,1,0,0:0:0:0:
192,192,106915,1,0,0:0:0:0:
64,192,106915,1,0,0:0:0:0:
320,192,106999,1,0,0:0:0:0:
448,192,106999,1,0,0:0:0:0:
192,192,107165,1,0,0:0:0:0:
320,192,107165,1,0,0:0:0:0:
448,192,107249,1,0,0:0:0:0:
64,192,107332,1,0,0:0:0:0:
192,192,107332,1,0,0:0:0:0:
320,192,107415,1,0,0:0:0:0:
448,192,107415,1,0,0:0:0:0:
192,192,107499,1,0,0:0:0:0:
64,192,107499,1,0,0:0:0:0:
64,192,107582,1,0,0:0:0:0:
192,192,107582,1,0,0:0:0:0:
320,192,107665,1,0,0:0:0:0:
448,192,107665,1,0,0:0:0:0:
320,192,107832,1,0,0:0:0:0:
64,192,107999,1,0,0:0:0:0:
448,192,107999,1,0,0:0:0:0:
64,192,108165,1,0,0:0:0:0:
448,192,108165,1,0,0:0:0:0:
192,192,108332,1,0,0:0:0:0:
448,192,108332,1,0,0:0:0:0:
192,192,108499,1,0,0:0:0:0:
320,192,108499,1,0,0:0:0:0:
320,192,108582,1,0,0:0:0:0:
64,192,108665,1,0,0:0:0:0:
192,192,108665,1,0,0:0:0:0:
448,192,108749,1,0,0:0:0:0:
64,192,108832,1,0,0:0:0:0:
192,192,108832,1,0,0:0:0:0:
320,192,108874,1,0,0:0:0:0:
448,192,108915,1,0,0:0:0:0:
192,192,108957,1,0,0:0:0:0:
448,192,108999,1,0,0:0:0:0:
320,192,108999,1,0,0:0:0:0:
192,192,109165,1,0,0:0:0:0:
64,192,109332,1,0,0:0:0:0:
448,192,109332,1,0,0:0:0:0:
320,192,109415,1,0,0:0:0:0:
192,192,109499,1,0,0:0:0:0:
64,192,109499,1,0,0:0:0:0:
192,192,109582,1,0,0:0:0:0:
320,192,109665,1,0,0:0:0:0:
448,192,109665,1,0,0:0:0:0:
64,192,109749,1,0,0:0:0:0:
192,192,109832,1,0,0:0:0:0:
320,192,109832,1,0,0:0:0:0:
64,192,109915,1,0,0:0:0:0:
320,192,109999,1,0,0:0:0:0:
448,192,109999,1,0,0:0:0:0:
320,192,110082,1,0,0:0:0:0:
192,192,110165,1,0,0:0:0:0:
64,192,110165,1,0,0:0:0:0:
192,192,110249,1,0,0:0:0:0:
64,192,110249,1,0,0:0:0:0:
320,192,110332,1,0,0:0:0:0:
448,192,110332,1,0,0:0:0:0:
64,192,110499,1,0,0:0:0:0:
448,192,110499,1,0,0:0:0:0:
320,192,110540,1,0,0:0:0:0:
192,192,110582,1,0,0:0:0:0:
64,192,110624,1,0,0:0:0:0:
320,192,110665,1,0,0:0:0:0:
448,192,110665,1,0,0:0:0:0:
192,192,110749,1,0,0:0:0:0:
64,192,110832,1,0,0:0:0:0:
320,192,110832,1,0,0:0:0:0:
320,192,110915,1,0,0:0:0:0:
192,192,110999,1,0,0:0:0:0:
448,192,110999,1,0,0:0:0:0:
64,192,111082,1,0,0:0:0:0:
320,192,111082,1,0,0:0:0:0:
192,192,111165,1,0,0:0:0:0:
320,192,111249,1,0,0:0:0:0:
448,192,111249,1,0,0:0:0:0:
64,192,111332,1,0,0:0:0:0:
192,192,111332,1,0,0:0:0:0:
192,192,111415,1,0,0:0:0:0:
320,192,111499,1,0,0:0:0:0:
448,192,111499,1,0,0:0:0:0:
64,192,111582,1,0,0:0:0:0:
192,192,111582,1,0,0:0:0:0:
448,192,111665,1,0,0:0:0:0:
320,192,111686,1,0,0:0:0:0:
192,192,111707,1,0,0:0:0:0:
64,192,111728,1,0,0:0:0:0:
448,192,111749,1,0,0:0:0:0:
320,192,111790,1,0,0:0:0:0:
192,192,111832,1,0,0:0:0:0:
64,192,111832,1,0,0:0:0:0:
448,192,111874,1,0,0:0:0:0:
320,192,111915,1,0,0:0:0:0:
192,192,111957,1,0,0:0:0:0:
64,192,111999,1,0,0:0:0:0:
448,192,111999,1,0,0:0:0:0:
192,192,112165,1,0,0:0:0:0:
320,192,112165,1,0,0:0:0:0:
64,192,112249,1,0,0:0:0:0:
320,192,112332,1,0,0:0:0:0:
448,192,112332,1,0,0:0:0:0:
192,192,112395,1,0,0:0:0:0:
320,192,112457,1,0,0:0:0:0:
448,192,112457,1,0,0:0:0:0:
192,192,112520,1,0,0:0:0:0:
320,192,112582,1,0,0:0:0:0:
448,192,112582,1,0,0:0:0:0:
192,192,112665,1,0,0:0:0:0:
64,192,112665,128,0,112832:0:0:0:0:
448,192,112749,128,0,112915:0:0:0:0:
320,192,112832,128,0,112915:0:0:0:0:
64,192,112915,128,0,112999:0:0:0:0:
192,192,112957,1,0,0:0:0:0:
320,192,112999,1,0,0:0:0:0:
448,192,112999,1,0,0:0:0:0:
64,192,113082,1,0,0:0:0:0:
192,192,113082,1,0,0:0:0:0:
320,192,113165,1,0,0:0:0:0:
192,192,113249,1,0,0:0:0:0:
64,192,113332,1,0,0:0:0:0:
448,192,113332,1,0,0:0:0:0:
192,192,113415,1,0,0:0:0:0:
320,192,113499,1,0,0:0:0:0:
192,192,113582,1,0,0:0:0:0:
64,192,113665,1,0,0:0:0:0:
192,192,113749,1,0,0:0:0:0:
320,192,113832,1,0,0:0:0:0:
64,192,113832,1,0,0:0:0:0:
192,192,113915,1,0,0:0:0:0:
320,192,113999,128,0,114082:0:0:0:0:
448,192,113999,128,0,114082:0:0:0:0:
64,192,114332,1,0,0:0:0:0:
192,192,114332,1,0,0:0:0:0:
64,192,114499,1,0,0:0:0:0:
192,192,114499,1,0,0:0:0:0:
320,192,114582,1,0,0:0:0:0:
64,192,114665,1,0,0:0:0:0:
192,192,114665,1,0,0:0:0:0:
448,192,114832,128,0,114915:0:0:0:0:
192,192,114915,1,0,0:0:0:0:
64,192,114999,1,0,0:0:0:0:
320,192,114999,128,0,115082:0:0:0:0:
448,192,115082,128,0,115165:0:0:0:0:
192,192,115165,1,0,0:0:0:0:
64,192,115249,1,0,0:0:0:0:
320,192,115249,128,0,115332:0:0:0:0:
448,192,115332,128,0,115499:0:0:0:0:
192,192,115665,1,0,0:0:0:0:
320,192,115665,1,0,0:0:0:0:
320,192,115832,1,0,0:0:0:0:
320,192,115915,1,0,0:0:0:0:
64,192,115999,128,0,116082:0:0:0:0:
192,192,115999,128,0,116082:0:0:0:0:
