osu file format v14

[General]
AudioFilename: audio.mp3
AudioLeadIn: 0
PreviewTime: 83133
Countdown: 0
SampleSet: Normal
StackLeniency: 0.7
Mode: 1
LetterboxInBreaks: 0
WidescreenStoryboard: 1

[Editor]
DistanceSpacing: 0.5
BeatDivisor: 4
GridSize: 32
TimelineZoom: 3.1

[Metadata]
Title:Ninedump
TitleUnicode:Ninedump
Artist:The Flashbulb
ArtistUnicode:The Flashbulb
Creator:Arrival
Version:Oni
Source:
Tags:featured artist FA flexing habitual breakbeat tasuke912 nardoxyribonucleic
BeatmapID:2092275
BeatmapSetID:984361

[Difficulty]
HPDrainRate:6
CircleSize:2
OverallDifficulty:6
ApproachRate:0
SliderMultiplier:1.4
SliderTickRate:1

[Events]
//Background and Video events
0,0,"forme-illustration-rouge-1340397.jpg",0,-30
//Break Periods
//Storyboard Layer 0 (Background)
//Storyboard Layer 1 (Fail)
//Storyboard Layer 2 (Pass)
//Storyboard Layer 3 (Foreground)
//Storyboard Sound Samples

[TimingPoints]
5910,333.333333333333,4,1,0,30,1,0
11243,-95.2380952380952,4,1,0,50,0,0
42909,387.096774193548,4,1,0,50,1,0
42909,-81.9672131147541,4,1,0,50,0,0
44457,333.333333333333,4,1,0,40,1,0
83123,333.333333333333,4,1,0,60,1,9
83123,-90.9090909090909,4,1,0,60,0,1
83133,333.333333333333,4,1,0,60,1,1
83133,-90.9090909090909,4,1,0,60,0,1
113799,-90.9090909090909,4,1,0,60,0,0
115123,-100,4,1,0,60,0,0

[HitObjects]
256,192,2410,12,0,5576,0:0:0:0:
256,128,5909,5,0,0:0:0:0:
256,128,6076,1,8,0:0:0:0:
256,128,6409,1,0,0:0:0:0:
256,128,6576,1,8,0:0:0:0:
256,128,6909,1,8,0:0:0:0:
256,128,7076,1,0,0:0:0:0:
256,128,7159,1,0,0:0:0:0:
256,128,7243,1,0,0:0:0:0:
256,128,7409,1,8,0:0:0:0:
256,128,7659,1,8,0:0:0:0:
256,128,7743,1,0,0:0:0:0:
256,128,7909,1,8,0:0:0:0:
256,128,8243,1,8,0:0:0:0:
256,128,8409,1,0,0:0:0:0:
256,128,8576,1,0,0:0:0:0:
256,128,8743,1,8,0:0:0:0:
256,128,9076,1,0,0:0:0:0:
256,128,9243,1,8,0:0:0:0:
256,128,9576,1,8,0:0:0:0:
256,128,9743,1,0,0:0:0:0:
256,128,9826,1,0,0:0:0:0:
256,128,9909,1,0,0:0:0:0:
256,128,9993,1,8,0:0:0:0:
256,128,10159,1,8,0:0:0:0:
256,128,10243,1,0,0:0:0:0:
256,128,10409,1,8,0:0:0:0:
256,128,10576,1,0,0:0:0:0:
256,128,10659,1,8,0:0:0:0:
256,128,10826,1,0,0:0:0:0:
256,128,10909,1,8,0:0:0:0:
256,128,10993,1,0,0:0:0:0:
256,128,11243,1,0,0:0:0:0:
256,128,11409,1,8,0:0:0:0:
256,128,11493,1,8,0:0:0:0:
256,128,11576,1,8,0:0:0:0:
256,128,11659,1,8,0:0:0:0:
256,128,11743,1,0,0:0:0:0:
256,128,11909,1,8,0:0:0:0:
256,128,12076,1,0,0:0:0:0:
256,128,12159,1,8,0:0:0:0:
256,128,12243,1,0,0:0:0:0:
256,128,12409,1,0,0:0:0:0:
256,128,12576,1,8,0:0:0:0:
256,128,12743,1,0,0:0:0:0:
256,128,12826,1,0,0:0:0:0:
256,128,12909,1,8,0:0:0:0:
256,128,13076,1,0,0:0:0:0:
256,128,13243,1,8,0:0:0:0:
256,128,13409,1,8,0:0:0:0:
256,128,13493,1,8,0:0:0:0:
256,128,13576,1,0,0:0:0:0:
256,128,13743,1,8,0:0:0:0:
256,128,13909,1,0,0:0:0:0:
256,128,14243,1,0,0:0:0:0:
256,128,14409,1,8,0:0:0:0:
256,128,14576,1,8,0:0:0:0:
256,128,14659,1,8,0:0:0:0:
256,128,14743,1,8,0:0:0:0:
256,128,14826,1,8,0:0:0:0:
256,128,14909,1,0,0:0:0:0:
256,128,15076,1,8,0:0:0:0:
256,128,15243,1,0,0:0:0:0:
256,128,15409,1,0,0:0:0:0:
256,128,15493,1,0,0:0:0:0:
256,128,15576,1,8,0:0:0:0:
256,128,15743,1,0,0:0:0:0:
256,128,15909,1,8,0:0:0:0:
256,128,16076,1,0,0:0:0:0:
256,128,16159,1,0,0:0:0:0:
256,128,16243,1,8,0:0:0:0:
256,128,16409,1,8,0:0:0:0:
256,128,16576,1,0,0:0:0:0:
256,128,16659,1,0,0:0:0:0:
256,128,16743,1,0,0:0:0:0:
256,128,16826,1,0,0:0:0:0:
256,128,16909,1,8,0:0:0:0:
256,128,17076,1,0,0:0:0:0:
256,128,17159,1,0,0:0:0:0:
256,128,17243,1,8,0:0:0:0:
256,128,17409,1,0,0:0:0:0:
256,128,17493,1,0,0:0:0:0:
256,128,17576,1,8,0:0:0:0:
256,128,17743,1,0,0:0:0:0:
256,128,17909,1,8,0:0:0:0:
256,128,18076,1,0,0:0:0:0:
256,128,18159,1,0,0:0:0:0:
256,128,18243,1,8,0:0:0:0:
256,128,18409,1,8,0:0:0:0:
256,128,18576,1,0,0:0:0:0:
256,128,18659,1,8,0:0:0:0:
256,128,18826,1,8,0:0:0:0:
256,128,18909,1,0,0:0:0:0:
256,128,19243,1,0,0:0:0:0:
256,128,19409,1,0,0:0:0:0:
256,128,19493,1,0,0:0:0:0:
256,128,19576,1,8,0:0:0:0:
256,128,19743,1,8,0:0:0:0:
256,128,19909,1,0,0:0:0:0:
256,128,19993,1,8,0:0:0:0:
256,128,20076,1,0,0:0:0:0:
256,128,20159,1,8,0:0:0:0:
256,128,20243,1,0,0:0:0:0:
271,131,20409,1,0,0:0:0:0:
256,128,20576,1,8,0:0:0:0:
256,128,20743,1,8,0:0:0:0:
256,128,20826,1,8,0:0:0:0:
256,128,20909,1,0,0:0:0:0:
256,128,21076,1,8,0:0:0:0:
256,128,21243,2,0,L|485:127,1,220.499993270874
256,128,21909,1,0,0:0:0:0:
256,128,22243,1,8,0:0:0:0:
256,128,22409,1,0,0:0:0:0:
256,128,22576,1,8,0:0:0:0:
256,128,22743,1,0,0:0:0:0:
256,128,22826,1,8,0:0:0:0:
256,128,22909,1,0,0:0:0:0:
256,128,23076,1,0,0:0:0:0:
256,128,23243,1,8,0:0:0:0:
256,128,23409,1,0,0:0:0:0:
256,128,23493,1,0,0:0:0:0:
256,128,23576,1,8,0:0:0:0:
256,128,23743,1,8,0:0:0:0:
256,128,23909,1,0,0:0:0:0:
256,128,24076,1,8,0:0:0:0:
256,128,24159,1,8,0:0:0:0:
256,128,24243,1,0,0:0:0:0:
256,128,24409,1,8,0:0:0:0:
256,128,24576,1,0,0:0:0:0:
251,122,24743,1,8,0:0:0:0:
251,122,24826,1,8,0:0:0:0:
256,128,24909,1,0,0:0:0:0:
256,128,25076,1,8,0:0:0:0:
256,128,25243,1,8,0:0:0:0:
256,128,25326,1,8,0:0:0:0:
256,128,25409,1,8,0:0:0:0:
256,128,25576,1,0,0:0:0:0:
256,128,25743,1,8,0:0:0:0:
256,128,25909,1,0,0:0:0:0:
256,128,26076,1,0,0:0:0:0:
256,128,26159,1,8,0:0:0:0:
256,128,26243,1,0,0:0:0:0:
256,128,26409,1,8,0:0:0:0:
256,128,26576,1,0,0:0:0:0:
256,128,26659,1,8,0:0:0:0:
256,128,26826,1,8,0:0:0:0:
256,128,26909,1,0,0:0:0:0:
256,128,27076,1,8,0:0:0:0:
256,128,27243,1,0,0:0:0:0:
256,128,27576,1,8,0:0:0:0:
256,128,27743,1,0,0:0:0:0:
256,128,27909,1,8,0:0:0:0:
256,128,27993,1,8,0:0:0:0:
256,128,28076,1,0,0:0:0:0:
256,128,28243,1,8,0:0:0:0:
256,128,28409,1,0,0:0:0:0:
256,128,28576,1,8,0:0:0:0:
256,128,28743,1,0,0:0:0:0:
256,128,28826,1,8,0:0:0:0:
256,128,28909,1,0,0:0:0:0:
256,128,29076,1,8,0:0:0:0:
256,128,29243,1,0,0:0:0:0:
256,128,29326,1,8,0:0:0:0:
256,128,29493,1,8,0:0:0:0:
256,128,29576,1,0,0:0:0:0:
256,128,29743,1,8,0:0:0:0:
256,128,29909,1,0,0:0:0:0:
256,128,30076,1,0,0:0:0:0:
256,128,30243,1,8,0:0:0:0:
256,128,30409,1,0,0:0:0:0:
256,128,30576,1,8,0:0:0:0:
256,128,30659,1,8,0:0:0:0:
256,128,30743,1,8,0:0:0:0:
256,128,30826,1,8,0:0:0:0:
256,128,30909,1,0,0:0:0:0:
256,128,31076,1,0,0:0:0:0:
256,128,31243,1,8,0:0:0:0:
256,128,31409,1,0,0:0:0:0:
256,128,31493,1,0,0:0:0:0:
256,128,31576,1,8,0:0:0:0:
256,128,31743,1,0,0:0:0:0:
256,128,31909,1,0,0:0:0:0:
256,128,31993,1,8,0:0:0:0:
256,128,32159,1,8,0:0:0:0:
256,128,32243,1,0,0:0:0:0:
256,128,32409,1,8,0:0:0:0:
256,128,32576,1,0,0:0:0:0:
256,128,32909,1,0,0:0:0:0:
256,128,33076,1,8,0:0:0:0:
256,128,33243,1,0,0:0:0:0:
256,128,33326,1,0,0:0:0:0:
256,128,33409,1,8,0:0:0:0:
256,128,33493,1,8,0:0:0:0:
256,128,33576,1,0,0:0:0:0:
256,128,33743,1,0,0:0:0:0:
256,128,33909,1,8,0:0:0:0:
256,128,34076,1,0,0:0:0:0:
256,128,34159,1,0,0:0:0:0:
256,128,34243,1,8,0:0:0:0:
256,128,34409,1,8,0:0:0:0:
256,128,34576,1,0,0:0:0:0:
256,128,34659,1,8,0:0:0:0:
256,128,34826,1,8,0:0:0:0:
256,128,34909,1,0,0:0:0:0:
256,128,35243,1,0,0:0:0:0:
256,128,35326,1,0,0:0:0:0:
256,128,35409,1,8,0:0:0:0:
256,128,35493,1,8,0:0:0:0:
256,128,35576,1,0,0:0:0:0:
256,128,35743,1,8,0:0:0:0:
256,128,35909,1,0,0:0:0:0:
256,128,36076,1,8,0:0:0:0:
256,128,36159,1,8,0:0:0:0:
256,128,36243,1,0,0:0:0:0:
256,128,36409,1,0,0:0:0:0:
256,128,36576,1,8,0:0:0:0:
256,128,36743,1,0,0:0:0:0:
256,128,36826,1,0,0:0:0:0:
256,128,36909,1,8,0:0:0:0:
256,128,37076,1,8,0:0:0:0:
256,128,37159,1,0,0:0:0:0:
256,128,37326,1,0,0:0:0:0:
256,128,37409,1,8,0:0:0:0:
256,128,37576,1,8,0:0:0:0:
256,128,37743,1,8,0:0:0:0:
256,128,37826,1,8,0:0:0:0:
256,128,37909,1,0,0:0:0:0:
256,128,38243,1,8,0:0:0:0:
256,128,38409,1,0,0:0:0:0:
256,128,38576,1,8,0:0:0:0:
256,128,38659,1,8,0:0:0:0:
256,128,38743,1,8,0:0:0:0:
256,128,38826,1,8,0:0:0:0:
256,128,38909,1,0,0:0:0:0:
256,128,39076,1,0,0:0:0:0:
256,128,39243,1,8,0:0:0:0:
256,128,39409,1,8,0:0:0:0:
256,128,39493,1,8,0:0:0:0:
256,128,39576,1,0,0:0:0:0:
256,128,39743,1,8,0:0:0:0:
256,128,39909,1,0,0:0:0:0:
256,128,39993,1,8,0:0:0:0:
256,128,40159,1,8,0:0:0:0:
256,128,40243,1,0,0:0:0:0:
256,128,40409,1,8,0:0:0:0:
256,128,40576,1,0,0:0:0:0:
256,128,40743,1,0,0:0:0:0:
256,128,40826,1,0,0:0:0:0:
256,128,40909,1,8,0:0:0:0:
256,128,41076,1,0,0:0:0:0:
256,128,41243,1,8,0:0:0:0:
256,128,41326,1,8,0:0:0:0:
256,128,41409,1,8,0:0:0:0:
256,128,41493,1,8,0:0:0:0:
256,128,41576,1,0,0:0:0:0:
256,128,41743,1,0,0:0:0:0:
256,128,41826,1,0,0:0:0:0:
256,128,41909,1,8,0:0:0:0:
256,128,42076,1,0,0:0:0:0:
256,128,42243,1,8,0:0:0:0:
256,128,42576,1,0,0:0:0:0:
256,192,42909,12,0,44263,0:0:0:0:
256,128,44457,5,0,0:0:0:0:
256,128,44790,1,8,0:0:0:0:
256,128,45123,1,0,0:0:0:0:
256,128,45290,1,0,0:0:0:0:
256,128,45457,1,8,0:0:0:0:
256,128,45790,1,8,0:0:0:0:
256,128,46123,1,0,0:0:0:0:
256,128,46290,1,8,0:0:0:0:
256,128,46457,1,0,0:0:0:0:
256,128,46790,1,8,0:0:0:0:
256,128,47123,1,0,0:0:0:0:
256,128,47457,1,8,0:0:0:0:
256,128,47623,1,8,0:0:0:0:
256,128,47790,1,0,0:0:0:0:
256,128,47956,1,0,0:0:0:0:
256,128,48123,1,8,0:0:0:0:
256,128,48456,1,8,0:0:0:0:
256,128,48623,1,0,0:0:0:0:
256,128,48790,1,8,0:0:0:0:
256,128,48956,1,8,0:0:0:0:
256,128,49123,1,0,0:0:0:0:
256,128,49456,1,8,0:0:0:0:
256,128,49790,1,0,0:0:0:0:
256,128,50123,1,8,0:0:0:0:
256,128,50290,1,8,0:0:0:0:
256,128,50456,1,0,0:0:0:0:
256,128,50623,1,0,0:0:0:0:
256,128,50790,1,8,0:0:0:0:
256,128,51123,1,0,0:0:0:0:
256,128,51456,1,8,0:0:0:0:
256,128,51623,1,8,0:0:0:0:
256,128,51790,1,0,0:0:0:0:
256,128,52123,1,8,0:0:0:0:
256,128,52456,1,0,0:0:0:0:
256,128,52790,1,8,0:0:0:0:
256,128,52956,1,0,0:0:0:0:
256,128,53123,1,0,0:0:0:0:
256,128,53290,1,0,0:0:0:0:
256,128,53456,1,8,0:0:0:0:
256,128,53790,1,0,0:0:0:0:
256,128,54123,1,8,0:0:0:0:
256,128,54290,1,0,0:0:0:0:
256,128,54456,1,8,0:0:0:0:
256,128,54540,1,0,0:0:0:0:
256,128,54706,1,0,0:0:0:0:
256,128,54790,1,8,0:0:0:0:
256,128,54956,1,8,0:0:0:0:
256,128,55123,1,0,0:0:0:0:
256,128,55456,1,8,0:0:0:0:
256,128,55706,1,8,0:0:0:0:
256,128,55790,1,0,0:0:0:0:
256,128,55956,1,0,0:0:0:0:
256,128,56123,1,8,0:0:0:0:
256,128,56456,1,0,0:0:0:0:
256,128,56706,1,0,0:0:0:0:
256,128,56790,1,8,0:0:0:0:
256,128,56956,1,0,0:0:0:0:
256,128,57123,1,8,0:0:0:0:
256,128,57206,1,8,0:0:0:0:
256,128,57290,1,0,0:0:0:0:
256,128,57456,1,8,0:0:0:0:
256,128,57790,1,0,0:0:0:0:
256,128,58123,1,8,0:0:0:0:
256,128,58373,1,8,0:0:0:0:
256,128,58456,1,0,0:0:0:0:
256,128,58623,1,0,0:0:0:0:
256,128,58790,1,8,0:0:0:0:
256,128,59123,1,0,0:0:0:0:
256,128,59373,1,0,0:0:0:0:
256,128,59456,1,8,0:0:0:0:
256,128,59623,1,0,0:0:0:0:
256,128,59790,1,8,0:0:0:0:
256,128,59873,1,8,0:0:0:0:
256,128,59956,1,0,0:0:0:0:
256,128,60123,1,8,0:0:0:0:
256,128,60456,1,0,0:0:0:0:
256,128,60790,1,8,0:0:0:0:
256,128,61040,1,8,0:0:0:0:
256,128,61123,1,0,0:0:0:0:
256,128,61290,1,0,0:0:0:0:
256,128,61456,1,8,0:0:0:0:
256,128,61790,1,0,0:0:0:0:
256,128,62040,1,0,0:0:0:0:
256,128,62123,1,8,0:0:0:0:
256,128,62290,1,0,0:0:0:0:
256,128,62456,1,8,0:0:0:0:
256,128,62540,1,8,0:0:0:0:
256,128,62706,1,8,0:0:0:0:
256,128,62790,1,0,0:0:0:0:
256,128,63123,1,0,0:0:0:0:
256,128,63456,1,8,0:0:0:0:
256,128,63623,1,0,0:0:0:0:
256,128,63706,1,0,0:0:0:0:
256,128,63790,1,8,0:0:0:0:
256,128,63956,1,0,0:0:0:0:
256,128,64040,1,0,0:0:0:0:
256,128,64123,1,8,0:0:0:0:
256,128,64456,1,0,0:0:0:0:
256,128,64790,1,8,0:0:0:0:
256,128,64956,1,0,0:0:0:0:
256,128,65123,1,8,0:0:0:0:
256,128,65206,1,8,0:0:0:0:
256,128,65373,1,8,0:0:0:0:
256,128,65456,1,0,0:0:0:0:
256,128,65623,1,8,0:0:0:0:
256,128,65790,1,0,0:0:0:0:
256,128,66123,1,0,0:0:0:0:
256,128,66290,1,0,0:0:0:0:
256,128,66456,1,8,0:0:0:0:
256,128,66623,1,8,0:0:0:0:
256,128,66790,1,0,0:0:0:0:
256,128,66956,1,8,0:0:0:0:
256,128,67123,1,0,0:0:0:0:
256,128,67456,1,8,0:0:0:0:
256,128,67623,1,0,0:0:0:0:
256,128,67790,1,8,0:0:0:0:
256,128,67873,1,8,0:0:0:0:
256,128,67956,1,0,0:0:0:0:
256,128,68123,1,8,0:0:0:0:
256,128,68290,1,0,0:0:0:0:
256,128,68456,1,0,0:0:0:0:
256,128,68790,1,8,0:0:0:0:
256,128,68956,1,0,0:0:0:0:
256,128,69123,1,8,0:0:0:0:
256,128,69290,1,8,0:0:0:0:
256,128,69456,1,0,0:0:0:0:
256,128,69623,1,8,0:0:0:0:
256,128,69790,1,0,0:0:0:0:
256,128,70123,1,8,0:0:0:0:
256,128,70290,1,0,0:0:0:0:
256,128,70456,1,8,0:0:0:0:
256,128,70540,1,8,0:0:0:0:
256,128,70706,1,8,0:0:0:0:
256,128,70790,1,0,0:0:0:0:
256,128,70956,1,8,0:0:0:0:
256,128,71123,1,0,0:0:0:0:
256,128,71456,1,0,0:0:0:0:
256,128,71623,1,8,0:0:0:0:
256,128,71790,1,0,0:0:0:0:
256,128,71956,1,0,0:0:0:0:
256,128,72123,1,8,0:0:0:0:
256,128,72290,1,8,0:0:0:0:
256,128,72456,1,0,0:0:0:0:
256,128,72790,1,8,0:0:0:0:
256,128,72956,1,0,0:0:0:0:
256,128,73040,1,0,0:0:0:0:
256,128,73123,1,8,0:0:0:0:
256,128,73290,1,0,0:0:0:0:
256,128,73373,1,0,0:0:0:0:
256,128,73456,1,8,0:0:0:0:
256,128,73790,1,0,0:0:0:0:
256,128,74123,1,8,0:0:0:0:
256,128,74290,1,0,0:0:0:0:
256,128,74456,1,8,0:0:0:0:
256,128,74540,1,8,0:0:0:0:
256,128,74623,1,8,0:0:0:0:
256,128,74790,1,0,0:0:0:0:
256,128,74956,1,8,0:0:0:0:
256,128,75123,1,0,0:0:0:0:
256,128,75456,1,0,0:0:0:0:
256,128,75623,1,8,0:0:0:0:
256,128,75790,1,0,0:0:0:0:
256,128,75956,1,0,0:0:0:0:
256,128,76123,1,8,0:0:0:0:
256,128,76290,1,8,0:0:0:0:
256,128,76456,1,0,0:0:0:0:
256,128,77123,1,0,0:0:0:0:
256,128,77790,1,0,0:0:0:0:
256,128,78456,1,0,0:0:0:0:
256,192,79123,12,0,80290,0:0:0:0:
256,192,80456,12,0,81623,0:0:0:0:
256,192,81790,12,0,82956,0:0:0:0:
256,128,83133,5,0,0:0:0:0:
256,128,83216,1,8,0:0:0:0:
256,128,83299,1,8,0:0:0:0:
256,128,83383,1,8,0:0:0:0:
256,128,83466,1,0,0:0:0:0:
256,128,83633,1,0,0:0:0:0:
256,128,83799,1,8,0:0:0:0:
256,128,83966,1,8,0:0:0:0:
256,128,84133,1,0,0:0:0:0:
256,128,84299,1,8,0:0:0:0:
256,128,84466,1,0,0:0:0:0:
256,128,84633,1,0,0:0:0:0:
256,128,84716,1,0,0:0:0:0:
256,128,84799,1,8,0:0:0:0:
256,128,84966,1,0,0:0:0:0:
256,128,85133,1,12,0:0:0:0:
256,128,85383,1,4,0:0:0:0:
256,128,85633,1,12,0:0:0:0:
256,128,85799,1,0,0:0:0:0:
256,128,85883,1,0,0:0:0:0:
256,128,85966,1,0,0:0:0:0:
256,128,86049,1,0,0:0:0:0:
256,128,86133,1,8,0:0:0:0:
256,128,86299,1,8,0:0:0:0:
256,128,86466,1,0,0:0:0:0:
246,126,86549,1,0,0:0:0:0:
256,128,86633,1,8,0:0:0:0:
256,128,86799,1,0,0:0:0:0:
256,128,86966,1,8,0:0:0:0:
256,128,87133,1,0,0:0:0:0:
256,128,87299,1,0,0:0:0:0:
256,128,87466,1,8,0:0:0:0:
256,128,87633,1,8,0:0:0:0:
256,128,87799,1,0,0:0:0:0:
256,128,87883,1,8,0:0:0:0:
256,128,88049,1,8,0:0:0:0:
256,128,88133,1,0,0:0:0:0:
256,128,88216,1,0,0:0:0:0:
256,128,88299,1,0,0:0:0:0:
256,128,88383,1,0,0:0:0:0:
256,128,88633,1,0,0:0:0:0:
256,128,88716,1,0,0:0:0:0:
247,132,88799,1,0,0:0:0:0:
256,128,88883,1,8,0:0:0:0:
256,128,89049,1,0,0:0:0:0:
256,128,89133,1,8,0:0:0:0:
256,128,89299,1,0,0:0:0:0:
256,128,89383,1,0,0:0:0:0:
256,128,89466,1,8,0:0:0:0:
256,128,89633,1,8,0:0:0:0:
256,128,89799,1,0,0:0:0:0:
256,128,90132,1,8,0:0:0:0:
263,121,90299,1,0,0:0:0:0:
256,128,90466,1,0,0:0:0:0:
256,128,90549,1,8,0:0:0:0:
256,128,90716,1,8,0:0:0:0:
256,128,90799,1,0,0:0:0:0:
256,128,90966,1,8,0:0:0:0:
256,128,91049,1,8,0:0:0:0:
256,128,91132,5,0,0:0:0:0:
256,128,91299,1,8,0:0:0:0:
256,128,91466,1,8,0:0:0:0:
256,128,91632,1,0,0:0:0:0:
256,128,91799,1,8,0:0:0:0:
256,128,91882,1,8,0:0:0:0:
256,128,91966,1,0,0:0:0:0:
256,128,92049,1,0,0:0:0:0:
256,128,92132,1,8,0:0:0:0:
256,128,92299,1,8,0:0:0:0:
256,128,92466,1,0,0:0:0:0:
256,128,92632,1,8,0:0:0:0:
256,96,92716,1,8,0:0:0:0:
256,128,92799,1,0,0:0:0:0:
256,128,92966,1,8,0:0:0:0:
256,128,93132,2,0,L|504:129,1,231.000007049561
256,128,93799,1,0,0:0:0:0:
256,128,93966,1,8,0:0:0:0:
256,128,94049,1,8,0:0:0:0:
256,128,94132,1,0,0:0:0:0:
256,128,94299,1,0,0:0:0:0:
256,128,94466,1,8,0:0:0:0:
256,128,94632,1,0,0:0:0:0:
256,128,94799,1,8,0:0:0:0:
256,128,94966,1,8,0:0:0:0:
256,128,95132,1,0,0:0:0:0:
256,128,95299,1,0,0:0:0:0:
256,128,95382,1,0,0:0:0:0:
256,128,95466,1,8,0:0:0:0:
256,128,95632,1,0,0:0:0:0:
256,128,95799,1,8,0:0:0:0:
256,128,96049,1,0,0:0:0:0:
256,128,96299,1,8,0:0:0:0:
256,128,96466,1,0,0:0:0:0:
256,128,96632,1,0,0:0:0:0:
256,128,96716,1,0,0:0:0:0:
247,132,96799,1,8,0:0:0:0:
256,128,96966,1,0,0:0:0:0:
256,128,97132,1,8,0:0:0:0:
256,128,97216,1,8,0:0:0:0:
256,128,97299,1,0,0:0:0:0:
256,128,97466,1,8,0:0:0:0:
256,128,97632,1,8,0:0:0:0:
256,128,97799,1,0,0:0:0:0:
256,128,97966,1,0,0:0:0:0:
256,128,98049,1,0,0:0:0:0:
256,128,98132,1,8,0:0:0:0:
256,128,98299,1,8,0:0:0:0:
256,128,98382,1,8,0:0:0:0:
256,128,98466,1,0,0:0:0:0:
256,128,98549,1,0,0:0:0:0:
256,128,98632,1,0,0:0:0:0:
256,128,98716,1,0,0:0:0:0:
256,128,98799,1,8,0:0:0:0:
256,128,99132,5,0,0:0:0:0:
256,128,99299,1,0,0:0:0:0:
256,128,99382,1,0,0:0:0:0:
256,128,99466,1,8,0:0:0:0:
256,128,99632,1,0,0:0:0:0:
256,128,99799,1,8,0:0:0:0:
256,128,99966,1,0,0:0:0:0:
256,128,100132,1,8,0:0:0:0:
256,128,100216,1,8,0:0:0:0:
256,128,100299,1,8,0:0:0:0:
256,128,100382,1,8,0:0:0:0:
256,128,100466,1,0,0:0:0:0:
256,128,100632,1,0,0:0:0:0:
256,128,100716,1,8,0:0:0:0:
256,128,100799,1,0,0:0:0:0:
256,128,100966,1,8,0:0:0:0:
256,128,101132,1,0,0:0:0:0:
256,128,101216,1,8,0:0:0:0:
256,128,101382,1,8,0:0:0:0:
256,128,101466,1,0,0:0:0:0:
256,128,101799,1,8,0:0:0:0:
256,128,101966,1,8,0:0:0:0:
256,128,102049,1,8,0:0:0:0:
256,128,102132,1,0,0:0:0:0:
256,128,102299,1,0,0:0:0:0:
256,128,102466,1,8,0:0:0:0:
256,128,102632,1,8,0:0:0:0:
256,128,102799,1,0,0:0:0:0:
258,135,102966,1,8,0:0:0:0:
256,128,103132,1,0,0:0:0:0:
256,128,103216,1,0,0:0:0:0:
256,128,103299,1,0,0:0:0:0:
256,128,103382,1,8,0:0:0:0:
256,128,103466,1,8,0:0:0:0:
256,128,103632,1,8,0:0:0:0:
256,128,103799,1,0,0:0:0:0:
256,128,103882,1,8,0:0:0:0:
256,128,104049,1,8,0:0:0:0:
256,128,104132,1,0,0:0:0:0:
256,128,104299,1,8,0:0:0:0:
256,128,104466,1,0,0:0:0:0:
256,128,104632,1,8,0:0:0:0:
256,128,104716,1,8,0:0:0:0:
247,132,104799,1,0,0:0:0:0:
256,128,104966,1,0,0:0:0:0:
256,128,105132,1,8,0:0:0:0:
256,128,105299,1,8,0:0:0:0:
256,128,105466,1,0,0:0:0:0:
256,128,105549,1,0,0:0:0:0:
256,128,105632,1,8,0:0:0:0:
256,128,105799,1,0,0:0:0:0:
256,128,105966,1,0,0:0:0:0:
256,128,106049,1,0,0:0:0:0:
256,128,106132,1,8,0:0:0:0:
263,121,106299,1,0,0:0:0:0:
256,128,106466,1,0,0:0:0:0:
256,128,106549,1,8,0:0:0:0:
256,128,106716,1,8,0:0:0:0:
256,128,106799,1,0,0:0:0:0:
256,128,107132,5,0,0:0:0:0:
256,128,107299,1,8,0:0:0:0:
256,128,107382,1,8,0:0:0:0:
256,128,107466,1,0,0:0:0:0:
256,128,107632,1,8,0:0:0:0:
256,128,107799,1,0,0:0:0:0:
256,128,107966,1,0,0:0:0:0:
256,128,108132,1,8,0:0:0:0:
256,128,108299,1,8,0:0:0:0:
256,128,108466,1,0,0:0:0:0:
256,128,108549,1,8,0:0:0:0:
256,128,108632,1,0,0:0:0:0:
256,128,108799,1,8,0:0:0:0:
256,128,108966,1,8,0:0:0:0:
256,128,109049,1,8,0:0:0:0:
256,128,109132,1,8,0:0:0:0:
256,128,109216,1,8,0:0:0:0:
256,128,109299,1,0,0:0:0:0:
256,128,109382,1,0,0:0:0:0:
256,128,109466,1,8,0:0:0:0:
256,128,109799,1,0,0:0:0:0:
256,128,109966,1,8,0:0:0:0:
256,128,110132,1,8,0:0:0:0:
256,128,110216,1,8,0:0:0:0:
256,128,110299,1,0,0:0:0:0:
256,128,110466,1,8,0:0:0:0:
256,128,110632,1,0,0:0:0:0:
256,128,110799,1,8,0:0:0:0:
256,128,110966,1,8,0:0:0:0:
256,128,111132,1,0,0:0:0:0:
256,128,111299,1,0,0:0:0:0:
256,128,111382,1,0,0:0:0:0:
256,128,111466,1,8,0:0:0:0:
256,128,111632,1,8,0:0:0:0:
256,128,111799,1,0,0:0:0:0:
256,128,111882,1,8,0:0:0:0:
256,128,112049,1,8,0:0:0:0:
256,128,112132,1,0,0:0:0:0:
256,128,112299,1,8,0:0:0:0:
256,128,112466,1,0,0:0:0:0:
256,128,112632,1,0,0:0:0:0:
256,128,112716,1,0,0:0:0:0:
256,128,112799,1,8,0:0:0:0:
256,128,112966,1,8,0:0:0:0:
256,128,113049,1,8,0:0:0:0:
256,128,113132,1,8,0:0:0:0:
256,128,113216,1,8,0:0:0:0:
256,128,113299,1,0,0:0:0:0:
256,128,113466,1,8,0:0:0:0:
256,128,113632,1,8,0:0:0:0:
256,128,113799,1,0,0:0:0:0:
256,192,113966,12,0,114966,0:0:0:0:
256,128,115132,5,0,0:0:0:0:
256,128,115299,1,8,0:0:0:0:
256,128,115382,1,8,0:0:0:0:
256,128,115466,1,0,0:0:0:0:
256,128,115632,1,0,0:0:0:0:
256,128,115799,1,8,0:0:0:0:
256,128,115966,1,0,0:0:0:0:
256,128,116049,1,0,0:0:0:0:
256,128,116132,1,8,0:0:0:0:
256,128,116299,1,8,0:0:0:0:
256,128,116466,1,0,0:0:0:0:
256,128,116632,1,8,0:0:0:0:
256,96,116716,1,8,0:0:0:0:
256,128,116799,1,0,0:0:0:0:
256,128,116966,1,8,0:0:0:0:
256,128,117132,1,8,0:0:0:0:
256,128,117299,1,8,0:0:0:0:
256,128,117382,1,8,0:0:0:0:
256,128,117466,1,8,0:0:0:0:
256,128,117632,1,8,0:0:0:0:
256,128,117799,1,0,0:0:0:0:
256,128,117966,1,0,0:0:0:0:
256,128,118049,1,0,0:0:0:0:
256,128,118132,1,8,0:0:0:0:
256,128,118299,1,8,0:0:0:0:
256,128,118382,1,8,0:0:0:0:
256,128,118466,1,0,0:0:0:0:
256,128,118632,1,0,0:0:0:0:
256,128,118799,1,8,0:0:0:0:
256,128,118966,1,8,0:0:0:0:
256,128,119049,1,8,0:0:0:0:
256,128,119132,1,0,0:0:0:0:
256,128,119299,1,8,0:0:0:0:
256,128,119466,1,8,0:0:0:0:
256,128,119632,1,0,0:0:0:0:
256,128,119799,1,8,0:0:0:0:
256,128,119882,1,8,0:0:0:0:
256,128,119966,1,8,0:0:0:0:
256,128,120132,1,8,0:0:0:0:
256,128,120299,1,0,0:0:0:0:
256,128,120382,1,0,0:0:0:0:
256,128,120466,1,0,0:0:0:0:
256,128,120632,1,0,0:0:0:0:
247,132,120799,1,8,0:0:0:0:
256,128,120966,1,0,0:0:0:0:
256,128,121049,1,0,0:0:0:0:
256,128,121132,1,8,0:0:0:0:
256,128,121216,1,8,0:0:0:0:
256,128,121299,1,0,0:0:0:0:
256,128,121466,1,8,0:0:0:0:
256,128,121632,1,0,0:0:0:0:
256,128,121799,1,8,0:0:0:0:
256,128,121882,1,8,0:0:0:0:
256,128,121966,1,0,0:0:0:0:
256,128,122132,1,8,0:0:0:0:
256,128,122299,1,8,0:0:0:0:
256,128,122382,1,8,0:0:0:0:
256,128,122466,1,8,0:0:0:0:
256,128,122632,1,8,0:0:0:0:
256,128,122799,1,0,0:0:0:0:
256,128,123132,5,0,0:0:0:0:
256,128,123299,1,0,0:0:0:0:
256,128,123382,1,0,0:0:0:0:
256,128,123466,1,8,0:0:0:0:
256,128,123632,1,0,0:0:0:0:
256,128,123799,1,8,0:0:0:0:
256,128,123966,1,8,0:0:0:0:
256,128,124132,1,0,0:0:0:0:
256,128,124299,1,8,0:0:0:0:
256,128,124382,1,8,0:0:0:0:
256,128,124466,1,0,0:0:0:0:
256,128,124632,1,0,0:0:0:0:
256,128,124799,1,8,0:0:0:0:
256,128,124966,1,0,0:0:0:0:
256,128,125132,1,8,0:0:0:0:
256,128,125216,1,8,0:0:0:0:
256,128,125299,1,8,0:0:0:0:
256,128,125382,1,8,0:0:0:0:
256,128,125466,1,0,0:0:0:0:
256,128,125799,1,0,0:0:0:0:
256,128,125966,1,0,0:0:0:0:
256,128,126049,1,0,0:0:0:0:
256,128,126132,1,8,0:0:0:0:
256,128,126299,1,8,0:0:0:0:
256,128,126382,1,8,0:0:0:0:
256,128,126466,1,0,0:0:0:0:
256,128,126632,1,0,0:0:0:0:
256,128,126799,1,8,0:0:0:0:
258,135,126966,1,0,0:0:0:0:
256,128,127132,1,8,0:0:0:0:
256,128,127216,1,8,0:0:0:0:
256,128,127299,1,8,0:0:0:0:
256,128,127466,1,8,0:0:0:0:
256,128,127632,1,8,0:0:0:0:
256,128,127799,1,0,0:0:0:0:
256,128,127966,1,0,0:0:0:0:
256,128,128132,1,8,0:0:0:0:
256,128,128299,1,8,0:0:0:0:
256,128,128466,1,0,0:0:0:0:
256,128,128632,1,8,0:0:0:0:
256,128,128716,1,8,0:0:0:0:
247,132,128799,1,0,0:0:0:0:
256,128,128966,1,0,0:0:0:0:
256,128,129049,1,0,0:0:0:0:
256,128,129132,1,8,0:0:0:0:
256,128,129299,1,0,0:0:0:0:
256,128,129466,1,8,0:0:0:0:
256,128,129632,1,8,0:0:0:0:
256,128,129799,1,0,0:0:0:0:
256,128,129966,1,0,0:0:0:0:
256,128,130049,1,0,0:0:0:0:
256,128,130132,1,8,0:0:0:0:
263,121,130299,1,8,0:0:0:0:
256,128,130466,1,0,0:0:0:0:
256,128,130549,1,0,0:0:0:0:
256,128,130632,1,0,0:0:0:0:
256,128,130716,1,0,0:0:0:0:
256,128,130799,1,8,0:0:0:0:
256,128,130966,1,8,0:0:0:0:
256,128,131132,1,0,0:0:0:0:
256,128,131299,1,8,0:0:0:0:
256,128,131382,1,8,0:0:0:0:
256,128,131466,1,0,0:0:0:0:
256,128,131632,1,0,0:0:0:0:
256,128,131799,1,8,0:0:0:0:
256,128,131966,1,8,0:0:0:0:
256,128,132132,1,0,0:0:0:0:
256,128,132216,1,0,0:0:0:0:
256,128,132299,1,8,0:0:0:0:
256,128,132382,1,8,0:0:0:0:
256,128,132466,1,0,0:0:0:0:
256,128,132632,1,8,0:0:0:0:
256,128,132799,1,0,0:0:0:0:
256,128,132966,1,8,0:0:0:0:
256,128,133049,1,8,0:0:0:0:
256,128,133132,1,0,0:0:0:0:
256,128,133299,1,8,0:0:0:0:
256,128,133466,1,8,0:0:0:0:
256,128,133632,1,8,0:0:0:0:
256,128,133799,1,0,0:0:0:0:
256,128,134049,1,0,0:0:0:0:
256,128,134132,1,8,0:0:0:0:
256,128,134299,1,8,0:0:0:0:
256,128,134382,1,8,0:0:0:0:
256,128,134466,1,0,0:0:0:0:
256,128,134632,1,0,0:0:0:0:
256,128,134799,1,8,0:0:0:0:
256,128,135132,1,0,0:0:0:0:
256,128,135299,1,0,0:0:0:0:
256,128,135382,1,0,0:0:0:0:
256,128,135466,1,8,0:0:0:0:
256,128,135632,1,0,0:0:0:0:
256,128,135799,1,8,0:0:0:0:
256,128,135882,1,0,0:0:0:0:
256,128,136049,1,0,0:0:0:0:
256,128,136132,1,8,0:0:0:0:
256,128,136299,1,8,0:0:0:0:
256,128,136466,1,0,0:0:0:0:
256,128,136716,1,0,0:0:0:0:
256,128,136799,1,8,0:0:0:0:
256,128,137049,1,8,0:0:0:0:
256,128,137132,1,0,0:0:0:0:
256,128,137299,1,0,0:0:0:0:
256,128,137466,1,8,0:0:0:0:
256,128,137632,1,8,0:0:0:0:
256,128,137799,1,0,0:0:0:0:
256,128,138049,1,0,0:0:0:0:
256,128,138132,1,8,0:0:0:0:
256,128,138299,1,0,0:0:0:0:
256,128,138382,1,0,0:0:0:0:
256,128,138466,1,8,0:0:0:0:
256,128,138632,1,0,0:0:0:0:
256,128,138799,1,8,0:0:0:0:
256,128,138966,1,0,0:0:0:0:
256,128,139132,1,0,0:0:0:0:
256,128,139466,1,8,0:0:0:0:
256,128,139716,1,8,0:0:0:0:
256,128,139799,1,0,0:0:0:0:
256,128,139966,1,0,0:0:0:0:
256,128,140132,1,8,0:0:0:0:
256,128,140466,1,0,0:0:0:0:
256,128,140716,1,0,0:0:0:0:
256,128,140799,1,8,0:0:0:0:
256,128,140966,1,0,0:0:0:0:
256,128,141132,1,8,0:0:0:0:
256,128,141216,1,8,0:0:0:0:
256,128,141382,1,8,0:0:0:0:
256,128,141466,1,0,0:0:0:0:
256,128,141632,1,8,0:0:0:0:
256,128,141799,1,0,0:0:0:0:
256,128,142049,1,0,0:0:0:0:
256,128,142132,1,8,0:0:0:0:
256,128,142299,1,0,0:0:0:0:
256,128,142382,1,0,0:0:0:0:
256,128,142466,1,8,0:0:0:0:
256,128,142632,1,0,0:0:0:0:
256,128,142716,1,0,0:0:0:0:
256,128,142799,1,8,0:0:0:0:
256,128,143132,1,0,0:0:0:0:
256,128,143466,1,8,0:0:0:0:
256,128,143632,1,0,0:0:0:0:
256,128,143799,1,8,0:0:0:0:
256,128,143882,1,8,0:0:0:0:
256,128,144049,1,8,0:0:0:0:
256,128,144132,1,0,0:0:0:0:
256,128,144299,1,8,0:0:0:0:
256,128,144466,1,0,0:0:0:0:
256,128,144632,1,8,0:0:0:0:
256,128,144716,1,8,0:0:0:0:
256,128,144799,1,0,0:0:0:0:
256,128,144966,1,8,0:0:0:0:
256,128,145132,1,0,0:0:0:0:
256,128,145299,1,0,0:0:0:0:
256,128,145466,1,8,0:0:0:0:
256,128,145632,1,8,0:0:0:0:
256,128,145799,1,0,0:0:0:0:
256,128,146049,1,0,0:0:0:0:
256,128,146132,1,8,0:0:0:0:
256,128,146299,1,0,0:0:0:0:
256,128,146466,1,8,0:0:0:0:
256,128,146549,1,8,0:0:0:0:
256,128,146632,1,0,0:0:0:0:
256,128,146799,1,8,0:0:0:0:
256,128,146966,1,0,0:0:0:0:
256,128,147132,1,0,0:0:0:0:
256,128,147299,1,0,0:0:0:0:
256,128,147466,1,8,0:0:0:0:
256,128,147632,1,0,0:0:0:0:
256,128,147716,1,0,0:0:0:0:
256,128,147799,1,8,0:0:0:0:
256,128,147966,1,0,0:0:0:0:
256,128,148132,1,0,0:0:0:0:
256,128,148299,1,8,0:0:0:0:
256,128,148466,1,0,0:0:0:0:
256,128,148799,1,8,0:0:0:0:
256,128,148966,1,0,0:0:0:0:
256,128,149132,1,8,0:0:0:0:
256,128,149216,1,8,0:0:0:0:
256,128,149382,1,8,0:0:0:0:
256,128,149466,1,0,0:0:0:0:
256,128,149632,1,8,0:0:0:0:
256,128,149799,1,0,0:0:0:0:
256,128,149882,1,0,0:0:0:0:
256,128,149966,1,8,0:0:0:0:
256,128,150132,1,0,0:0:0:0:
256,128,150299,1,8,0:0:0:0:
256,128,150466,1,8,0:0:0:0:
256,128,150549,1,8,0:0:0:0:
256,128,150632,1,8,0:0:0:0:
256,128,150799,1,0,0:0:0:0:
256,128,150966,1,8,0:0:0:0:
256,128,151132,1,0,0:0:0:0:
256,128,151382,1,0,0:0:0:0:
256,128,151466,1,8,0:0:0:0:
256,128,151632,1,0,0:0:0:0:
256,128,151716,1,0,0:0:0:0:
256,128,151799,1,8,0:0:0:0:
256,128,151966,1,0,0:0:0:0:
256,128,152049,1,0,0:0:0:0:
256,128,152132,1,8,0:0:0:0:
256,128,152466,1,0,0:0:0:0:
256,128,152716,1,0,0:0:0:0:
256,128,152799,1,8,0:0:0:0:
256,128,152966,1,0,0:0:0:0:
256,128,153132,1,8,0:0:0:0:
256,128,153216,1,8,0:0:0:0:
256,128,153299,1,0,0:0:0:0:
256,128,153466,1,8,0:0:0:0:
256,128,153632,1,0,0:0:0:0:
256,128,153799,1,0,0:0:0:0:
256,128,153966,1,8,0:0:0:0:
256,128,154049,1,8,0:0:0:0:
256,128,154132,1,8,0:0:0:0:
256,128,154299,1,0,0:0:0:0:
256,128,154466,1,8,0:0:0:0:
256,128,154632,1,0,0:0:0:0:
256,128,154799,1,0,0:0:0:0:
256,128,154966,1,8,0:0:0:0:
256,128,155132,1,0,0:0:0:0:
256,128,155466,1,8,0:0:0:0:
256,128,155632,1,0,0:0:0:0:
256,128,155799,1,8,0:0:0:0:
256,128,155882,1,8,0:0:0:0:
256,128,155966,1,0,0:0:0:0:
256,128,156132,1,8,0:0:0:0:
256,128,156299,1,8,0:0:0:0:
256,128,156466,1,0,0:0:0:0:
256,128,156632,1,0,0:0:0:0:
256,128,156716,1,0,0:0:0:0:
256,128,156799,1,8,0:0:0:0:
256,128,156966,1,0,0:0:0:0:
256,128,157132,1,8,0:0:0:0:
256,128,157299,1,8,0:0:0:0:
256,128,157466,1,0,0:0:0:0:
256,128,157632,1,8,0:0:0:0:
256,128,157799,1,0,0:0:0:0:
256,128,158049,1,0,0:0:0:0:
256,128,158132,1,8,0:0:0:0:
256,128,158382,1,8,0:0:0:0:
256,128,158466,1,0,0:0:0:0:
256,128,158632,1,0,0:0:0:0:
256,128,158799,1,8,0:0:0:0:
256,128,158966,1,8,0:0:0:0:
256,128,159049,1,8,0:0:0:0:
256,128,159132,1,0,0:0:0:0:
256,128,159299,1,0,0:0:0:0:
256,128,159466,1,8,0:0:0:0:
256,128,159632,1,0,0:0:0:0:
256,128,159799,1,8,0:0:0:0:
256,128,159966,1,8,0:0:0:0:
256,128,160132,1,0,0:0:0:0:
256,128,160466,1,0,0:0:0:0:
256,128,160799,1,8,0:0:0:0:
256,128,161049,1,0,0:0:0:0:
256,128,161132,1,8,0:0:0:0:
256,128,161382,1,0,0:0:0:0:
256,128,161466,1,8,0:0:0:0:
256,192,161632,12,0,162466,0:0:0:0:
