osu file format v14

[General]
AudioFilename: Benn Jordan - Lucid Bass III.mp3
AudioLeadIn: 0
PreviewTime: 135934
Countdown: 0
SampleSet: Soft
StackLeniency: 0.2
Mode: 0
LetterboxInBreaks: 0
WidescreenStoryboard: 0

[Editor]
Bookmarks: 14530,32139,63443,73878,94795,100208,125762,136085,156760,204760,214360,252760,269560,271960,310360
DistanceSpacing: 0.9
BeatDivisor: 8
GridSize: 4
TimelineZoom: 2.499998

[Metadata]
Title:Lucid Bass III Live
TitleUnicode:Lucid Bass III Live
Artist:The Flashbulb
ArtistUnicode:The Flashbulb
Creator:Yoges
Version:Master
Source:
Tags:jazz electronic idm hybrid avant garde benn jordan intelligent dance music breakcore 3
BeatmapID:959673
BeatmapSetID:446908

[Difficulty]
HPDrainRate:7
CircleSize:4.4
OverallDifficulty:10
ApproachRate:10
SliderMultiplier:1.7
SliderTickRate:1

[Events]
//Background and Video events
0,0,"lucid bass bg.png",0,0
//Break Periods
2,111617,135645
//Storyboard Layer 0 (Background)
//Storyboard Layer 1 (Fail)
//Storyboard Layer 2 (Pass)
//Storyboard Layer 3 (Foreground)
//Storyboard Sound Samples

[TimingPoints]
840,652.173913043478,4,2,0,50,1,0
6709,-83.3333333333333,4,2,0,50,0,0
8666,-100,4,2,0,50,0,0
94100,695.249130938586,4,2,0,50,1,0
94805,322.58064516129,4,2,0,50,1,0
94805,-66.6666666666667,4,2,0,50,0,0
95450,-133.333333333333,4,2,0,50,0,0
95772,-66.6666666666667,4,2,0,50,0,0
96095,-83.3333333333333,4,2,0,50,0,0
96740,-66.6666666666667,4,2,0,50,0,0
97063,-100,4,2,0,50,0,0
98353,-66.6666666666667,4,2,0,50,0,0
98998,-100,4,2,0,50,0,0
99321,-33.3333333333333,4,2,0,50,0,0
99482,-66.6666666666667,4,2,0,50,0,0
99643,-83.3333333333333,4,2,0,50,0,0
99966,-50,4,2,0,50,0,0
100611,-100,4,2,0,50,0,0
101095,-50,4,2,0,50,0,0
102869,-100,4,2,0,50,0,0
103030,-50,4,2,0,50,0,0
103514,-100,4,2,0,50,0,0
103675,-66.6666666666667,4,2,0,50,0,0
104321,-33.3333333333333,4,2,0,50,0,0
104482,-50,4,2,0,50,0,0
104804,-33.3333333333333,4,2,0,50,0,0
105127,-66.6666666666667,4,2,0,50,0,0
106740,-50,4,2,0,50,0,0
107385,-66.6666666666667,4,2,0,50,0,0
108998,-100,4,2,0,50,0,0
109321,-33.3333333333333,4,2,0,50,0,0
109643,-100,4,2,0,50,0,0
109966,-33.3333333333333,4,2,0,50,0,0
110288,-100,4,2,0,50,0,0
110611,-50,4,2,0,50,0,0
110772,-33.3333333333333,4,2,0,50,0,0
111579,-100,4,2,0,50,0,0
136095,-33.3333333333333,4,2,0,50,0,1
136256,-50,4,2,0,50,0,1
137708,-33.3333333333333,4,2,0,50,0,1
138675,-50,4,2,0,50,0,1
139643,-66.6666666666667,4,2,0,50,0,1
139966,-50,4,2,0,50,0,1
140288,-100,4,2,0,50,0,1
141256,-50,4,2,0,50,0,1
141579,-66.6666666666667,4,2,0,50,0,1
142063,-50,4,2,0,50,0,1
142869,-33.3333333333333,4,2,0,50,0,1
143353,-50,4,2,0,50,0,1
145288,-33.3333333333333,4,2,0,50,0,1
145611,-50,4,2,0,50,0,1
146095,-33.3333333333333,4,2,0,50,0,1
146417,-50,4,2,0,50,0,1
146740,-33.3333333333333,4,2,0,50,0,1
147224,-100,4,2,0,50,0,1
147385,-50,4,2,0,50,0,1
148675,-33.3333333333333,4,2,0,50,0,1
148998,-50,4,2,0,50,0,1
149321,-100,4,2,0,50,0,1
150288,-50,4,2,0,50,0,1
150611,-66.6666666666667,4,2,0,50,0,1
151095,-33.3333333333333,4,2,0,50,0,1
151579,-50,4,2,0,50,0,1
152063,-33.3333333333333,4,2,0,50,0,1
153030,-50,4,2,0,50,0,1
153675,-33.3333333333333,4,2,0,50,0,1
154159,-50,4,2,0,50,0,1
154482,-33.3333333333333,4,2,0,50,0,1
155288,-50,4,2,0,50,0,1
156417,332.502078137988,4,2,0,50,1,1
156755,300,4,2,0,50,1,0
160055,-50,4,2,0,50,0,0
160355,-66.6666666666667,4,2,0,50,0,0
161255,-50,4,2,0,50,0,0
161555,-66.6666666666667,4,2,0,50,0,0
163355,-100,4,2,0,50,0,0
163655,-66.6666666666667,4,2,0,50,0,0
166055,-33.3333333333333,4,2,0,50,0,0
214055,317.040951122853,4,2,0,50,1,0
214375,300,4,2,0,50,1,1
214375,-33.3333333333333,4,2,0,50,0,1
215275,-66.6666666666667,4,2,0,50,0,1
215575,-50,4,2,0,50,0,1
252775,-100,4,2,0,50,0,0
271975,-100,4,2,0,50,0,1
310375,666.666666666667,4,2,0,50,1,0

[Colours]
Combo1 : 47,79,68
Combo2 : 79,176,162
Combo3 : 83,91,172
Combo4 : 132,84,171
Combo5 : 104,140,51
Combo6 : 227,237,238

[HitObjects]
307,275,94805,5,0,0:0:0:0:
401,318,94966,1,0,0:0:0:0:
426,314,95046,1,0,0:0:0:0:
285,358,95127,2,0,P|235:322|226:261,1,127.500004863739
379,201,95450,6,0,L|384:232,1,31.8750012159348
288,185,95611,1,0,0:0:0:0:
263,181,95692,1,0,0:0:0:0:
466,210,95772,6,0,L|452:126,1,85.0000032424928
452,126,95934,2,0,L|438:42,1,85.0000032424928
263,181,96095,6,0,P|218:203|170:190,1,101.999996887207
212,124,96337,1,0,0:0:0:0:
355,180,96417,6,0,P|308:162|262:181,1,101.999996887207
311,245,96659,1,0,0:0:0:0:
169,189,96740,6,0,P|107:183|61:224,1,127.500004863739
134,261,96982,1,0,0:0:0:0:
27,48,97063,6,0,L|35:98,1,42.5
64,116,97224,2,0,L|73:167,1,42.5
16,243,97385,5,0,0:0:0:0:
164,267,97546,1,0,0:0:0:0:
312,243,97708,5,0,0:0:0:0:
163,266,97869,2,0,L|122:260,1,42.5
460,267,98030,5,0,0:0:0:0:
312,243,98191,2,0,L|270:249,1,42.5
412,186,98353,5,0,0:0:0:0:
421,201,98434,2,0,L|294:216,1,127.500004863739
236,146,98675,5,0,0:0:0:0:
219,370,98837,1,0,0:0:0:0:
221,345,98917,1,0,0:0:0:0:
305,200,98998,6,0,L|311:242,1,42.5
325,324,99159,2,0,L|331:366,1,42.5
138,337,99321,6,0,P|97:291|108:230,1,127.500004863739
138,188,99482,2,0,P|108:199|89:224,1,63.7500024318696
167,271,99643,6,0,B|218:262|218:262|232:264|232:264|274:258|274:258|288:260|288:260|318:256,1,152.999995330811
465,98,99966,5,0,0:0:0:0:
382,82,100046,1,0,0:0:0:0:
299,98,100127,1,0,0:0:0:0:
216,82,100208,1,0,0:0:0:0:
119,14,100288,6,0,L|133:102,1,85
36,165,100450,2,0,L|49:81,1,85
162,207,100611,5,0,0:0:0:0:
153,217,100692,2,0,L|145:175,1,42.5
34,254,100853,5,0,0:0:0:0:
25,244,100934,2,0,L|17:285,1,42.5
0,376,101095,6,0,L|84:363,1,85
218,268,101256,6,0,P|273:262|311:368,1,170
253,384,101498,1,0,0:0:0:0:
363,339,101579,2,0,P|360:296|340:260,1,85
230,229,101740,2,0,P|190:244|165:278,1,85,0|0,0:3|0:3,0:3:0:0:
298,74,101901,6,0,L|301:53,7,21.25
253,384,102224,1,0,0:0:0:0:
377,143,102546,5,0,0:0:0:0:
384,184,102627,1,0,0:0:0:0:
392,225,102708,1,0,0:0:0:0:
399,266,102788,1,0,0:0:0:0:
391,307,102869,6,0,L|399:266,1,42.5
391,59,103030,6,0,L|377:143,1,85
289,287,103192,5,0,0:0:0:0:
299,295,103272,1,0,0:0:0:0:
198,276,103353,5,0,0:0:0:0:
208,284,103433,1,0,0:0:0:0:
114,273,103514,6,0,L|71:267,1,42.5
146,170,103675,6,0,L|209:162,1,63.7500024318696
285,39,103837,6,0,P|264:64|257:94,1,63.7500024318696
392,225,103998,2,0,P|360:230|330:221,1,63.7500024318696
368,117,104159,5,0,0:0:0:0:
393,120,104240,1,0,0:0:0:0:
414,123,104321,2,0,L|452:127,4,31.8750012159348
283,127,104482,6,0,L|367:116,1,85
512,97,104643,1,0,0:0:0:0:
224,0,104804,6,0,B|336:14|336:14|342:13|342:13|425:25|425:25|430:28|430:28|475:34,1,255.000009727478
124,31,105127,6,0,P|90:84|108:145,1,127.500004863739
285,160,105450,5,0,0:0:0:0:
290,255,105531,1,0,0:0:0:0:
267,194,105611,5,0,0:0:0:0:
269,225,105692,1,0,0:0:0:0:
348,202,105772,6,0,B|247:235|279:157|163:195,1,191.250007295609
33,375,106095,6,0,P|32:343|41:313,1,63.7500024318696
173,278,106256,2,0,P|196:299|210:328,1,63.7500024318696
54,183,106417,6,0,B|68:48|68:48|106:103,1,191.250007295609
308,217,106740,6,0,B|246:227|246:227|271:223,1,85
124,201,106901,2,0,B|185:190|185:190|160:194,1,85
442,140,107063,6,0,L|429:329,1,170
464,377,107304,1,0,0:0:0:0:
417,283,107385,6,0,L|420:219,1,63.7500024318696
480,146,107546,2,0,L|483:82,1,63.7500024318696
342,55,107708,5,0,0:0:0:0:
326,322,107869,1,0,0:0:0:0:
241,102,108030,5,0,0:0:0:0:
231,262,108191,1,0,0:0:0:0:
114,196,108353,5,0,0:0:0:0:
116,160,108434,1,0,0:0:0:0:
41,30,108595,5,0,0:0:0:0:
49,35,108675,2,0,L|45:111,1,63.7500024318696
18,172,108837,2,0,L|14:235,1,63.7500024318696
277,294,108998,6,0,L|273:238,1,42.5
277,294,109159,2,0,L|273:238,1,42.5
6,365,109321,6,0,P|47:308|116:311,1,127.500004863739
282,372,109643,5,0,0:0:0:0:
417,302,109724,2,0,P|430:341|417:381,1,85
344,230,109966,5,0,0:0:0:0:
353,340,110046,2,0,P|385:231|489:275,1,255.000009727478
147,239,110288,6,0,L|193:236,1,42.5
268,234,110450,1,0,0:0:0:0:
264,244,110530,1,0,0:0:0:0:
63,246,110611,6,0,B|52:216|52:216|52:207|52:207|36:165,1,85
111,37,110772,2,0,B|122:118|122:118|129:127|129:127|134:168,1,127.500004863739
226,168,110934,6,0,L|230:127,8,31.8750012159348
243,0,111256,2,0,L|237:63,4,63.7500024318696
23,242,136095,6,0,P|86:268|104:326,1,127.500004863739
260,251,136256,6,0,L|174:248,1,85
20,326,136417,5,0,0:0:0:0:
211,144,136579,5,0,0:0:0:0:
236,147,136660,1,0,0:0:0:0:
261,148,136740,1,0,0:0:0:0:
286,147,136821,1,0,0:0:0:0:
311,144,136901,1,0,0:0:0:0:
335,136,136982,1,0,0:0:0:0:
394,37,137063,5,0,0:0:0:0:
394,53,137143,1,0,0:0:0:0:
482,111,137224,5,0,0:0:0:0:
480,127,137304,1,0,0:0:0:0:
474,232,137385,6,0,B|414:228|414:228|402:222|402:222|302:216,1,170
315,230,137627,1,0,0:0:0:0:
211,144,137708,6,0,B|219:218|194:202|207:276,1,127.500004863739
246,350,137869,5,0,0:0:0:0:
262,347,137950,1,0,0:0:0:0:
386,325,138030,5,0,0:0:0:0:
402,328,138111,1,0,0:0:0:0:
315,230,138192,6,0,L|286:245,3,31.8750012159348
386,105,138353,6,0,L|385:72,3,31.8750012159348
473,212,138514,6,0,L|500:226,3,31.8750012159348
190,145,138675,6,0,B|146:133|146:133|95:141,1,85
209,50,138837,2,0,B|252:61|252:61|292:55,1,85
115,224,138998,2,0,L|117:283,2,42.5
75,154,139159,5,0,0:0:0:0:
75,179,139240,1,0,0:0:0:0:
76,204,139321,1,0,0:0:0:0:
77,229,139401,1,0,0:0:0:0:
78,254,139482,1,0,0:0:0:0:
79,279,139563,1,0,0:0:0:0:
80,304,139643,6,0,L|83:382,1,63.7500024318696
75,179,139804,1,0,0:0:0:0:
350,278,139966,6,0,P|420:266|442:168,1,170
388,129,140208,1,0,0:0:0:0:
280,238,140288,6,0,L|222:241,3,42.5
177,195,140611,5,0,0:0:0:0:
161,206,140692,1,0,0:0:0:0:
143,214,140772,1,0,0:0:0:0:
124,219,140853,1,0,0:0:0:0:
22,205,140934,5,0,0:0:0:0:
96,191,141014,1,0,0:0:0:0:
165,157,141095,1,0,0:0:0:0:
215,100,141175,1,0,0:0:0:0:
255,225,141256,6,0,B|320:221|320:221|334:225|334:225|424:220,1,170
463,154,141498,1,0,0:0:0:0:
385,265,141579,2,0,L|387:301,2,31.8750012159348
470,345,141740,5,0,0:0:0:0:
483,350,141821,1,0,0:0:0:0:
308,351,141901,5,0,0:0:0:0:
295,356,141982,1,0,0:0:0:0:
400,318,142063,6,0,L|398:233,1,85
303,66,142224,6,0,L|304:104,3,21.25
310,210,142385,6,0,L|311:248,3,21.25
425,125,142546,5,0,0:0:0:0:
452,129,142627,1,0,0:0:0:0:
476,134,142708,2,0,B|442:108|442:108|401:119,1,85
208,138,142869,6,0,B|201:176|201:176|220:224|220:224|214:260,1,127.500004863739
458,316,143030,5,0,0:0:0:0:
477,314,143111,1,0,0:0:0:0:
289,336,143192,5,0,0:0:0:0:
270,338,143273,1,0,0:0:0:0:
305,148,143353,6,0,L|348:153,2,42.5
496,170,143514,6,0,L|470:203,2,42.5
393,365,143675,6,0,L|374:325,2,42.5
208,138,143837,6,0,L|199:222,1,85
190,300,143998,1,0,0:0:0:0:
113,88,144159,5,0,0:0:0:0:
184,60,144280,5,0,0:0:0:0:
260,60,144401,5,0,0:0:0:0:
333,82,144522,5,0,0:0:0:0:
409,83,144643,6,0,P|430:80|450:74,2,42.5
219,221,144804,6,0,L|221:262,3,21.25
181,312,144966,5,0,0:0:0:0:
156,307,145046,1,0,0:0:0:0:
127,215,145127,6,0,L|131:300,1,85
90,125,145288,6,0,L|95:252,1,127.500004863739
277,142,145450,6,0,P|359:102|366:66,1,127.500004863739
194,115,145611,5,0,0:0:0:0:
177,109,145692,1,0,0:0:0:0:
161,103,145772,1,0,0:0:0:0:
144,97,145853,1,0,0:0:0:0:
127,92,145934,2,0,B|85:80|85:80|45:91,1,85
60,257,146095,6,0,L|62:289,7,31.8750012159348
93,180,146337,1,0,0:0:0:0:
105,358,146417,6,0,B|195:371|186:327|274:343,1,170
341,375,146659,1,0,0:0:0:0:
441,241,146740,6,0,P|391:214|373:267,1,127.500004863739
460,346,146901,6,0,P|475:342|491:341,3,31.8750012159348
278,255,147063,5,0,0:0:0:0:
260,256,147143,1,0,0:0:0:0:
243,256,147224,2,0,L|202:258,2,21.25
119,148,147385,6,0,B|175:143|175:143|234:163|234:163|291:159,1,170
362,153,147627,1,0,0:0:0:0:
362,67,147708,6,0,B|370:33|393:13|393:13|415:20,1,85
378,237,147869,2,0,B|386:271|409:291|409:291|431:284,1,85
287,40,148030,6,0,B|235:36|235:36|176:55|176:55|120:51,1,170
43,43,148272,1,0,0:0:0:0:
44,60,148353,1,0,0:0:0:0:
183,200,148514,1,0,0:0:0:0:
32,310,148675,6,0,L|-1:308,11,31.8750012159348
233,331,148998,6,0,P|313:319|346:245,1,170
333,169,149240,1,0,0:0:0:0:
183,200,149321,6,0,L|124:202,3,42.5
239,121,149643,5,0,0:0:0:0:
238,104,149724,1,0,0:0:0:0:
237,88,149804,1,0,0:0:0:0:
236,71,149885,1,0,0:0:0:0:
147,141,149966,5,0,0:0:0:0:
154,71,150087,5,0,0:0:0:0:
161,1,150208,5,0,0:0:0:0:
236,71,150288,6,0,B|330:90|312:43|403:59,1,170
476,78,150530,1,0,0:0:0:0:
323,109,150611,6,0,L|320:155,2,31.8750012159348
395,207,150772,5,0,0:0:0:0:
413,202,150853,1,0,0:0:0:0:
264,251,150934,5,0,0:0:0:0:
246,246,151015,1,0,0:0:0:0:
412,337,151095,6,0,L|416:368,3,31.8750012159348
429,100,151256,6,0,L|431:68,3,31.8750012159348
508,232,151417,6,0,L|512:263,3,31.8750012159348
320,140,151579,6,0,B|264:145|264:145|251:141|251:141|146:149,1,170
126,219,151821,1,0,0:0:0:0:
52,78,151901,6,0,L|46:31,2,42.5
20,197,152063,6,0,L|9:243,4,31.8750012159348
151,148,152224,5,0,0:0:0:0:
152,173,152304,1,0,0:0:0:0:
155,198,152385,1,0,0:0:0:0:
156,223,152466,1,0,0:0:0:0:
62,298,152546,5,0,0:0:0:0:
77,287,152627,1,0,0:0:0:0:
252,295,152708,5,0,0:0:0:0:
237,284,152789,1,0,0:0:0:0:
129,345,152869,6,0,L|-14:341,1,127.500004863739
24,362,153030,6,0,L|109:365,1,85
265,379,153192,6,0,P|362:324|288:242,1,255
113,150,153514,6,0,L|161:147,2,42.5
274,40,153675,6,0,L|305:38,3,31.8750012159348
402,194,153837,5,0,0:0:0:0:
191,335,154159,6,0,B|122:330|122:330|109:336|109:336|23:331,1,170
39,350,154401,1,0,0:0:0:0:
82,223,154482,6,0,L|209:216,1,127.500004863739
337,224,154643,5,0,0:0:0:0:
317,225,154724,1,0,0:0:0:0:
280,138,154804,5,0,0:0:0:0:
260,139,154885,1,0,0:0:0:0:
220,44,154966,6,0,P|160:53|145:112,1,127.500004863739
326,65,155127,6,0,B|374:63|374:63|391:70|391:70|408:61|408:61|451:59,1,127.500004863739
211,172,155288,6,0,L|296:169,1,85
82,223,155450,6,0,B|73:269|73:269|82:323,1,85
43,110,155611,2,0,B|52:64|52:64|43:10,1,85
198,274,155772,6,0,B|289:248|277:296|365:271,1,170
437,246,156014,1,0,0:0:0:0:
296,169,156095,6,0,P|225:202|260:268,1,170
374,11,156417,5,0,0:0:0:0:
