osu file format v14

[General]
AudioFilename: audio.mp3
AudioLeadIn: 0
PreviewTime: 82738
Countdown: 0
SampleSet: Normal
StackLeniency: 0.2
Mode: 1
LetterboxInBreaks: 0
WidescreenStoryboard: 1

[Editor]
Bookmarks: 56932,62093,67254,72416
DistanceSpacing: 0.8
BeatDivisor: 6
GridSize: 32
TimelineZoom: 2.4

[Metadata]
Title:Lawn Wake IX
TitleUnicode:Lawn Wake IX
Artist:The Flashbulb
ArtistUnicode:The Flashbulb
Creator:iceOC
Version:Oni
Source:osu!
Tags:featured artist fa mappers' guild mg electronic breakcore instrumental kirlian selections benn jordan
BeatmapID:2691865
BeatmapSetID:966060

[Difficulty]
HPDrainRate:5.5
CircleSize:2
OverallDifficulty:5.5
ApproachRate:10
SliderMultiplier:1.4
SliderTickRate:1

[Events]
//Background and Video events
0,0,"BG.jpg",0,0
//Break Periods
2,47782,56487
2,108750,113261
//Storyboard Layer 0 (Background)
//Storyboard Layer 1 (Fail)
//Storyboard Layer 2 (Pass)
//Storyboard Layer 3 (Foreground)
//Storyboard Layer 4 (Overlay)
//Storyboard Sound Samples

[TimingPoints]
163,322.58064516129,4,1,0,100,1,0
82743,-100,4,1,0,100,0,1
93388,-100,4,1,0,100,0,0
134356,-100,4,1,0,100,0,1
149840,-100,4,1,0,100,0,0

[HitObjects]
256,192,163,5,0,0:0:0:0:
256,192,324,1,8,0:0:0:0:
256,192,404,1,8,0:0:0:0:
256,192,485,1,8,0:0:0:0:
256,192,646,1,0,0:0:0:0:
256,192,1130,1,8,0:0:0:0:
256,192,1453,1,0,0:0:0:0:
256,192,1775,1,8,0:0:0:0:
256,192,2421,1,8,0:0:0:0:
256,192,2743,1,0,0:0:0:0:
256,192,3066,1,8,0:0:0:0:
256,192,3227,1,0,0:0:0:0:
256,192,3308,1,0,0:0:0:0:
256,192,3388,1,0,0:0:0:0:
256,192,3550,1,8,0:0:0:0:
256,192,4033,1,8,0:0:0:0:
256,192,4195,1,8,0:0:0:0:
256,192,4356,1,0,0:0:0:0:
256,192,5001,1,8,0:0:0:0:
256,192,5324,1,0,0:0:0:0:
256,192,5485,1,8,0:0:0:0:
256,192,5566,1,8,0:0:0:0:
256,192,5646,1,8,0:0:0:0:
256,192,5808,1,0,0:0:0:0:
256,192,6292,1,8,0:0:0:0:
256,192,6614,1,0,0:0:0:0:
256,192,6937,1,8,0:0:0:0:
256,192,7017,1,8,0:0:0:0:
256,192,7098,1,8,0:0:0:0:
256,192,7179,1,8,0:0:0:0:
256,192,7259,1,0,0:0:0:0:
256,192,7582,1,8,0:0:0:0:
256,192,7904,1,0,0:0:0:0:
256,192,8227,1,8,0:0:0:0:
256,192,8388,1,0,0:0:0:0:
256,192,8469,1,0,0:0:0:0:
256,192,8550,1,0,0:0:0:0:
256,192,8711,1,8,0:0:0:0:
256,192,9356,1,8,0:0:0:0:
256,192,9517,1,8,0:0:0:0:
256,192,9840,1,0,0:0:0:0:
256,192,10162,1,8,0:0:0:0:
256,192,10324,1,8,0:0:0:0:
256,192,10485,1,0,0:0:0:0:
256,192,10646,1,8,0:0:0:0:
256,192,10727,1,8,0:0:0:0:
256,192,10808,1,8,0:0:0:0:
256,192,10969,1,0,0:0:0:0:
256,192,11453,1,8,0:0:0:0:
256,192,11775,1,0,0:0:0:0:
256,192,12098,1,8,0:0:0:0:
256,192,12743,1,8,0:0:0:0:
256,192,13066,1,0,0:0:0:0:
256,192,13227,1,8,0:0:0:0:
256,192,13388,1,0,0:0:0:0:
256,192,13550,1,0,0:0:0:0:
256,192,13630,1,0,0:0:0:0:
256,192,13711,1,8,0:0:0:0:
256,192,13872,1,8,0:0:0:0:
256,192,14033,1,0,0:0:0:0:
256,192,14356,1,0,0:0:0:0:
256,192,14517,1,8,0:0:0:0:
256,192,14679,1,0,0:0:0:0:
256,192,15162,1,0,0:0:0:0:
256,192,15243,1,0,0:0:0:0:
256,192,15324,1,8,0:0:0:0:
256,192,15646,1,0,0:0:0:0:
256,192,15808,1,8,0:0:0:0:
256,192,15888,1,8,0:0:0:0:
256,192,15969,1,0,0:0:0:0:
256,192,16130,1,8,0:0:0:0:
256,192,16614,1,8,0:0:0:0:
256,192,16937,1,0,0:0:0:0:
256,192,17259,1,8,0:0:0:0:
256,192,17904,1,8,0:0:0:0:
256,192,18227,1,0,0:0:0:0:
256,192,18550,1,8,0:0:0:0:
256,192,18711,1,0,0:0:0:0:
256,192,18791,1,0,0:0:0:0:
256,192,18872,1,8,0:0:0:0:
256,192,19033,1,8,0:0:0:0:
256,192,19195,1,0,0:0:0:0:
256,192,19517,1,8,0:0:0:0:
256,192,19679,1,0,0:0:0:0:
256,192,19759,1,0,0:0:0:0:
256,192,19840,1,0,0:0:0:0:
256,192,20001,1,8,0:0:0:0:
256,192,20324,1,0,0:0:0:0:
256,192,20485,1,8,0:0:0:0:
256,192,20566,1,8,0:0:0:0:
256,192,20646,1,8,0:0:0:0:
256,192,20727,1,8,0:0:0:0:
256,192,20808,1,0,0:0:0:0:
256,192,20969,1,8,0:0:0:0:
256,192,21050,1,8,0:0:0:0:
256,192,21130,1,8,0:0:0:0:
256,192,21292,1,0,0:0:0:0:
256,192,21453,1,8,0:0:0:0:
256,192,21614,1,8,0:0:0:0:
256,192,21775,1,0,0:0:0:0:
256,192,22098,1,0,0:0:0:0:
256,192,22421,1,8,0:0:0:0:
256,192,23066,1,8,0:0:0:0:
256,192,23388,1,0,0:0:0:0:
256,192,23711,1,0,0:0:0:0:
256,192,23872,1,8,0:0:0:0:
256,192,24033,1,0,0:0:0:0:
256,192,24114,1,0,0:0:0:0:
256,192,24195,1,8,0:0:0:0:
256,192,24356,1,8,0:0:0:0:
256,192,24679,1,0,0:0:0:0:
256,192,24840,1,8,0:0:0:0:
256,192,25001,1,0,0:0:0:0:
256,192,25324,1,8,0:0:0:0:
256,192,25485,1,0,0:0:0:0:
256,192,25566,1,0,0:0:0:0:
256,192,25646,1,0,0:0:0:0:
256,192,25808,1,8,0:0:0:0:
256,192,25969,1,0,0:0:0:0:
256,192,26130,1,8,0:0:0:0:
256,192,26211,1,8,0:0:0:0:
256,192,26292,1,8,0:0:0:0:
256,192,26453,1,0,0:0:0:0:
256,192,26775,1,0,0:0:0:0:
256,192,26937,1,8,0:0:0:0:
256,192,27098,1,0,0:0:0:0:
256,192,27179,1,0,0:0:0:0:
256,192,27259,1,8,0:0:0:0:
256,192,27421,1,0,0:0:0:0:
256,192,27501,1,8,0:0:0:0:
256,192,27582,1,8,0:0:0:0:
256,192,27743,1,0,0:0:0:0:
256,192,27904,1,8,0:0:0:0:
256,192,28146,1,8,0:0:0:0:
256,192,28227,1,8,0:0:0:0:
256,192,28388,1,8,0:0:0:0:
256,192,28550,1,0,0:0:0:0:
256,192,28872,1,8,0:0:0:0:
256,192,29033,1,0,0:0:0:0:
256,192,29114,1,0,0:0:0:0:
256,192,29195,1,0,0:0:0:0:
256,192,29356,1,8,0:0:0:0:
256,192,29437,1,8,0:0:0:0:
256,192,29517,1,0,0:0:0:0:
256,192,29679,1,8,0:0:0:0:
256,192,29840,1,0,0:0:0:0:
256,192,29921,1,0,0:0:0:0:
256,192,30001,1,8,0:0:0:0:
256,192,30162,1,0,0:0:0:0:
256,192,30324,1,0,0:0:0:0:
256,192,30485,1,8,0:0:0:0:
252,185,30566,1,0,0:0:0:0:
252,185,30646,1,8,0:0:0:0:
256,192,30727,1,0,0:0:0:0:
256,192,30808,1,8,0:0:0:0:
256,192,31130,1,0,0:0:0:0:
256,192,31292,1,8,0:0:0:0:
256,192,31372,1,8,0:0:0:0:
256,192,31453,1,0,0:0:0:0:
256,192,31614,1,0,0:0:0:0:
256,192,31937,1,0,0:0:0:0:
256,192,32098,1,8,0:0:0:0:
256,192,32259,1,8,0:0:0:0:
256,192,32340,1,0,0:0:0:0:
256,192,32421,1,8,0:0:0:0:
256,192,32582,1,8,0:0:0:0:
256,192,32662,1,0,0:0:0:0:
256,192,32743,1,8,0:0:0:0:
256,192,32904,1,0,0:0:0:0:
256,192,32985,1,8,0:0:0:0:
256,192,33066,1,8,0:0:0:0:
256,192,33227,1,0,0:0:0:0:
256,192,33308,1,8,0:0:0:0:
256,192,33388,1,8,0:0:0:0:
256,192,33550,1,0,0:0:0:0:
256,192,33711,1,0,0:0:0:0:
256,192,33792,1,0,0:0:0:0:
256,192,33872,1,0,0:0:0:0:
256,192,33953,1,0,0:0:0:0:
256,192,34033,1,0,0:0:0:0:
256,192,34195,1,0,0:0:0:0:
256,192,34356,1,8,0:0:0:0:
256,192,34679,1,0,0:0:0:0:
256,192,34759,1,0,0:0:0:0:
256,192,34840,1,8,0:0:0:0:
256,192,35001,1,8,0:0:0:0:
256,192,35162,1,8,0:0:0:0:
256,192,35243,1,0,0:0:0:0:
256,192,35324,1,0,0:0:0:0:
256,192,35646,1,8,0:0:0:0:
256,192,35969,1,0,0:0:0:0:
256,192,36130,1,8,0:0:0:0:
256,192,36292,1,0,0:0:0:0:
256,192,36453,1,0,0:0:0:0:
256,192,36533,1,0,0:0:0:0:
256,192,36614,1,8,0:0:0:0:
256,192,36775,1,0,0:0:0:0:
256,192,36937,1,0,0:0:0:0:
256,192,37259,1,0,0:0:0:0:
256,192,37582,1,8,0:0:0:0:
256,192,37904,1,8,0:0:0:0:
256,192,38066,1,0,0:0:0:0:
256,192,38227,1,8,0:0:0:0:
256,192,38388,1,8,0:0:0:0:
256,192,38550,1,0,0:0:0:0:
256,192,38711,1,8,0:0:0:0:
256,192,38872,1,0,0:0:0:0:
256,192,39033,1,0,0:0:0:0:
256,192,39195,1,8,0:0:0:0:
256,192,39356,1,0,0:0:0:0:
256,192,39437,1,0,0:0:0:0:
256,192,39517,1,0,0:0:0:0:
256,192,39679,1,0,0:0:0:0:
256,192,39840,1,8,0:0:0:0:
256,192,40001,1,8,0:0:0:0:
256,192,40082,1,8,0:0:0:0:
256,192,40162,1,0,0:0:0:0:
256,192,40324,1,0,0:0:0:0:
256,192,40404,1,8,0:0:0:0:
256,192,40485,1,0,0:0:0:0:
256,192,40646,1,0,0:0:0:0:
256,192,40808,1,8,0:0:0:0:
256,192,40969,1,8,0:0:0:0:
256,192,41130,1,0,0:0:0:0:
256,192,41211,1,8,0:0:0:0:
256,192,41292,1,0,0:0:0:0:
256,192,41372,1,8,0:0:0:0:
256,192,41453,1,0,0:0:0:0:
256,192,42582,12,0,43872,0:0:0:0:
256,192,44033,5,8,0:0:0:0:
256,192,44195,1,0,0:0:0:0:
256,192,44356,1,0,0:0:0:0:
256,192,44517,1,8,0:0:0:0:
256,192,44679,1,0,0:0:0:0:
256,192,44759,1,0,0:0:0:0:
256,192,44840,1,8,0:0:0:0:
256,192,44921,1,8,0:0:0:0:
256,192,45001,1,0,0:0:0:0:
256,192,45162,1,8,0:0:0:0:
256,192,45324,1,0,0:0:0:0:
256,192,45404,1,0,0:0:0:0:
256,192,45485,1,8,0:0:0:0:
256,192,45646,1,0,0:0:0:0:
256,192,45808,1,8,0:0:0:0:
256,192,45969,1,0,0:0:0:0:
256,192,46130,1,0,0:0:0:0:
256,192,46211,1,0,0:0:0:0:
256,192,46292,1,8,0:0:0:0:
256,192,46372,1,8,0:0:0:0:
256,192,46453,1,0,0:0:0:0:
256,192,46614,1,0,0:0:0:0:
256,192,47501,1,0,0:0:0:0:
256,192,47582,1,0,0:0:0:0:
256,192,56937,5,0,0:0:0:0:
256,192,57259,1,8,0:0:0:0:
256,192,57582,1,0,0:0:0:0:
256,192,57743,1,0,0:0:0:0:
256,192,57904,1,8,0:0:0:0:
256,192,58227,1,0,0:0:0:0:
256,192,58550,1,8,0:0:0:0:
256,192,58711,1,0,0:0:0:0:
256,192,58792,1,0,0:0:0:0:
256,192,58872,1,0,0:0:0:0:
256,192,59033,1,0,0:0:0:0:
256,192,59195,1,8,0:0:0:0:
256,192,59517,1,0,0:0:0:0:
256,192,59840,1,8,0:0:0:0:
256,192,60162,1,0,0:0:0:0:
256,192,60324,1,0,0:0:0:0:
256,192,60485,1,8,0:0:0:0:
256,192,60727,1,8,0:0:0:0:
256,192,60808,1,0,0:0:0:0:
256,192,61130,1,8,0:0:0:0:
256,192,61292,1,8,0:0:0:0:
256,192,61372,1,8,0:0:0:0:
256,192,61453,1,0,0:0:0:0:
256,192,61614,1,0,0:0:0:0:
256,192,61775,1,8,0:0:0:0:
256,192,62098,1,0,0:0:0:0:
256,192,62421,1,8,0:0:0:0:
256,192,62743,1,0,0:0:0:0:
256,192,62904,1,0,0:0:0:0:
256,192,62985,1,0,0:0:0:0:
256,192,63066,1,8,0:0:0:0:
256,192,63227,1,8,0:0:0:0:
256,192,63388,1,0,0:0:0:0:
256,192,63550,1,0,0:0:0:0:
256,192,63711,1,8,0:0:0:0:
256,192,63832,1,8,0:0:0:0:
256,192,63953,1,8,0:0:0:0:
256,192,64033,1,0,0:0:0:0:
256,192,64195,1,0,0:0:0:0:
256,192,64356,1,8,0:0:0:0:
256,192,64679,1,0,0:0:0:0:
256,192,65001,1,8,0:0:0:0:
256,192,65082,1,8,0:0:0:0:
256,192,65162,1,8,0:0:0:0:
256,192,65243,1,8,0:0:0:0:
256,192,65324,1,0,0:0:0:0:
256,192,65485,1,0,0:0:0:0:
256,192,65646,1,8,0:0:0:0:
256,192,65727,1,8,0:0:0:0:
256,192,65808,1,0,0:0:0:0:
256,192,65969,1,0,0:0:0:0:
256,192,66292,1,8,0:0:0:0:
256,192,66453,1,0,0:0:0:0:
256,192,66695,1,8,0:0:0:0:
256,192,66775,1,0,0:0:0:0:
256,192,66937,1,8,0:0:0:0:
256,192,67098,1,8,0:0:0:0:
256,192,67259,1,0,0:0:0:0:
256,192,67582,1,8,0:0:0:0:
256,192,67743,1,0,0:0:0:0:
256,192,67985,1,8,0:0:0:0:
256,192,68066,1,0,0:0:0:0:
256,192,68227,1,0,0:0:0:0:
256,192,68388,1,8,0:0:0:0:
256,192,68469,1,8,0:0:0:0:
256,192,68550,1,0,0:0:0:0:
256,192,68711,1,0,0:0:0:0:
256,192,68872,1,8,0:0:0:0:
256,192,69114,1,8,0:0:0:0:
256,192,69195,1,0,0:0:0:0:
256,192,69356,1,0,0:0:0:0:
256,192,69437,1,0,0:0:0:0:
256,192,69517,1,8,0:0:0:0:
256,192,69759,1,8,0:0:0:0:
256,192,69840,1,0,0:0:0:0:
256,192,69921,1,8,0:0:0:0:
256,192,70001,1,0,0:0:0:0:
256,192,70162,1,8,0:0:0:0:
256,192,70485,1,0,0:0:0:0:
256,192,70646,1,0,0:0:0:0:
256,192,70808,1,8,0:0:0:0:
256,192,71130,1,0,0:0:0:0:
256,192,71251,1,0,0:0:0:0:
256,192,71372,1,0,0:0:0:0:
256,192,71453,1,8,0:0:0:0:
256,192,71614,1,8,0:0:0:0:
256,192,71695,1,8,0:0:0:0:
256,192,71775,1,0,0:0:0:0:
256,192,71937,1,0,0:0:0:0:
256,192,72098,1,8,0:0:0:0:
256,192,72340,1,0,0:0:0:0:
256,192,72421,1,0,0:0:0:0:
256,192,72662,1,8,0:0:0:0:
256,192,72743,1,8,0:0:0:0:
256,192,73066,1,0,0:0:0:0:
256,192,73227,1,0,0:0:0:0:
256,192,73388,1,8,0:0:0:0:
256,192,73550,1,8,0:0:0:0:
256,192,73630,1,8,0:0:0:0:
256,192,73711,1,0,0:0:0:0:
256,192,73792,1,0,0:0:0:0:
256,192,73872,1,8,0:0:0:0:
256,192,73953,1,8,0:0:0:0:
256,192,74033,1,0,0:0:0:0:
256,192,74356,1,0,0:0:0:0:
256,192,74679,1,8,0:0:0:0:
256,192,75001,1,0,0:0:0:0:
256,192,75082,1,0,0:0:0:0:
256,192,75162,1,0,0:0:0:0:
256,192,75324,1,8,0:0:0:0:
256,192,75566,1,8,0:0:0:0:
256,192,75646,1,0,0:0:0:0:
256,192,75808,1,0,0:0:0:0:
256,192,75969,1,8,0:0:0:0:
256,192,76292,1,0,0:0:0:0:
256,192,76614,1,8,0:0:0:0:
256,192,76695,1,8,0:0:0:0:
256,192,76775,1,0,0:0:0:0:
256,192,76856,1,0,0:0:0:0:
256,192,77017,1,8,0:0:0:0:
256,192,77098,1,0,0:0:0:0:
256,192,77259,1,8,0:0:0:0:
256,192,77582,1,0,0:0:0:0:
256,192,77904,1,8,0:0:0:0:
256,192,78146,1,8,0:0:0:0:
256,192,78388,1,8,0:0:0:0:
256,192,78630,1,8,0:0:0:0:
256,192,78872,1,0,0:0:0:0:
256,192,79114,1,0,0:0:0:0:
256,192,79195,1,8,0:0:0:0:
256,192,79356,1,8,0:0:0:0:
256,192,79437,1,8,0:0:0:0:
256,192,79517,1,0,0:0:0:0:
256,192,79598,1,8,0:0:0:0:
256,192,79840,1,8,0:0:0:0:
256,192,79921,1,8,0:0:0:0:
256,192,80001,1,0,0:0:0:0:
256,192,80162,1,0,0:0:0:0:
256,192,80485,1,8,0:0:0:0:
256,192,80646,1,0,0:0:0:0:
256,192,80808,1,0,0:0:0:0:
256,192,80888,1,0,0:0:0:0:
256,192,80969,1,8,0:0:0:0:
256,192,81130,1,8,0:0:0:0:
256,192,81292,1,8,0:0:0:0:
256,192,81453,1,0,0:0:0:0:
256,192,81533,1,0,0:0:0:0:
256,192,81614,1,8,0:0:0:0:
256,192,81694,1,8,0:0:0:0:
256,192,81775,1,0,0:0:0:0:
256,192,81856,1,0,0:0:0:0:
256,192,81937,1,8,0:0:0:0:
256,192,82098,1,0,0:0:0:0:
256,192,82179,1,8,0:0:0:0:
256,192,82340,1,0,0:0:0:0:
256,192,82421,1,8,0:0:0:0:
256,192,82582,1,8,0:0:0:0:
256,192,82743,1,4,0:0:0:0:
256,192,82904,1,8,0:0:0:0:
256,192,82985,1,8,0:0:0:0:
256,192,83066,1,8,0:0:0:0:
256,192,83227,1,0,0:0:0:0:
256,192,83469,1,8,0:0:0:0:
256,192,83550,1,0,0:0:0:0:
256,192,83711,1,8,0:0:0:0:
256,192,84033,1,0,0:0:0:0:
256,192,84195,1,0,0:0:0:0:
256,192,84275,1,0,0:0:0:0:
256,192,84356,1,8,0:0:0:0:
256,192,84517,1,8,0:0:0:0:
256,192,84598,1,0,0:0:0:0:
256,192,84840,1,0,0:0:0:0:
256,192,85001,1,8,0:0:0:0:
256,192,85324,1,0,0:0:0:0:
256,192,85485,1,0,0:0:0:0:
256,192,85646,1,8,0:0:0:0:
256,192,85808,1,0,0:0:0:0:
256,192,85888,1,8,0:0:0:0:
256,192,86050,1,0,0:0:0:0:
256,192,86130,1,0,0:0:0:0:
256,192,86292,1,8,0:0:0:0:
256,192,86614,1,0,0:0:0:0:
256,192,86775,1,0,0:0:0:0:
256,192,86856,1,0,0:0:0:0:
256,192,86937,1,8,0:0:0:0:
256,192,87098,1,0,0:0:0:0:
256,192,87179,1,8,0:0:0:0:
256,192,87421,1,0,0:0:0:0:
256,192,87582,1,8,0:0:0:0:
256,192,87662,1,8,0:0:0:0:
256,192,87743,1,8,0:0:0:0:
256,192,87824,1,8,0:0:0:0:
256,192,87904,1,0,0:0:0:0:
256,192,88066,1,8,0:0:0:0:
256,192,88146,1,8,0:0:0:0:
256,192,88227,1,8,0:0:0:0:
256,192,88388,1,0,0:0:0:0:
256,192,88630,1,0,0:0:0:0:
256,192,88711,1,8,0:0:0:0:
256,192,88872,1,0,0:0:0:0:
256,192,89033,1,8,0:0:0:0:
256,192,89114,1,8,0:0:0:0:
256,192,89195,1,0,0:0:0:0:
256,192,89437,1,0,0:0:0:0:
256,192,89517,1,8,0:0:0:0:
256,192,89679,1,8,0:0:0:0:
256,192,89840,1,0,0:0:0:0:
256,192,89921,1,0,0:0:0:0:
256,192,90001,1,0,0:0:0:0:
256,192,90082,1,0,0:0:0:0:
256,192,90162,1,8,0:0:0:0:
256,192,90324,1,8,0:0:0:0:
256,192,90485,1,0,0:0:0:0:
256,192,90808,1,8,0:0:0:0:
256,192,90969,1,8,0:0:0:0:
256,192,91050,1,8,0:0:0:0:
256,192,91130,1,0,0:0:0:0:
256,192,91292,1,0,0:0:0:0:
256,192,91453,1,8,0:0:0:0:
256,192,91574,1,8,0:0:0:0:
256,192,91695,1,8,0:0:0:0:
256,192,91816,1,8,0:0:0:0:
256,192,91937,1,8,0:0:0:0:
256,192,92058,1,8,0:0:0:0:
256,192,92421,1,8,0:0:0:0:
256,192,92501,1,0,0:0:0:0:
256,192,92582,1,0,0:0:0:0:
256,192,92743,1,8,0:0:0:0:
256,192,92824,1,8,0:0:0:0:
256,192,92904,1,0,0:0:0:0:
256,192,93066,1,8,0:0:0:0:
256,192,93388,12,0,98066,0:0:0:0:
256,192,98227,5,0,0:0:0:0:
256,192,98550,1,8,0:0:0:0:
256,192,99195,1,0,0:0:0:0:
256,192,99679,1,8,0:0:0:0:
256,192,99840,1,0,0:0:0:0:
256,192,100162,1,8,0:0:0:0:
256,192,100646,1,0,0:0:0:0:
256,192,101130,1,8,0:0:0:0:
256,192,101614,1,0,0:0:0:0:
256,192,101775,1,8,0:0:0:0:
256,192,102098,1,0,0:0:0:0:
256,192,102421,1,8,0:0:0:0:
256,192,102582,1,0,0:0:0:0:
256,192,102904,1,0,0:0:0:0:
256,192,103066,1,8,0:0:0:0:
256,192,103388,1,0,0:0:0:0:
256,192,103711,1,8,0:0:0:0:
256,192,104356,1,0,0:0:0:0:
256,192,104840,1,8,0:0:0:0:
256,192,105001,1,0,0:0:0:0:
256,192,105323,1,8,0:0:0:0:
256,192,105646,1,0,0:0:0:0:
256,192,105808,1,8,0:0:0:0:
256,192,106130,1,8,0:0:0:0:
256,192,106291,1,0,0:0:0:0:
256,192,106775,1,0,0:0:0:0:
256,192,106936,1,8,0:0:0:0:
256,192,107259,1,8,0:0:0:0:
256,192,107582,1,0,0:0:0:0:
256,192,107743,1,0,0:0:0:0:
256,192,108227,1,8,0:0:0:0:
256,192,108550,1,0,0:0:0:0:
256,192,113711,5,0,0:0:0:0:
256,192,114195,1,0,0:0:0:0:
256,192,114275,1,0,0:0:0:0:
256,192,114356,1,8,0:0:0:0:
256,192,114679,1,0,0:0:0:0:
256,192,114759,1,0,0:0:0:0:
256,192,114840,1,0,0:0:0:0:
256,192,115001,1,0,0:0:0:0:
256,192,115485,1,0,0:0:0:0:
256,192,115646,1,8,0:0:0:0:
256,192,115808,1,0,0:0:0:0:
256,192,115889,1,8,0:0:0:0:
256,192,115969,1,0,0:0:0:0:
256,192,116130,1,8,0:0:0:0:
256,192,116292,1,0,0:0:0:0:
256,192,116372,1,0,0:0:0:0:
256,192,116453,1,8,0:0:0:0:
256,192,116614,1,0,0:0:0:0:
256,192,116937,1,0,0:0:0:0:
256,192,117017,1,0,0:0:0:0:
256,192,117098,1,0,0:0:0:0:
256,192,117259,1,8,0:0:0:0:
256,192,117582,1,0,0:0:0:0:
256,192,117904,1,0,0:0:0:0:
256,192,118066,1,0,0:0:0:0:
256,192,118146,1,0,0:0:0:0:
256,192,118227,1,8,0:0:0:0:
256,192,118388,1,0,0:0:0:0:
256,192,118550,1,8,0:0:0:0:
256,192,118872,1,0,0:0:0:0:
256,192,118953,1,0,0:0:0:0:
256,192,119033,1,0,0:0:0:0:
256,192,119195,1,8,0:0:0:0:
256,192,119356,1,0,0:0:0:0:
256,192,119437,1,8,0:0:0:0:
256,192,119517,1,0,0:0:0:0:
256,192,119679,1,0,0:0:0:0:
256,192,119840,1,8,0:0:0:0:
256,192,120162,1,0,0:0:0:0:
256,192,120324,1,0,0:0:0:0:
256,192,120485,1,8,0:0:0:0:
256,192,120646,1,0,0:0:0:0:
256,192,120727,1,8,0:0:0:0:
256,192,120808,1,0,0:0:0:0:
256,192,120969,1,0,0:0:0:0:
256,192,121130,1,8,0:0:0:0:
256,192,121453,1,0,0:0:0:0:
256,192,121775,1,8,0:0:0:0:
256,192,121856,1,8,0:0:0:0:
256,192,121937,1,0,0:0:0:0:
256,192,122017,1,0,0:0:0:0:
256,192,122098,1,8,0:0:0:0:
256,192,122259,1,0,0:0:0:0:
256,192,122340,1,0,0:0:0:0:
256,192,122421,1,8,0:0:0:0:
256,192,122501,1,8,0:0:0:0:
256,192,122582,1,8,0:0:0:0:
256,192,122662,1,8,0:0:0:0:
256,192,122743,1,0,0:0:0:0:
256,192,123066,1,8,0:0:0:0:
256,192,123146,1,8,0:0:0:0:
256,192,123227,1,8,0:0:0:0:
256,192,123388,1,0,0:0:0:0:
256,192,123550,1,0,0:0:0:0:
256,192,123711,1,8,0:0:0:0:
256,192,123792,1,0,0:0:0:0:
256,192,123872,1,8,0:0:0:0:
256,192,124033,1,0,0:0:0:0:
256,192,124154,1,0,0:0:0:0:
256,192,124275,1,0,0:0:0:0:
256,192,124356,1,8,0:0:0:0:
256,192,124517,1,0,0:0:0:0:
256,192,124679,1,0,0:0:0:0:
256,192,124800,1,0,0:0:0:0:
256,192,124921,1,0,0:0:0:0:
256,192,125001,1,8,0:0:0:0:
256,192,125324,1,0,0:0:0:0:
256,192,125808,1,8,0:0:0:0:
256,192,125969,1,0,0:0:0:0:
256,192,126292,1,12,0:0:0:0:
256,192,127259,1,8,0:0:0:0:
256,192,127582,1,0,0:0:0:0:
256,192,127904,1,0,0:0:0:0:
256,192,128550,1,8,0:0:0:0:
256,192,128872,1,0,0:0:0:0:
256,192,128926,1,0,0:0:0:0:
256,192,128980,1,0,0:0:0:0:
256,192,129033,1,0,0:0:0:0:
256,192,129195,1,0,0:0:0:0:
256,192,129356,1,0,0:0:0:0:
256,192,129517,1,8,0:0:0:0:
256,192,129840,1,0,0:0:0:0:
256,192,129921,1,8,0:0:0:0:
256,192,130001,1,0,0:0:0:0:
256,192,130082,1,0,0:0:0:0:
256,192,130162,1,8,0:0:0:0:
256,192,130324,1,0,0:0:0:0:
256,192,130485,1,0,0:0:0:0:
256,192,130727,1,0,0:0:0:0:
256,192,130808,1,8,0:0:0:0:
256,192,130888,1,0,0:0:0:0:
256,192,130969,1,0,0:0:0:0:
256,192,131050,1,8,0:0:0:0:
256,192,131211,1,8,0:0:0:0:
256,192,131372,1,0,0:0:0:0:
256,192,131453,1,8,0:0:0:0:
256,192,131614,1,0,0:0:0:0:
256,192,131695,1,8,0:0:0:0:
256,192,131856,1,0,0:0:0:0:
256,192,132017,1,0,0:0:0:0:
256,192,132098,1,8,0:0:0:0:
256,192,132340,1,8,0:0:0:0:
256,192,132421,1,0,0:0:0:0:
256,192,132582,1,8,0:0:0:0:
256,192,132743,1,0,0:0:0:0:
256,192,132824,1,0,0:0:0:0:
256,192,132904,1,0,0:0:0:0:
256,192,133066,1,12,0:0:0:0:
256,192,133388,1,0,0:0:0:0:
256,192,133630,1,8,0:0:0:0:
256,192,133711,1,0,0:0:0:0:
256,192,133792,1,8,0:0:0:0:
256,192,133953,1,0,0:0:0:0:
256,192,134033,1,8,0:0:0:0:
256,192,134356,1,4,0:0:0:0:
256,192,134517,1,0,0:0:0:0:
256,192,134679,1,8,0:0:0:0:
256,192,134840,1,0,0:0:0:0:
256,192,134921,1,8,0:0:0:0:
256,192,135082,1,8,0:0:0:0:
256,192,135162,1,0,0:0:0:0:
256,192,135324,1,8,0:0:0:0:
256,192,135646,1,0,0:0:0:0:
256,192,135808,1,0,0:0:0:0:
256,192,135969,1,8,0:0:0:0:
256,192,136050,1,8,0:0:0:0:
256,192,136130,1,0,0:0:0:0:
256,192,136211,1,0,0:0:0:0:
256,192,136372,1,8,0:0:0:0:
256,192,136533,1,0,0:0:0:0:
256,192,136614,1,8,0:0:0:0:
256,192,136937,1,0,0:0:0:0:
256,192,137098,1,0,0:0:0:0:
256,192,137259,1,8,0:0:0:0:
256,192,137421,1,0,0:0:0:0:
256,192,137501,1,0,0:0:0:0:
256,192,137662,1,8,0:0:0:0:
256,192,137743,1,0,0:0:0:0:
256,192,137904,1,8,0:0:0:0:
256,192,138227,1,0,0:0:0:0:
256,192,138388,1,0,0:0:0:0:
256,192,138550,1,8,0:0:0:0:
256,192,138711,1,0,0:0:0:0:
256,192,138792,1,8,0:0:0:0:
256,192,138872,1,0,0:0:0:0:
256,192,138953,1,0,0:0:0:0:
256,192,139033,1,8,0:0:0:0:
256,192,139195,1,8,0:0:0:0:
256,192,139356,1,8,0:0:0:0:
256,192,139437,1,8,0:0:0:0:
256,192,139517,1,0,0:0:0:0:
256,192,139679,1,0,0:0:0:0:
256,192,139840,1,8,0:0:0:0:
256,192,140162,1,0,0:0:0:0:
256,192,140324,1,0,0:0:0:0:
256,192,140485,1,8,0:0:0:0:
256,192,140646,1,0,0:0:0:0:
256,192,140727,1,0,0:0:0:0:
256,192,140808,1,8,0:0:0:0:
256,192,140888,1,8,0:0:0:0:
256,192,140969,1,0,0:0:0:0:
256,192,141050,1,0,0:0:0:0:
256,192,141130,1,8,0:0:0:0:
256,192,141453,1,0,0:0:0:0:
256,192,141574,1,0,0:0:0:0:
256,192,141695,1,0,0:0:0:0:
256,192,141775,1,8,0:0:0:0:
256,192,142017,1,0,0:0:0:0:
256,192,142098,1,8,0:0:0:0:
256,192,142259,1,0,0:0:0:0:
256,192,142340,1,0,0:0:0:0:
256,192,142421,1,8,0:0:0:0:
256,192,142743,1,8,0:0:0:0:
256,192,142824,1,8,0:0:0:0:
256,192,142904,1,0,0:0:0:0:
256,192,142985,1,0,0:0:0:0:
256,192,143066,1,8,0:0:0:0:
256,192,143227,1,0,0:0:0:0:
256,192,143388,1,8,0:0:0:0:
256,192,143469,1,0,0:0:0:0:
256,192,143550,1,0,0:0:0:0:
256,192,143711,1,8,0:0:0:0:
256,192,143872,1,8,0:0:0:0:
256,192,143953,1,8,0:0:0:0:
256,192,144033,1,0,0:0:0:0:
256,192,144195,1,0,0:0:0:0:
256,192,144356,1,8,0:0:0:0:
256,192,144679,1,0,0:0:0:0:
256,192,144800,1,8,0:0:0:0:
256,192,144921,1,8,0:0:0:0:
256,192,145001,1,0,0:0:0:0:
256,192,145162,1,8,0:0:0:0:
256,192,145243,1,8,0:0:0:0:
256,192,145324,1,0,0:0:0:0:
256,192,145485,1,0,0:0:0:0:
256,192,145646,1,0,0:0:0:0:
256,192,145969,1,0,0:0:0:0:
256,192,146130,1,0,0:0:0:0:
256,192,146211,1,8,0:0:0:0:
256,192,146292,1,0,0:0:0:0:
256,192,146453,1,8,0:0:0:0:
256,192,146614,1,0,0:0:0:0:
256,192,146695,1,8,0:0:0:0:
256,192,146775,1,8,0:0:0:0:
256,192,146856,1,8,0:0:0:0:
256,192,146937,1,0,0:0:0:0:
256,192,147259,1,0,0:0:0:0:
256,192,147421,1,0,0:0:0:0:
256,192,147501,1,8,0:0:0:0:
256,192,147582,1,0,0:0:0:0:
256,192,147743,1,8,0:0:0:0:
256,192,147904,1,0,0:0:0:0:
256,192,147985,1,0,0:0:0:0:
256,192,148066,1,8,0:0:0:0:
256,192,148146,1,8,0:0:0:0:
256,192,148227,1,0,0:0:0:0:
256,192,148550,1,0,0:0:0:0:
256,192,148711,1,0,0:0:0:0:
256,192,148792,1,0,0:0:0:0:
256,192,148872,1,8,0:0:0:0:
256,192,149033,1,8,0:0:0:0:
256,192,149114,1,0,0:0:0:0:
256,192,149275,1,0,0:0:0:0:
256,192,149437,1,0,0:0:0:0:
256,192,149517,1,8,0:0:0:0:
256,192,149840,1,8,0:0:0:0:
256,192,150001,1,8,0:0:0:0:
256,192,150082,1,8,0:0:0:0:
256,192,150162,1,0,0:0:0:0:
256,192,150324,1,8,0:0:0:0:
256,192,150485,1,0,0:0:0:0:
256,192,150566,1,0,0:0:0:0:
256,192,150646,1,8,0:0:0:0:
256,192,150727,1,8,0:0:0:0:
256,192,150808,1,0,0:0:0:0:
256,192,150969,1,8,0:0:0:0:
256,192,151130,1,0,0:0:0:0:
256,192,151211,1,0,0:0:0:0:
256,192,151292,1,0,0:0:0:0:
256,192,151372,1,0,0:0:0:0:
256,192,151453,1,8,0:0:0:0:
256,192,151614,1,0,0:0:0:0:
256,192,151775,1,0,0:0:0:0:
256,192,151856,1,0,0:0:0:0:
256,192,151937,1,0,0:0:0:0:
256,192,152017,1,0,0:0:0:0:
256,192,152098,1,8,0:0:0:0:
256,192,152179,1,8,0:0:0:0:
256,192,152259,1,0,0:0:0:0:
256,192,152421,2,0,L|320:192,16,35
