osu file format v14

[General]
AudioFilename: audio.mp3
AudioLeadIn: 0
PreviewTime: 66029
Countdown: 0
SampleSet: None
StackLeniency: 0.7
Mode: 2
LetterboxInBreaks: 0
WidescreenStoryboard: 0

[Editor]
DistanceSpacing: 0.8
BeatDivisor: 4
GridSize: 8
TimelineZoom: 2.4

[Metadata]
Title:Lawn Wake IV (Black)
TitleUnicode:Lawn Wake IV (Black)
Artist:The Flashbulb
ArtistUnicode:The Flashbulb
Creator:MBomb
Version:Salad
Source:osu!
Tags:magic bomb featured artist mappers guild instrumental electronic breakcore Deif drill'n bass four 4
BeatmapID:2022335
BeatmapSetID:965730

[Difficulty]
HPDrainRate:4
CircleSize:2.5
OverallDifficulty:7
ApproachRate:7
SliderMultiplier:1.1
SliderTickRate:1

[Events]
//Background and Video events
0,0,"rsz_since_i_keep_reading_the_title_as_swan_lake.jpg",0,0
//Break Periods
//Storyboard Layer 0 (Background)
//Storyboard Layer 1 (Fail)
//Storyboard Layer 2 (Pass)
//Storyboard Layer 3 (Foreground)
//Storyboard Sound Samples

[TimingPoints]
2,276.497695852535,4,3,0,60,1,0
43273,304.568527918782,4,3,0,60,1,0
44186,276.497695852535,4,3,0,60,1,0
59669,-100,4,3,0,40,0,0
66029,-100,4,3,0,60,0,0
66305,-100,4,3,0,60,0,1
84001,-100,4,3,0,60,0,0
101697,-100,4,3,0,40,0,0
105015,-100,4,3,0,60,0,0
106121,-100,4,3,0,60,0,1
121605,-100,4,3,0,60,0,0
126029,-100,4,3,0,60,0,1
126305,-100,4,3,0,25,0,0
127135,-100,4,3,0,70,0,0
127273,-100,4,3,0,45,0,0
129900,-100,4,3,0,35,0,0
131835,-100,4,3,0,25,0,0
133771,-100,4,3,0,15,0,0

[Colours]
Combo1 : 128,128,128
Combo2 : 192,192,192

[HitObjects]
256,192,13273,12,0,17421,0:0:0:0:
184,192,17697,6,0,P|104:168|184:128,1,220,4|0,0:0|0:0,0:0:0:0:
272,192,18389,2,0,L|344:192,1,55,8|8,0:0|0:0,0:0:0:0:
96,192,18803,6,0,L|24:192,2,55,8|8|2,0:0|0:0|0:0,0:0:0:0:
224,192,19356,1,8,0:0:0:0:
160,192,19495,1,8,0:0:0:0:
96,192,19633,1,2,0:0:0:0:
328,192,19909,6,0,L|456:192,1,110,4|2,0:0|0:0,0:0:0:0:
288,192,20462,1,8,0:0:0:0:
224,192,20601,1,8,0:0:0:0:
224,192,20739,1,2,0:0:0:0:
288,192,20878,1,2,0:0:0:0:
448,192,21015,5,4,0:0:0:0:
352,192,21223,1,4,0:0:0:0:
248,192,21430,1,4,0:0:0:0:
328,192,21568,2,0,P|368:160|328:136,1,110,8|2,0:0|0:0,0:0:0:0:
96,192,22121,6,0,L|40:192,2,55,4|0|2,0:0|0:0|0:0,0:0:0:0:
176,192,22536,2,0,L|232:192,1,55,2|8,0:0|0:0,0:0:0:0:
96,192,22951,1,2,0:0:0:0:
256,192,23227,5,4,0:0:0:0:
376,192,23435,2,0,L|272:192,2,82.5,2|8|0,0:0|0:0|0:0,0:0:0:0:
448,192,24057,1,2,0:0:0:0:
208,192,24333,6,0,P|152:168|152:128,1,82.5,4|2,0:0|0:0,0:0:0:0:
224,192,24679,2,0,P|280:168|280:128,1,82.5,4|2,0:0|0:0,0:0:0:0:
184,192,25025,2,0,P|96:168|80:144,1,110,4|0,0:0|0:0,0:0:0:0:
256,192,25439,6,0,P|296:160|256:136,1,110,4|2,0:0|0:0,0:0:0:0:
184,192,25854,1,4,0:0:0:0:
312,192,26131,1,2,0:0:0:0:
240,192,26269,1,10,0:0:0:0:
168,192,26407,1,2,0:0:0:0:
336,192,26545,6,0,P|424:160|432:144,1,110,4|2,0:0|0:0,0:0:0:0:
352,192,26960,2,0,L|288:192,1,55,8|0,0:0|0:0,0:0:0:0:
176,192,27375,1,2,0:0:0:0:
408,192,27651,6,0,L|472:192,2,55,4|4|2,0:0|0:0|0:0,0:0:0:0:
224,192,28343,2,0,L|306:192,1,82.5,4|8,0:0|0:0,0:0:0:0:
96,192,28757,6,0,P|56:160|96:136,1,110,4|2,0:0|0:0,0:0:0:0:
184,192,29172,2,0,L|264:192,1,55,0|0,0:0|0:0,0:0:0:0:
112,192,29587,1,2,0:0:0:0:
344,192,29863,5,4,0:0:0:0:
440,192,30002,2,0,L|360:192,1,55,8|4,0:0|0:0,0:0:0:0:
240,192,30416,1,4,0:0:0:0:
176,192,30554,1,8,0:0:0:0:
344,192,30693,2,0,L|416:192,1,55,4|0,0:0|0:0,0:0:0:0:
231,192,30969,6,0,L|159:192,2,55,4|0|2,0:0|0:0|0:0,0:0:0:0:
344,192,31522,1,8,0:0:0:0:
200,192,31799,1,4,0:0:0:0:
344,192,32075,6,0,L|464:192,1,110,4|0,0:0|0:0,0:0:0:0:
224,192,32628,2,0,L|104:192,1,110,2|0,0:0|0:0,0:0:0:0:
344,192,33181,5,4,0:0:0:0:
424,192,33319,2,0,L|424:128,1,55,8|4,0:0|0:0,0:0:0:0:
344,192,33596,2,0,L|344:128,1,55,8|4,0:0|0:0,0:0:0:0:
424,192,33872,2,0,L|352:192,1,55,8|4,0:0|0:0,0:0:0:0:
144,192,34287,5,8,0:0:0:0:
256,192,34495,2,0,L|320:192,1,55,8|4,0:0|0:0,0:0:0:0:
112,192,34840,1,4,0:0:0:0:
112,192,35393,6,0,L|192:192,1,55,4|0,0:0|0:0,0:0:0:0:
256,192,35670,1,2,0:0:0:0:
112,192,35946,2,0,L|48:192,1,55,8|8,0:0|0:0,0:0:0:0:
57,192,36223,2,0,L|112:192,1,55,2|2,0:0|0:0,0:0:0:0:
280,192,36499,5,4,0:0:0:0:
336,192,36637,1,0,0:0:0:0:
336,192,36776,1,4,0:0:0:0:
200,192,37052,1,4,0:0:0:0:
200,192,37190,1,8,0:0:0:0:
368,192,37329,1,4,0:0:0:0:
240,192,37605,6,0,P|296:160|448:152,1,220,4|0,0:0|0:0,0:0:0:0:
392,192,38296,1,2,0:0:0:0:
328,192,38435,1,2,0:0:0:0:
256,192,38573,1,2,0:0:0:0:
88,192,38711,6,0,B|88:80|88:80|200:80|200:80|88:80,1,330,4|0,0:0|0:0,0:0:0:0:
320,192,39817,6,0,B|432:192|432:192|192:192,1,330,4|0,0:0|0:0,0:0:0:0:
440,192,40923,6,0,L|336:192,1,82.5,4|4,0:0|0:0,0:0:0:0:
264,192,41338,2,0,L|336:144,1,82.5,4|4,0:0|0:0,0:0:0:0:
128,192,41753,6,0,B|16:192|16:192|344:192|344:192|160:192,1,605,4|4,0:0|0:0,0:0:0:0:
179,192,44186,6,0,P|139:152|176:120,1,110,4|0,0:0|0:0,0:0:0:0:
256,192,44600,1,4,0:0:0:0:
128,192,44877,2,0,L|128:136,1,55,8|8,0:0|0:0,0:0:0:0:
264,192,45291,6,0,L|328:192,2,55,4|0|8,0:0|0:0|0:0,0:0:0:0:
128,192,45844,1,8,0:0:0:0:
64,192,45983,1,8,0:0:0:0:
152,192,46121,1,2,0:0:0:0:
384,192,46397,6,0,P|448:176|464:136,1,110,4|0,0:0|0:0,0:0:0:0:
384,192,46812,1,4,0:0:0:0:
272,192,47089,2,0,L|336:192,1,55,8|0,0:0|0:0,0:0:0:0:
96,192,47503,6,0,L|24:192,2,55,4|0|8,0:0|0:0|0:0,0:0:0:0:
232,192,48056,1,8,0:0:0:0:
168,192,48195,1,0,0:0:0:0:
104,192,48333,1,2,0:0:0:0:
336,192,48609,6,0,L|208:192,1,110,4|0,0:0|0:0,0:0:0:0:
296,192,49024,1,4,0:0:0:0:
376,192,49162,2,0,L|408:144,2,55,8|8|0,0:0|0:0|0:0,0:0:0:0:
256,192,49715,6,0,P|176:176|200:104,1,165,2|0,0:0|0:0,0:0:0:0:
272,192,50268,1,2,0:0:0:0:
416,192,50545,1,2,0:0:0:0:
184,192,50821,6,0,P|112:176|96:144,1,110,4|0,0:0|0:0,0:0:0:0:
176,192,51236,1,4,0:0:0:0:
64,192,51513,2,0,L|8:192,2,55,8|8|0,0:0|0:0|0:0,0:0:0:0:
232,192,51927,5,4,0:0:0:0:
304,192,52066,1,8,0:0:0:0:
336,192,52204,1,2,0:0:0:0:
200,192,52480,2,0,L|136:192,1,55,2|8,0:0|0:0,0:0:0:0:
90,192,52757,2,0,L|145:192,1,55,2|8,0:0|0:0,0:0:0:0:
312,192,53033,6,0,P|368:160|376:136,1,82.5,4|2,0:0|0:0,0:0:0:0:
208,192,53586,2,0,L|280:192,1,55,2|2,0:0|0:0,0:0:0:0:
336,192,53863,2,0,L|272:192,1,55,2|2,0:0|0:0,0:0:0:0:
184,192,54139,6,0,L|120:192,2,55,2|8|2,0:0|0:0|0:0,0:0:0:0:
304,192,54692,2,0,L|376:192,2,55,2|8|2,0:0|0:0|0:0,0:0:0:0:
232,192,55107,1,8,0:0:0:0:
120,192,55315,5,4,0:0:0:0:
328,192,55798,1,2,0:0:0:0:
256,192,55937,1,8,0:0:0:0:
184,192,56075,1,2,0:0:0:0:
328,192,56351,6,0,L|424:192,2,82.5,2|0|2,0:0|0:0|0:0,0:0:0:0:
224,192,56974,1,2,0:0:0:0:
352,192,57181,2,0,L|297:192,1,55,2|8,0:0|0:0,0:0:0:0:
128,192,57457,6,0,P|48:144|128:96,1,220,4|2,0:0|0:0,0:0:0:0:
320,192,58563,2,0,L|88:192,1,220,4|2,0:0|0:0,0:0:0:0:
456,192,59669,6,0,L|336:192,1,110,4|2,0:0|0:0,0:0:0:0:
224,192,60222,1,2,0:0:0:0:
456,192,60499,1,2,0:0:0:0:
320,192,60775,6,0,L|448:192,1,110,2|2,0:0|0:0,0:0:0:0:
288,192,61328,2,0,L|152:192,1,110,2|2,0:0|0:0,0:0:0:0:
416,184,61881,5,4,0:0:0:0:
256,192,62158,12,8,66029,0:0:0:0:
200,192,66305,6,0,L|144:192,2,55,4|8|2,0:0|0:0|0:0,0:0:0:0:
328,192,66858,2,0,L|384:192,1,55,8|0,0:0|0:0,0:0:0:0:
328,192,67135,1,2,0:0:0:0:
272,192,67273,1,2,0:0:0:0:
184,192,67411,5,4,0:0:0:0:
120,192,67550,1,8,0:0:0:0:
72,192,67688,1,2,0:0:0:0:
208,192,67964,2,0,L|272:192,2,55,8|0|2,0:0|0:0|0:0,0:0:0:0:
128,192,68379,1,8,0:0:0:0:
296,192,68517,5,4,0:0:0:0:
360,192,68656,1,8,0:0:0:0:
360,192,68794,1,2,0:0:0:0:
224,192,69070,1,8,0:0:0:0:
160,192,69209,1,2,0:0:0:0:
160,192,69347,1,2,0:0:0:0:
224,192,69486,1,8,0:0:0:0:
392,192,69623,6,0,L|456:192,2,55,4|8|2,0:0|0:0|0:0,0:0:0:0:
160,192,70176,1,8,0:0:0:0:
224,192,70315,1,8,0:0:0:0:
288,192,70453,1,2,0:0:0:0:
56,192,70729,6,0,L|120:192,1,55,4|8,0:0|0:0,0:0:0:0:
176,192,71006,1,2,0:0:0:0:
56,192,71282,1,8,0:0:0:0:
56,192,71421,1,0,0:0:0:0:
104,192,71559,1,2,0:0:0:0:
168,192,71697,1,2,0:0:0:0:
256,192,71835,6,0,L|320:192,2,55,4|8|2,0:0|0:0|0:0,0:0:0:0:
128,192,72388,1,8,0:0:0:0:
72,192,72527,1,0,0:0:0:0:
72,192,72665,1,2,0:0:0:0:
152,192,72803,1,8,0:0:0:0:
320,192,72941,6,0,L|392:192,2,55,4|8|2,0:0|0:0|0:0,0:0:0:0:
440,192,73494,2,0,L|496:192,2,55,8|2|2,0:0|0:0|0:0,0:0:0:0:
368,192,73909,1,8,0:0:0:0:
200,192,74047,5,4,0:0:0:0:
200,192,74186,1,8,0:0:0:0:
264,192,74324,1,2,0:0:0:0:
495,192,74600,1,8,0:0:0:0:
495,192,74739,1,8,0:0:0:0:
431,192,74877,1,2,0:0:0:0:
200,192,75153,6,0,L|144:192,2,55,4|8|2,0:0|0:0|0:0,0:0:0:0:
352,192,75706,1,8,0:0:0:0:
288,192,75844,1,0,0:0:0:0:
224,192,75983,1,2,0:0:0:0:
160,192,76121,1,2,0:0:0:0:
248,192,76259,6,0,L|320:192,2,55,6|8|2,0:0|0:0|0:0,0:0:0:0:
112,192,76812,2,0,L|168:192,2,55,2|8|2,0:0|0:0|0:0,0:0:0:0:
256,192,77365,6,0,L|336:192,2,55,4|0|2,0:0|0:0|0:0,0:0:0:0:
112,192,77918,2,0,L|80:144,1,55,10|2,0:0|0:0,0:0:0:0:
112,192,78195,2,0,L|192:192,1,55,2|8,0:0|0:0,0:0:0:0:
88,192,78471,6,0,L|24:192,2,55,4|0|2,0:0|0:0|0:0,0:0:0:0:
224,192,79024,1,8,0:0:0:0:
224,192,79162,1,8,0:0:0:0:
160,192,79301,1,2,0:0:0:0:
224,192,79439,1,2,0:0:0:0:
392,192,79577,6,0,L|456:192,2,55,4|8|2,0:0|0:0|0:0,0:0:0:0:
248,192,80130,1,8,0:0:0:0:
312,192,80268,1,8,0:0:0:0:
376,192,80407,1,2,0:0:0:0:
312,192,80545,1,0,0:0:0:0:
232,192,80683,6,0,L|160:192,1,55,4|0,0:0|0:0,0:0:0:0:
160,192,80960,1,2,0:0:0:0:
312,192,81236,2,0,L|384:192,2,55,8|0|2,0:0|0:0|0:0,0:0:0:0:
232,192,81651,1,2,0:0:0:0:
72,192,81789,6,0,L|8:192,2,55,4|8|2,0:0|0:0|0:0,0:0:0:0:
216,192,82342,2,0,L|216:128,1,55,2|2,0:0|0:0,0:0:0:0:
304,192,82619,2,0,L|304:128,1,55,2|2,0:0|0:0,0:0:0:0:
136,192,82895,6,0,L|64:192,2,55,4|8|2,0:0|0:0|0:0,0:0:0:0:
288,192,83448,2,0,L|368:192,1,55,8|8,0:0|0:0,0:0:0:0:
304,192,83725,1,2,0:0:0:0:
224,192,83863,1,2,0:0:0:0:
56,192,84001,6,0,B|56:128|56:128|336:128,1,330,4|0,0:0|0:0,0:0:0:0:
88,192,85107,6,0,L|424:192,1,330,4|0,0:0|0:0,0:0:0:0:
184,192,86213,5,4,0:0:0:0:
320,192,86490,2,0,L|440:192,1,110,2|8,0:0|0:0,0:0:0:0:
288,192,87043,1,2,0:0:0:0:
144,192,87319,6,0,L|48:192,2,82.5,2|2|0,0:0|0:0|0:0,0:0:0:0:
216,192,87872,2,0,L|80:192,1,110,8|2,0:0|0:0,0:0:0:0:
336,192,88425,6,0,L|200:192,1,110,4|4,0:0|0:0,0:0:0:0:
344,192,88978,1,2,0:0:0:0:
280,192,89116,1,0,0:0:0:0:
216,192,89255,1,2,0:0:0:0:
216,192,89393,1,0,0:0:0:0:
384,192,89531,6,0,L|496:192,1,110,4|4,0:0|0:0,0:0:0:0:
352,192,90084,1,2,0:0:0:0:
416,192,90222,1,0,0:0:0:0:
352,192,90361,1,2,0:0:0:0:
288,192,90499,1,8,0:0:0:0:
120,192,90637,5,4,0:0:0:0:
184,192,90775,1,4,0:0:0:0:
248,192,90914,1,6,0:0:0:0:
368,192,91190,1,2,0:0:0:0:
368,192,91328,1,8,0:0:0:0:
296,192,91467,2,0,L|224:192,1,55,2|8,0:0|0:0,0:0:0:0:
320,192,91743,6,0,L|376:192,2,55,6|8|2,0:0|0:0|0:0,0:0:0:0:
168,192,92296,2,0,L|96:192,1,55,2|8,0:0|0:0,0:0:0:0:
82,192,92573,2,0,L|137:192,1,55,2|8,0:0|0:0,0:0:0:0:
304,192,92849,6,0,P|344:168|312:128,1,110,4|2,0:0|0:0,0:0:0:0:
192,192,93402,2,0,L|256:192,1,55,8|0,0:0|0:0,0:0:0:0:
320,192,93679,1,2,0:0:0:0:
96,192,93955,5,4,0:0:0:0:
240,192,94232,2,0,L|304:192,1,55,2|0,0:0|0:0,0:0:0:0:
224,192,94508,2,0,L|160:192,1,55,8|0,0:0|0:0,0:0:0:0:
232,192,94785,1,2,0:0:0:0:
304,192,94923,1,2,0:0:0:0:
384,192,95061,6,0,L|448:192,2,55,4|0|2,0:0|0:0|0:0,0:0:0:0:
256,192,95614,2,0,L|200:192,1,55,8|8,0:0|0:0,0:0:0:0:
280,192,95891,2,0,L|336:192,1,55,2|2,0:0|0:0,0:0:0:0:
256,192,96167,5,4,0:0:0:0:
200,192,96305,1,0,0:0:0:0:
200,192,96444,1,2,0:0:0:0:
344,192,96720,1,4,0:0:0:0:
400,192,96858,1,0,0:0:0:0:
344,192,96997,1,6,0:0:0:0:
120,192,97273,6,0,L|248:192,1,110,4|0,0:0|0:0,0:0:0:0:
104,192,97826,2,0,L|40:192,2,55,2|0|0,0:0|0:0|0:0,0:0:0:0:
336,192,98379,5,4,0:0:0:0:
336,192,98517,1,0,0:0:0:0:
272,192,98656,1,2,0:0:0:0:
400,192,98932,2,0,L|456:192,2,55,8|0|2,0:0|0:0|0:0,0:0:0:0:
336,192,99347,1,0,0:0:0:0:
256,192,99485,6,0,L|392:192,1,110,4|2,0:0|0:0,0:0:0:0:
232,192,100038,2,0,L|160:192,3,55,8|0|2|2,0:0|0:0|0:0|0:0,0:0:0:0:
104,192,100591,6,0,P|48:168|72:120,1,110,4|8,0:0|0:0,0:0:0:0:
208,192,101144,1,2,0:0:0:0:
272,192,101282,1,0,0:0:0:0:
336,192,101421,1,8,0:0:0:0:
272,192,101559,1,0,0:0:0:0:
104,192,101697,6,0,P|32:160|24:120,2,110,4|0|0,0:0|0:0|0:0,0:0:0:0:
256,192,102527,1,0,0:0:0:0:
104,192,102803,6,0,L|216:192,1,110,8|0,0:0|0:0,0:0:0:0:
352,192,103356,2,0,L|408:192,1,55,2|0,0:0|0:0,0:0:0:0:
462,192,103633,2,0,L|406:192,1,55,2|0,0:0|0:0,0:0:0:0:
240,192,103909,5,4,0:0:0:0:
376,192,104186,1,2,0:0:0:0:
240,192,104462,2,0,L|304:192,1,55,2|0,0:0|0:0,0:0:0:0:
376,192,104738,2,0,L|320:192,1,55,2|0,0:0|0:0,0:0:0:0:
152,192,105015,6,0,P|88:176|80:128,1,110,4|2,0:0|0:0,0:0:0:0:
152,192,105430,1,8,0:0:0:0:
232,192,105568,2,0,L|288:152,1,55,2|2,0:0|0:0,0:0:0:0:
200,192,105844,2,0,L|144:152,1,55,2|2,0:0|0:0,0:0:0:0:
320,192,106121,6,0,L|392:192,2,55,4|0|2,0:0|0:0|0:0,0:0:0:0:
248,192,106536,1,0,0:0:0:0:
320,192,106674,1,8,0:0:0:0:
192,192,106950,1,2,0:0:0:0:
48,192,107227,6,0,L|176:192,1,110,4|2,0:0|0:0,0:0:0:0:
296,192,107780,2,0,L|296:136,1,55,8|2,0:0|0:0,0:0:0:0:
216,192,108056,2,0,L|216:136,1,55,2|2,0:0|0:0,0:0:0:0:
304,192,108333,6,0,P|368:184|392:136,1,110,6|2,0:0|0:0,0:0:0:0:
312,192,108748,1,2,0:0:0:0:
232,192,108886,2,0,L|176:192,1,55,8|8,0:0|0:0,0:0:0:0:
336,192,109162,2,0,L|392:192,1,55,2|8,0:0|0:0,0:0:0:0:
232,192,109439,5,4,0:0:0:0:
168,192,109577,1,0,0:0:0:0:
136,192,109715,1,2,0:0:0:0:
168,192,109854,2,0,L|240:192,1,55,4|8,0:0|0:0,0:0:0:0:
352,192,110268,1,2,0:0:0:0:
120,192,110545,5,4,0:0:0:0:
256,192,110821,2,0,L|320:192,1,55,2|0,0:0|0:0,0:0:0:0:
240,192,111098,2,0,L|176:192,2,55,8|0|2,0:0|0:0|0:0,0:0:0:0:
480,192,111651,5,4,0:0:0:0:
344,192,111927,1,2,0:0:0:0:
288,192,112066,1,0,0:0:0:0:
272,192,112204,1,8,0:0:0:0:
288,192,112342,1,0,0:0:0:0:
344,192,112481,1,2,0:0:0:0:
112,192,112757,6,0,P|72:160|112:136,1,110,4|2,0:0|0:0,0:0:0:0:
240,192,113310,2,0,L|120:192,1,110,8|2,0:0|0:0,0:0:0:0:
360,192,113863,6,0,L|464:192,1,82.5,4|0,0:0|0:0,0:0:0:0:
184,192,114416,2,0,L|312:192,1,110,4|2,0:0|0:0,0:0:0:0:
64,192,114969,5,4,0:0:0:0:
200,192,115245,1,2,0:0:0:0:
336,192,115522,2,0,L|264:192,3,55,8|0|2|2,0:0|0:0|0:0|0:0,0:0:0:0:
112,192,116075,6,0,B|56:184|56:184|112:192,1,110,4|2,0:0|0:0,0:0:0:0:
248,192,116628,2,0,L|248:136,1,55,8|0,0:0|0:0,0:0:0:0:
176,192,116904,1,2,0:0:0:0:
320,192,117181,6,0,P|400:160|408:136,1,110,4|2,0:0|0:0,0:0:0:0:
336,192,117596,1,0,0:0:0:0:
264,192,117734,2,0,L|192:192,1,55,8|0,0:0|0:0,0:0:0:0:
136,192,118010,2,0,L|80:192,1,55,2|2,0:0|0:0,0:0:0:0:
152,192,118287,5,4,0:0:0:0:
320,192,118425,2,0,L|392:192,1,55,2|2,0:0|0:0,0:0:0:0:
232,192,118840,1,8,0:0:0:0:
152,192,118978,2,0,L|96:192,2,55,8|2|2,0:0|0:0|0:0,0:0:0:0:
320,192,119393,6,0,L|416:192,2,82.5,4|8|8,0:0|0:0|0:0,0:0:0:0:
216,192,120015,2,0,L|112:192,1,82.5,8|8,0:0|0:0,0:0:0:0:
328,192,120430,1,0,0:0:0:0:
384,192,120499,6,0,P|448:176|464:144,2,82.5,8|8|8,0:0|0:0|0:0,0:0:0:0:
168,192,121156,2,0,L|272:192,1,82.5,8|8,0:0|0:0,0:0:0:0:
32,192,121605,6,0,P|64:136|176:112,1,165,4|0,0:0|0:0,0:0:0:0:
232,192,122158,2,0,P|272:152|240:144,1,110,2|0,0:0|0:0,0:0:0:0:
112,192,122711,6,0,L|240:192,1,110,8|0,0:0|0:0,0:0:0:0:
352,192,123264,2,0,L|472:192,1,110,8|8,0:0|0:0,0:0:0:0:
224,192,123817,6,0,L|112:192,1,110,4|0,0:0|0:0,0:0:0:0:
256,192,124370,1,2,0:0:0:0:
400,192,124646,2,0,L|280:192,2,110,8|8|8,0:0|0:0|0:0,0:0:0:0:
256,192,125476,2,0,L|144:192,1,110,2|0,0:0|0:0,0:0:0:0:
384,192,126029,6,0,L|384:72,1,110,4|0,0:0|0:0,0:0:0:0:
160,192,127135,5,14,0:0:0:0:
256,192,127411,12,4,140130,0:0:0:0:
