osu file format v14

[General]
AudioFilename: audio.mp3
AudioLeadIn: 0
PreviewTime: 66029
Countdown: 0
SampleSet: None
StackLeniency: 0.7
Mode: 2
LetterboxInBreaks: 0
WidescreenStoryboard: 0

[Editor]
DistanceSpacing: 0.8
BeatDivisor: 4
GridSize: 8
TimelineZoom: 2.4

[Metadata]
Title:Lawn Wake IV (Black)
TitleUnicode:Lawn Wake IV (Black)
Artist:The Flashbulb
ArtistUnicode:The Flashbulb
Creator:MBomb
Version:Overdose
Source:osu!
Tags:magic bomb featured artist mappers guild instrumental electronic breakcore Deif drill'n bass four 4
BeatmapID:2024197
BeatmapSetID:965730

[Difficulty]
HPDrainRate:7
CircleSize:3.8
OverallDifficulty:9.2
ApproachRate:9.2
SliderMultiplier:1.3
SliderTickRate:1

[Events]
//Background and Video events
0,0,"rsz_since_i_keep_reading_the_title_as_swan_lake.jpg",0,0
//Break Periods
//Storyboard Layer 0 (Background)
//Storyboard Layer 1 (Fail)
//Storyboard Layer 2 (Pass)
//Storyboard Layer 3 (Foreground)
//Storyboard Sound Samples

[TimingPoints]
2,276.497695852535,4,3,0,60,1,0
43273,304.568527918782,4,3,0,60,1,0
44186,276.497695852535,4,3,0,60,1,0
59669,-100,4,3,0,40,0,0
66029,-100,4,3,0,60,0,0
66305,-100,4,3,0,60,0,1
84001,-100,4,3,0,60,0,0
101697,-100,4,3,0,40,0,0
105015,-100,4,3,0,60,0,0
106121,-100,4,3,0,60,0,1
121605,-100,4,3,0,60,0,0
126029,-100,4,3,0,60,0,1
126305,-100,4,3,0,25,0,0
127135,-100,4,3,0,70,0,0
127273,-100,4,3,0,45,0,0
129900,-100,4,3,0,35,0,0
131835,-100,4,3,0,25,0,0
133771,-100,4,3,0,15,0,0

[Colours]
Combo1 : 128,128,128
Combo2 : 192,192,192

[HitObjects]
256,192,13273,12,0,17421,0:0:0:0:
160,192,17697,6,0,P|72:144|168:80,1,260,4|0,0:0|0:0,0:0:0:0:
304,192,18389,1,8,0:0:0:0:
96,192,18527,2,0,L|8:192,1,65,8|0,0:0|0:0,0:0:0:0:
272,192,18803,5,8,0:0:0:0:
312,192,18872,1,0,0:0:0:0:
312,192,18942,1,8,0:0:0:0:
272,192,19011,1,0,0:0:0:0:
184,192,19080,1,2,0:0:0:0:
104,192,19218,1,0,0:0:0:0:
72,192,19287,1,0,0:0:0:0:
104,192,19356,1,8,0:0:0:0:
144,192,19425,1,0,0:0:0:0:
112,192,19495,1,8,0:0:0:0:
80,192,19564,1,0,0:0:0:0:
215,192,19633,2,0,L|279:192,1,65,2|0,0:0|0:0,0:0:0:0:
72,192,19909,6,0,L|72:128,1,65,4|0,0:0|0:0,0:0:0:0:
192,192,20186,1,2,0:0:0:0:
232,192,20255,1,0,0:0:0:0:
192,192,20324,1,2,0:0:0:0:
152,192,20393,1,0,0:0:0:0:
288,192,20462,2,0,L|336:192,1,32.5,8|0,0:0|0:0,0:0:0:0:
184,192,20601,2,0,L|152:192,1,32.5,8|0,0:0|0:0,0:0:0:0:
120,192,20739,1,2,0:0:0:0:
104,192,20808,1,0,0:0:0:0:
112,192,20877,1,2,0:0:0:0:
152,192,20946,1,0,0:0:0:0:
288,192,21015,6,0,P|336:168|344:144,1,65,4|0,0:0|0:0,0:0:0:0:
208,192,21223,2,0,P|160:168|152:144,1,65,4|0,0:0|0:0,0:0:0:0:
288,192,21430,1,4,0:0:0:0:
496,192,21568,1,8,0:0:0:0:
400,192,21707,2,0,L|360:192,1,32.5,0|0,0:0|0:0,0:0:0:0:
400,192,21845,2,0,L|456:192,1,32.5,2|0,0:0|0:0,0:0:0:0:
432,192,21983,2,0,L|400:192,1,32.5,2|0,0:0|0:0,0:0:0:0:
264,192,22121,6,0,L|184:192,1,65,4|0,0:0|0:0,0:0:0:0:
328,192,22398,1,2,0:0:0:0:
368,192,22467,1,0,0:0:0:0:
392,192,22536,1,2,0:0:0:0:
392,192,22605,1,0,0:0:0:0:
368,192,22674,1,8,0:0:0:0:
344,192,22743,1,0,0:0:0:0:
368,192,22813,1,0,0:0:0:0:
144,192,22951,2,0,L|64:192,1,65,2|0,0:0|0:0,0:0:0:0:
304,192,23227,6,0,L|320:184,4,16.25,4|0|0|0|0,0:0|0:0|0:0|0:0|0:0,0:0:0:0:
168,192,23435,1,2,0:0:0:0:
144,192,23504,1,2,0:0:0:0:
184,192,23573,1,2,0:0:0:0:
320,192,23642,2,0,L|392:192,1,65,8|0,0:0|0:0,0:0:0:0:
247,192,23849,2,0,P|231:160|255:144,1,65,0|0,0:0|0:0,0:0:0:0:
295,192,24057,1,2,0:0:0:0:
327,192,24126,1,0,0:0:0:0:
327,192,24195,1,0,0:0:0:0:
295,192,24264,1,0,0:0:0:0:
143,192,24333,5,4,0:0:0:0:
103,192,24402,1,0,0:0:0:0:
143,192,24472,1,0,0:0:0:0:
231,192,24541,1,2,0:0:0:0:
448,192,24679,1,4,0:0:0:0:
488,192,24748,1,0,0:0:0:0:
448,192,24818,1,0,0:0:0:0:
352,192,24887,1,2,0:0:0:0:
128,192,25025,2,0,P|72:152|112:120,1,130,4|0,0:0|0:0,0:0:0:0:
336,192,25439,6,0,L|416:192,1,65,4|0,0:0|0:0,0:0:0:0:
272,192,25716,1,2,0:0:0:0:
160,192,25854,2,0,L|80:192,1,65,4|0,0:0|0:0,0:0:0:0:
184,192,26131,2,0,L|224:192,2,32.5,2|0|10,0:0|0:0|0:0,0:0:0:0:
64,192,26407,1,2,0:0:0:0:
304,192,26545,6,0,L|400:192,1,65,4|0,0:0|0:0,0:0:0:0:
240,192,26822,1,2,0:0:0:0:
320,192,26960,1,8,0:0:0:0:
352,192,27029,1,0,0:0:0:0:
320,192,27098,1,0,0:0:0:0:
288,192,27167,1,8,0:0:0:0:
256,192,27237,1,0,0:0:0:0:
320,192,27375,2,0,L|416:192,1,65,2|0,0:0|0:0,0:0:0:0:
160,192,27651,5,4,0:0:0:0:
368,192,27790,2,0,L|368:128,1,65,4|2,0:0|0:0,0:0:0:0:
272,192,28066,1,0,0:0:0:0:
184,192,28135,1,8,0:0:0:0:
144,192,28204,1,8,0:0:0:0:
184,192,28273,1,8,0:0:0:0:
337,192,28343,2,0,P|328:152|304:152,1,65,4|0,0:0|0:0,0:0:0:0:
160,192,28550,2,0,L|95:192,1,65,8|0,0:0|0:0,0:0:0:0:
272,192,28757,6,0,L|360:192,2,65,4|8|2,0:0|0:0|0:0,0:0:0:0:
480,192,29172,2,0,L|504:192,4,16.25,0|0|0|0|0,0:0|0:0|0:0|0:0|0:0,0:0:0:0:
448,192,29379,1,0,0:0:0:0:
416,192,29449,1,0,0:0:0:0:
376,192,29518,1,0,0:0:0:0:
280,192,29587,2,0,P|232:176|224:152,1,65,2|0,0:0|0:0,0:0:0:0:
272,192,29794,1,0,0:0:0:0:
416,192,29863,6,0,P|448:160|424:144,1,65,4|8,0:0|0:0,0:0:0:0:
392,192,30071,1,0,0:0:0:0:
264,192,30140,2,0,P|208:176|224:144,1,97.5,4|0,0:0|0:0,0:0:0:0:
352,192,30416,2,0,P|384:160|360:144,1,65,4|8,0:0|0:0,0:0:0:0:
328,192,30624,1,0,0:0:0:0:
168,192,30693,2,0,P|136:168|168:136,1,97.5,4|0,0:0|0:0,0:0:0:0:
312,192,30969,6,0,L|384:192,1,65,4|0,0:0|0:0,0:0:0:0:
248,192,31246,2,0,L|168:192,1,65,2|0,0:0|0:0,0:0:0:0:
224,192,31453,1,0,0:0:0:0:
256,192,31522,1,8,0:0:0:0:
272,192,31591,1,0,0:0:0:0:
256,192,31660,1,8,0:0:0:0:
224,192,31729,1,0,0:0:0:0:
88,192,31799,2,0,P|32:176|24:136,1,97.5,4|0,0:0|0:0,0:0:0:0:
183,192,32075,5,4,0:0:0:0:
224,192,32144,1,0,0:0:0:0:
224,192,32213,1,0,0:0:0:0:
183,192,32282,1,0,0:0:0:0:
144,192,32352,2,0,L|88:192,2,43.3333333333333,0|0|0,0:0|0:0|0:0,0:0:0:0:
328,192,32628,1,2,0:0:0:0:
368,192,32697,1,0,0:0:0:0:
368,192,32766,1,0,0:0:0:0:
328,192,32836,1,0,0:0:0:0:
368,192,32905,1,0,0:0:0:0:
408,192,32974,1,0,0:0:0:0:
408,192,33043,1,0,0:0:0:0:
368,192,33113,1,0,0:0:0:0:
216,192,33181,6,0,L|144:192,1,65,4|8,0:0|0:0,0:0:0:0:
192,192,33389,1,0,0:0:0:0:
336,192,33458,2,0,L|408:192,1,65,4|8,0:0|0:0,0:0:0:0:
352,192,33665,1,0,0:0:0:0:
208,192,33734,2,0,L|136:192,1,65,4|8,0:0|0:0,0:0:0:0:
192,192,33941,1,0,0:0:0:0:
336,192,34011,2,0,L|360:192,6,16.25,4|0|0|0|8|0|8,0:0|0:0|0:0|0:0|0:0|0:0|0:0,0:0:0:0:
192,192,34287,5,8,0:0:0:0:
336,192,34495,1,8,0:0:0:0:
208,192,34633,1,4,0:0:0:0:
480,192,34840,1,4,0:0:0:0:
480,192,35393,6,0,L|400:192,1,65,4|0,0:0|0:0,0:0:0:0:
360,192,35601,1,0,0:0:0:0:
224,192,35670,2,0,L|144:192,1,65,2|0,0:0|0:0,0:0:0:0:
200,192,35877,1,0,0:0:0:0:
296,192,35946,1,8,0:0:0:0:
336,192,36015,1,0,0:0:0:0:
336,192,36084,1,8,0:0:0:0:
296,192,36153,1,0,0:0:0:0:
200,192,36223,1,2,0:0:0:0:
232,192,36292,1,0,0:0:0:0:
264,192,36361,1,2,0:0:0:0:
296,192,36430,1,0,0:0:0:0:
152,192,36499,6,0,L|56:192,1,65,4|0,0:0|0:0,0:0:0:0:
224,192,36776,2,0,L|288:192,1,65,4|0,0:0|0:0,0:0:0:0:
248,192,36983,1,0,0:0:0:0:
152,192,37052,1,4,0:0:0:0:
112,192,37121,1,0,0:0:0:0:
96,192,37190,1,8,0:0:0:0:
96,192,37260,1,8,0:0:0:0:
240,192,37329,2,0,P|304:176|320:144,1,97.5,4|0,0:0|0:0,0:0:0:0:
176,192,37605,6,0,P|80:152|176:104,1,260,4|0,0:0|0:0,0:0:0:0:
376,192,38296,2,0,L|432:192,1,32.5,2|0,0:0|0:0,0:0:0:0:
312,192,38435,2,0,L|272:192,1,32.5,2|0,0:0|0:0,0:0:0:0:
376,192,38573,2,0,L|432:192,1,32.5,2|0,0:0|0:0,0:0:0:0:
256,192,38711,6,0,P|184:160|256:128,1,195,4|0,0:0|0:0,0:0:0:0:
384,192,39264,2,0,L|456:192,3,65,8|0|0|0,0:0|0:0|0:0|0:0,0:0:0:0:
224,192,39817,6,0,P|152:144|224:112,1,195,4|0,0:0|0:0,0:0:0:0:
88,192,40370,2,0,L|48:192,1,32.5,0|0,0:0|0:0,0:0:0:0:
24,192,40508,2,0,P|16:144|80:96,1,130,0|0,0:0|0:0,0:0:0:0:
288,192,40923,6,0,P|336:168|344:144,1,65,4|0,0:0|0:0,0:0:0:0:
240,192,41131,2,0,P|208:184|187:160,1,65,4|0,0:0|0:0,0:0:0:0:
336,192,41338,2,0,L|408:192,1,65,4|0,0:0|0:0,0:0:0:0:
256,192,41545,2,0,L|184:192,1,65,4|0,0:0|0:0,0:0:0:0:
336,192,41753,5,4,0:0:0:0:
424,192,41891,2,0,B|488:192|488:192|384:192|384:192|464:192|464:192|352:192|352:192|440:192|440:192|360:192|360:192|488:192|488:192,1,650,0|4,0:0|0:0,0:0:0:0:
336,192,44186,5,4,0:0:0:0:
416,192,44324,1,0,0:0:0:0:
456,192,44393,1,0,0:0:0:0:
456,192,44462,1,0,0:0:0:0:
416,192,44531,1,0,0:0:0:0:
280,192,44600,2,0,P|232:160|280:136,1,130,4|8,0:0|0:0,0:0:0:0:
344,192,45015,1,8,0:0:0:0:
80,192,45291,6,0,L|145:192,1,65,4|0,0:0|0:0,0:0:0:0:
288,192,45568,2,0,L|224:192,1,65,8|8,0:0|0:0,0:0:0:0:
223,192,45775,1,0,0:0:0:0:
272,192,45844,1,8,0:0:0:0:
312,192,45914,1,0,0:0:0:0:
272,192,45983,1,8,0:0:0:0:
208,192,46052,1,0,0:0:0:0:
112,192,46121,2,0,P|80:160|120:144,1,97.5,2|0,0:0|0:0,0:0:0:0:
264,192,46397,6,0,L|352:192,1,65,4|0,0:0|0:0,0:0:0:0:
360,192,46605,1,0,0:0:0:0:
360,192,46674,1,0,0:0:0:0:
328,192,46743,1,0,0:0:0:0:
192,192,46812,2,0,P|128:192|96:136,1,130,4|8,0:0|0:0,0:0:0:0:
168,192,47227,1,8,0:0:0:0:
408,192,47503,6,0,L|328:192,1,65,4|0,0:0|0:0,0:0:0:0:
208,192,47780,2,0,L|136:192,1,65,8|0,0:0|0:0,0:0:0:0:
184,192,47987,1,0,0:0:0:0:
273,192,48056,2,0,L|344:192,1,65,8|0,0:0|0:0,0:0:0:0:
200,192,48333,2,0,P|136:168|136:136,1,97.5,2|0,0:0|0:0,0:0:0:0:
289,192,48609,5,4,0:0:0:0:
200,192,48748,2,0,L|144:192,1,32.5,0|0,0:0|0:0,0:0:0:0:
167,192,48886,2,0,L|200:192,1,32.5,0|0,0:0|0:0,0:0:0:0:
296,192,49024,1,4,0:0:0:0:
336,192,49093,1,0,0:0:0:0:
199,192,49162,1,8,0:0:0:0:
128,192,49301,1,8,0:0:0:0:
56,192,49439,1,0,0:0:0:0:
80,192,49508,1,0,0:0:0:0:
120,192,49577,1,0,0:0:0:0:
256,192,49715,6,0,L|328:192,1,65,2|0,0:0|0:0,0:0:0:0:
256,192,49992,1,2,0:0:0:0:
344,192,50130,1,0,0:0:0:0:
240,192,50268,1,2,0:0:0:0:
384,192,50407,1,0,0:0:0:0:
136,192,50545,2,0,L|120:160,3,32.5,2|0|0|0,0:0|0:0|0:0|0:0,0:0:0:0:
264,192,50821,5,4,0:0:0:0:
352,192,50960,1,0,0:0:0:0:
392,192,51029,1,0,0:0:0:0:
408,192,51098,1,0,0:0:0:0:
392,192,51167,1,0,0:0:0:0:
254,192,51236,2,0,L|398:192,1,130,4|8,0:0|0:0,0:0:0:0:
304,192,51651,1,8,0:0:0:0:
264,192,51720,1,0,0:0:0:0:
264,192,51789,1,0,0:0:0:0:
304,192,51858,1,0,0:0:0:0:
448,192,51927,6,0,L|488:192,1,32.5,4|0,0:0|0:0,0:0:0:0:
448,192,52066,1,8,0:0:0:0:
400,192,52135,1,0,0:0:0:0:
264,192,52204,1,2,0:0:0:0:
224,192,52273,1,0,0:0:0:0:
200,192,52342,1,8,0:0:0:0:
200,192,52411,1,0,0:0:0:0:
336,192,52480,1,2,0:0:0:0:
336,192,52550,1,0,0:0:0:0:
304,192,52619,1,8,0:0:0:0:
264,192,52688,1,0,0:0:0:0:
128,192,52757,2,0,L|88:192,1,32.5,2|0,0:0|0:0,0:0:0:0:
191,192,52895,2,0,L|231:192,1,32.5,8|0,0:0|0:0,0:0:0:0:
88,192,53033,6,0,L|40:192,2,32.5,4|0|0,0:0|0:0|0:0,0:0:0:0:
224,192,53241,1,2,0:0:0:0:
264,192,53310,1,0,0:0:0:0:
224,192,53379,1,0,0:0:0:0:
184,192,53448,1,0,0:0:0:0:
224,192,53517,1,0,0:0:0:0:
376,192,53586,2,0,P|432:176|440:152,1,65,2|2,0:0|0:0,0:0:0:0:
392,192,53794,1,0,0:0:0:0:
256,192,53863,2,0,L|224:192,1,32.5,2|0,0:0|0:0,0:0:0:0:
320,192,54001,2,0,L|352:192,1,32.5,2|0,0:0|0:0,0:0:0:0:
208,192,54139,5,2,0:0:0:0:
168,192,54209,1,0,0:0:0:0:
168,192,54278,1,8,0:0:0:0:
208,192,54348,1,0,0:0:0:0:
256,192,54416,2,0,L|200:192,1,32.5,2|0,0:0|0:0,0:0:0:0:
176,192,54554,2,0,L|232:192,1,32.5,8|0,0:0|0:0,0:0:0:0:
304,192,54692,1,2,0:0:0:0:
352,192,54762,1,0,0:0:0:0:
368,192,54831,1,8,0:0:0:0:
328,192,54900,1,0,0:0:0:0:
232,192,54969,1,2,0:0:0:0:
208,192,55038,1,0,0:0:0:0:
232,192,55107,1,8,0:0:0:0:
272,192,55176,1,0,0:0:0:0:
368,192,55245,5,2,0:0:0:0:
496,192,55315,2,0,P|472:144|424:128,1,97.5,4|0,0:0|0:0,0:0:0:0:
352,192,55660,1,0,0:0:0:0:
216,192,55798,1,2,0:0:0:0:
176,192,55868,1,0,0:0:0:0:
272,192,55937,1,8,0:0:0:0:
312,192,56007,1,0,0:0:0:0:
216,192,56075,1,2,0:0:0:0:
176,192,56144,1,0,0:0:0:0:
152,192,56213,1,8,0:0:0:0:
144,192,56282,1,0,0:0:0:0:
280,192,56351,5,2,0:0:0:0:
320,192,56421,1,0,0:0:0:0:
280,192,56490,1,8,0:0:0:0:
184,192,56559,2,0,L|144:192,2,32.5,0|2|0,0:0|0:0|0:0,0:0:0:0:
280,192,56766,2,0,L|320:192,2,32.5,2|0|0,0:0|0:0|0:0,0:0:0:0:
184,192,56974,2,0,L|144:192,2,32.5,2|0|0,0:0|0:0|0:0,0:0:0:0:
336,192,57181,1,2,0:0:0:0:
376,192,57250,1,0,0:0:0:0:
336,192,57319,1,8,0:0:0:0:
296,192,57388,1,0,0:0:0:0:
144,192,57457,6,0,P|56:144|152:80,1,260,4|2,0:0|0:0,0:0:0:0:
480,192,58563,2,0,P|384:144|480:104,1,260,4|2,0:0|0:0,0:0:0:0:
144,192,59669,6,0,P|96:168|128:128,1,97.5,4|0,0:0|0:0,0:0:0:0:
200,192,59946,1,2,0:0:0:0:
240,192,60015,1,0,0:0:0:0:
240,192,60084,1,0,0:0:0:0:
200,192,60153,1,0,0:0:0:0:
72,192,60222,1,2,0:0:0:0:
32,192,60291,1,0,0:0:0:0:
32,192,60360,1,0,0:0:0:0:
72,192,60429,1,0,0:0:0:0:
216,192,60499,1,2,0:0:0:0:
256,192,60568,1,0,0:0:0:0:
280,192,60637,1,0,0:0:0:0:
256,192,60706,1,0,0:0:0:0:
96,192,60775,5,2,0:0:0:0:
56,192,60844,1,0,0:0:0:0:
32,192,60914,1,0,0:0:0:0:
56,192,60983,1,0,0:0:0:0:
152,192,61052,1,2,0:0:0:0:
192,192,61121,1,0,0:0:0:0:
216,192,61190,1,0,0:0:0:0:
232,192,61259,1,0,0:0:0:0:
184,192,61328,1,2,0:0:0:0:
216,192,61397,1,0,0:0:0:0:
248,192,61467,1,0,0:0:0:0:
280,192,61536,1,0,0:0:0:0:
248,192,61605,1,2,0:0:0:0:
216,192,61674,1,0,0:0:0:0:
184,192,61744,1,0,0:0:0:0:
216,192,61813,1,0,0:0:0:0:
376,192,61881,5,4,0:0:0:0:
256,192,62020,12,0,64024,0:0:0:0:
256,192,64093,12,0,65752,0:0:0:0:
352,192,66029,6,0,L|376:160,3,32.5,8|0|0|0,0:0|0:0|0:0|0:0,0:0:0:0:
232,192,66305,6,0,L|152:192,1,65,4|8,0:0|0:0,0:0:0:0:
304,192,66582,1,2,0:0:0:0:
232,192,66720,1,0,0:0:0:0:
200,192,66789,1,0,0:0:0:0:
192,192,66858,1,8,0:0:0:0:
200,192,66927,1,0,0:0:0:0:
232,192,66996,1,0,0:0:0:0:
456,192,67135,1,2,0:0:0:0:
232,192,67273,1,2,0:0:0:0:
456,192,67411,6,0,L|376:192,1,65,4|8,0:0|0:0,0:0:0:0:
248,192,67688,1,2,0:0:0:0:
328,192,67826,1,0,0:0:0:0:
360,192,67895,1,0,0:0:0:0:
376,192,67964,1,8,0:0:0:0:
360,192,68033,1,0,0:0:0:0:
328,192,68103,1,0,0:0:0:0:
112,192,68241,1,2,0:0:0:0:
232,192,68379,1,8,0:0:0:0:
16,192,68517,6,0,L|81:192,1,65,4|8,0:0|0:0,0:0:0:0:
224,192,68794,1,2,0:0:0:0:
80,192,68932,1,0,0:0:0:0:
320,192,69070,1,8,0:0:0:0:
424,192,69209,2,0,L|368:192,1,32.5,2|2,0:0|0:0,0:0:0:0:
248,192,69347,2,0,P|192:176|184:152,1,65,2|8,0:0|0:0,0:0:0:0:
424,192,69623,5,4,0:0:0:0:
296,192,69762,1,8,0:0:0:0:
88,192,69900,1,2,0:0:0:0:
216,192,70038,2,0,L|216:160,1,32.5,0|0,0:0|0:0,0:0:0:0:
80,192,70176,1,8,0:0:0:0:
48,192,70245,1,0,0:0:0:0:
48,192,70315,1,8,0:0:0:0:
80,192,70384,1,0,0:0:0:0:
216,192,70453,2,0,P|272:168|280:152,1,65,2|0,0:0|0:0,0:0:0:0:
64,192,70729,6,0,P|32:152|40:136,1,65,4|8,0:0|0:0,0:0:0:0:
168,192,71006,1,2,0:0:0:0:
248,192,71144,1,0,0:0:0:0:
288,192,71213,1,0,0:0:0:0:
304,192,71282,1,8,0:0:0:0:
288,192,71351,1,0,0:0:0:0:
248,192,71420,1,0,0:0:0:0:
32,192,71559,1,2,0:0:0:0:
248,192,71697,1,2,0:0:0:0:
464,192,71835,6,0,L|400:192,1,65,4|8,0:0|0:0,0:0:0:0:
256,192,72112,1,2,0:0:0:0:
176,192,72250,1,0,0:0:0:0:
216,192,72319,1,0,0:0:0:0:
232,192,72388,1,8,0:0:0:0:
216,192,72457,1,0,0:0:0:0:
176,192,72526,1,0,0:0:0:0:
392,192,72665,1,2,0:0:0:0:
280,192,72803,1,8,0:0:0:0:
488,192,72941,6,0,L|400:192,1,65,4|8,0:0|0:0,0:0:0:0:
288,192,73218,1,2,0:0:0:0:
424,192,73356,1,0,0:0:0:0:
192,192,73494,1,8,0:0:0:0:
72,192,73633,2,0,L|112:192,1,32.5,2|2,0:0|0:0,0:0:0:0:
256,192,73771,1,2,0:0:0:0:
336,192,73909,1,8,0:0:0:0:
128,192,74047,5,4,0:0:0:0:
232,192,74186,1,8,0:0:0:0:
24,192,74324,1,2,0:0:0:0:
128,192,74462,1,0,0:0:0:0:
176,192,74531,1,0,0:0:0:0:
336,192,74600,1,8,0:0:0:0:
376,192,74669,1,0,0:0:0:0:
376,192,74738,1,8,0:0:0:0:
336,192,74807,1,0,0:0:0:0:
193,192,74877,2,0,L|121:192,1,65,2|0,0:0|0:0,0:0:0:0:
352,192,75153,6,0,L|416:192,1,65,4|8,0:0|0:0,0:0:0:0:
280,192,75430,1,2,0:0:0:0:
352,192,75568,2,0,L|384:192,1,32.5,0|0,0:0|0:0,0:0:0:0:
232,192,75706,1,8,0:0:0:0:
193,192,75775,1,0,0:0:0:0:
176,192,75844,1,0,0:0:0:0:
392,192,75983,2,0,L|440:192,1,32.5,2|2,0:0|0:0,0:0:0:0:
328,192,76121,1,2,0:0:0:0:
288,192,76190,1,2,0:0:0:0:
144,192,76259,6,0,L|72:192,1,65,6|8,0:0|0:0,0:0:0:0:
120,192,76467,1,0,0:0:0:0:
216,192,76536,2,0,L|296:192,1,65,2|8,0:0|0:0,0:0:0:0:
240,192,76743,1,0,0:0:0:0:
144,192,76812,1,2,0:0:0:0:
232,192,76950,1,8,0:0:0:0:
96,192,77089,1,2,0:0:0:0:
304,192,77227,1,2,0:0:0:0:
96,192,77365,6,0,L|16:192,1,65,4|0,0:0|0:0,0:0:0:0:
72,192,77573,1,0,0:0:0:0:
168,192,77642,2,0,L|208:192,1,32.5,2|2,0:0|0:0,0:0:0:0:
104,192,77780,2,0,L|64:192,1,32.5,2|2,0:0|0:0,0:0:0:0:
208,192,77918,1,10,0:0:0:0:
256,192,77987,1,2,0:0:0:0:
280,192,78056,1,2,0:0:0:0:
280,192,78126,1,0,0:0:0:0:
144,192,78195,1,2,0:0:0:0:
56,192,78333,2,0,L|104:192,1,32.5,8|0,0:0|0:0,0:0:0:0:
256,192,78471,6,0,L|336:192,1,65,4|0,0:0|0:0,0:0:0:0:
280,192,78679,1,0,0:0:0:0:
184,192,78748,2,0,P|152:160|168:144,1,65,2|0,0:0|0:0,0:0:0:0:
200,192,78955,1,0,0:0:0:0:
296,192,79024,2,0,L|352:192,1,32.5,8|0,0:0|0:0,0:0:0:0:
328,192,79162,2,0,L|296:192,1,32.5,8|0,0:0|0:0,0:0:0:0:
200,192,79301,2,0,L|160:192,1,32.5,2|0,0:0|0:0,0:0:0:0:
304,192,79439,2,0,L|344:192,1,32.5,2|0,0:0|0:0,0:0:0:0:
176,192,79577,6,0,L|104:192,1,65,4|8,0:0|0:0,0:0:0:0:
241,192,79854,2,0,L|169:192,1,65,2|0,0:0|0:0,0:0:0:0:
400,192,80130,1,8,0:0:0:0:
440,192,80199,1,0,0:0:0:0:
440,192,80268,1,8,0:0:0:0:
400,192,80337,1,0,0:0:0:0:
256,192,80407,1,2,0:0:0:0:
336,192,80545,2,0,L|336:152,1,32.5,0|0,0:0|0:0,0:0:0:0:
192,192,80683,6,0,L|120:192,1,65,4|0,0:0|0:0,0:0:0:0:
264,192,80960,1,2,0:0:0:0:
384,192,81098,1,0,0:0:0:0:
176,192,81236,2,0,L|120:192,2,32.5,8|0|0,0:0|0:0|0:0,0:0:0:0:
392,192,81513,1,2,0:0:0:0:
176,192,81651,1,2,0:0:0:0:
392,192,81789,6,0,L|440:192,2,32.5,4|0|8,0:0|0:0|0:0,0:0:0:0:
344,192,81997,1,0,0:0:0:0:
248,192,82066,2,0,L|200:192,1,32.5,2|0,0:0|0:0,0:0:0:0:
215,192,82204,2,0,L|248:192,1,32.5,0|0,0:0|0:0,0:0:0:0:
392,192,82342,2,0,L|448:192,1,32.5,2|0,0:0|0:0,0:0:0:0:
328,192,82480,2,0,L|288:192,1,32.5,2|0,0:0|0:0,0:0:0:0:
440,192,82619,1,2,0:0:0:0:
480,192,82688,1,2,0:0:0:0:
440,192,82757,1,2,0:0:0:0:
400,192,82826,1,2,0:0:0:0:
256,192,82895,6,0,L|160:192,1,65,4|8,0:0|0:0,0:0:0:0:
168,192,83103,1,0,0:0:0:0:
264,192,83172,2,0,P|288:160|264:152,1,65,2|0,0:0|0:0,0:0:0:0:
240,192,83379,1,0,0:0:0:0:
104,192,83448,2,0,L|24:192,1,65,8|8,0:0|0:0,0:0:0:0:
256,192,83725,1,2,0:0:0:0:
40,192,83863,1,2,0:0:0:0:
256,192,84001,6,0,L|392:192,2,130,4|0|2,0:0|0:0|0:0,0:0:0:0:
112,192,84831,2,0,L|40:192,1,65,0|0,0:0|0:0,0:0:0:0:
191,192,85107,6,0,L|255:192,2,65,4|0|0,0:0|0:0|0:0,0:0:0:0:
408,192,85660,2,0,P|456:168|424:112,1,130,2|0,0:0|0:0,0:0:0:0:
352,192,86075,1,0,0:0:0:0:
136,192,86213,5,4,0:0:0:0:
368,192,86490,1,2,0:0:0:0:
408,192,86559,1,0,0:0:0:0:
408,192,86628,1,0,0:0:0:0:
368,192,86697,1,0,0:0:0:0:
328,192,86766,1,8,0:0:0:0:
296,192,86835,1,0,0:0:0:0:
280,192,86904,1,0,0:0:0:0:
296,192,86974,1,0,0:0:0:0:
392,192,87043,1,2,0:0:0:0:
432,192,87112,1,0,0:0:0:0:
432,192,87181,1,0,0:0:0:0:
392,192,87250,1,0,0:0:0:0:
240,192,87319,5,2,0:0:0:0:
200,192,87388,1,0,0:0:0:0:
184,192,87457,1,0,0:0:0:0:
280,192,87527,1,2,0:0:0:0:
416,192,87596,2,0,L|464:192,1,32.5,2|0,0:0|0:0,0:0:0:0:
448,192,87734,2,0,L|416:192,1,32.5,0|0,0:0|0:0,0:0:0:0:
280,192,87872,2,0,P|224:176|216:152,1,65,8|0,0:0|0:0,0:0:0:0:
376,192,88149,2,0,L|448:192,1,65,2|0,0:0|0:0,0:0:0:0:
216,192,88425,5,4,0:0:0:0:
432,192,88702,1,4,0:0:0:0:
216,192,88978,1,2,0:0:0:0:
256,192,89047,1,0,0:0:0:0:
296,192,89116,1,0,0:0:0:0:
336,192,89186,1,0,0:0:0:0:
296,192,89255,1,2,0:0:0:0:
256,192,89325,1,0,0:0:0:0:
216,192,89394,1,0,0:0:0:0:
256,192,89463,1,0,0:0:0:0:
400,192,89531,5,4,0:0:0:0:
184,192,89808,1,4,0:0:0:0:
440,192,90084,1,2,0:0:0:0:
400,192,90153,1,0,0:0:0:0:
360,192,90222,1,0,0:0:0:0:
344,192,90292,1,0,0:0:0:0:
360,192,90361,1,2,0:0:0:0:
400,192,90431,1,0,0:0:0:0:
440,192,90500,1,8,0:0:0:0:
456,192,90569,1,0,0:0:0:0:
296,192,90637,5,4,0:0:0:0:
168,192,90775,1,4,0:0:0:0:
400,192,90914,2,0,P|424:160|400:152,1,65,6|0,0:0|0:0,0:0:0:0:
384,192,91121,1,0,0:0:0:0:
352,192,91190,1,2,0:0:0:0:
312,192,91259,1,0,0:0:0:0:
183,192,91328,2,0,L|135:192,1,32.5,8|0,0:0|0:0,0:0:0:0:
151,192,91467,2,0,L|183:192,1,32.5,2|0,0:0|0:0,0:0:0:0:
279,192,91605,2,0,L|319:192,1,32.5,8|0,0:0|0:0,0:0:0:0:
176,192,91743,6,0,L|128:192,1,32.5,6|0,0:0|0:0,0:0:0:0:
192,192,91881,2,0,L|240:192,1,32.5,8|0,0:0|0:0,0:0:0:0:
320,192,92020,1,2,0:0:0:0:
360,192,92089,1,0,0:0:0:0:
376,192,92158,1,8,0:0:0:0:
376,192,92227,1,0,0:0:0:0:
328,192,92296,2,0,L|272:192,2,32.5,2|0|8,0:0|0:0|0:0,0:0:0:0:
424,192,92503,1,0,0:0:0:0:
464,192,92573,1,2,0:0:0:0:
480,192,92642,1,0,0:0:0:0:
464,192,92711,1,8,0:0:0:0:
424,192,92780,1,0,0:0:0:0:
280,192,92849,6,0,L|184:192,1,65,4|0,0:0|0:0,0:0:0:0:
360,192,93126,1,2,0:0:0:0:
400,192,93195,1,0,0:0:0:0:
360,192,93264,1,0,0:0:0:0:
320,192,93333,1,0,0:0:0:0:
360,192,93402,1,8,0:0:0:0:
400,192,93471,1,0,0:0:0:0:
424,192,93540,1,0,0:0:0:0:
424,192,93609,1,0,0:0:0:0:
376,192,93679,1,2,0:0:0:0:
344,192,93748,1,0,0:0:0:0:
344,192,93817,1,0,0:0:0:0:
376,192,93886,1,0,0:0:0:0:
232,192,93955,6,0,L|160:192,1,65,4|0,0:0|0:0,0:0:0:0:
384,192,94232,1,2,0:0:0:0:
360,192,94301,1,0,0:0:0:0:
320,192,94370,1,0,0:0:0:0:
280,192,94439,1,0,0:0:0:0:
144,192,94508,1,8,0:0:0:0:
104,192,94577,1,0,0:0:0:0:
104,192,94646,1,0,0:0:0:0:
144,192,94715,1,0,0:0:0:0:
280,192,94785,2,0,L|320:192,1,32.5,2|0,0:0|0:0,0:0:0:0:
216,192,94923,2,0,L|183:192,1,32.5,2|0,0:0|0:0,0:0:0:0:
320,192,95061,6,0,L|360:192,1,32.5,4|0,0:0|0:0,0:0:0:0:
352,192,95199,2,0,L|320:192,1,32.5,0|0,0:0|0:0,0:0:0:0:
224,192,95338,1,2,0:0:0:0:
184,192,95407,1,0,0:0:0:0:
160,192,95476,1,0,0:0:0:0:
184,192,95545,1,0,0:0:0:0:
320,192,95614,2,0,L|360:192,1,32.5,8|0,0:0|0:0,0:0:0:0:
256,192,95752,2,0,L|223:192,1,32.5,8|0,0:0|0:0,0:0:0:0:
360,192,95891,2,0,L|400:192,1,32.5,2|0,0:0|0:0,0:0:0:0:
256,192,96029,2,0,L|223:192,1,32.5,2|0,0:0|0:0,0:0:0:0:
360,192,96167,5,4,0:0:0:0:
400,192,96236,1,0,0:0:0:0:
432,192,96305,1,0,0:0:0:0:
456,192,96374,1,0,0:0:0:0:
360,192,96444,1,2,0:0:0:0:
320,192,96513,1,0,0:0:0:0:
320,192,96582,1,0,0:0:0:0:
360,192,96651,1,0,0:0:0:0:
456,192,96720,2,0,L|376:192,1,65,4|0,0:0|0:0,0:0:0:0:
176,192,96997,2,0,L|256:192,1,65,6|0,0:0|0:0,0:0:0:0:
456,192,97273,6,0,P|496:176|448:136,1,130,4|0,0:0|0:0,0:0:0:0:
312,192,97826,2,0,L|224:192,1,65,2|0,0:0|0:0,0:0:0:0:
392,192,98103,1,0,0:0:0:0:
152,192,98379,5,4,0:0:0:0:
112,192,98448,1,0,0:0:0:0:
88,192,98517,1,0,0:0:0:0:
112,192,98586,1,0,0:0:0:0:
248,192,98656,2,0,L|288:192,1,32.5,2|0,0:0|0:0,0:0:0:0:
296,192,98794,2,0,L|295:144,1,32.5,0|0,0:0|0:0,0:0:0:0:
152,192,98932,1,8,0:0:0:0:
112,192,99001,1,0,0:0:0:0:
88,192,99070,1,0,0:0:0:0:
72,192,99139,1,0,0:0:0:0:
168,192,99209,2,0,L|240:192,1,65,2|0,0:0|0:0,0:0:0:0:
16,192,99485,6,0,L|96:192,1,65,4|0,0:0|0:0,0:0:0:0:
224,192,99762,2,0,L|296:192,1,65,2|0,0:0|0:0,0:0:0:0:
144,192,100038,1,8,0:0:0:0:
104,192,100107,1,0,0:0:0:0:
104,192,100176,1,0,0:0:0:0:
144,192,100245,1,0,0:0:0:0:
184,192,100315,1,2,0:0:0:0:
144,192,100384,1,0,0:0:0:0:
104,192,100454,1,2,0:0:0:0:
144,192,100522,1,0,0:0:0:0:
304,192,100591,6,0,L|384:192,1,65,4|0,0:0|0:0,0:0:0:0:
224,192,100868,2,0,L|144:192,1,65,8|0,0:0|0:0,0:0:0:0:
304,192,101144,2,0,L|368:192,3,65,2|0|8|0,0:0|0:0|0:0|0:0,0:0:0:0:
144,192,101697,6,0,P|72:176|56:128,2,130,4|0|0,0:0|0:0|0:0,0:0:0:0:
384,192,102527,1,0,0:0:0:0:
32,192,102803,6,0,P|56:144|136:128,1,130,8|0,0:0|0:0,0:0:0:0:
376,192,103356,2,0,L|304:192,1,65,2|0,0:0|0:0,0:0:0:0:
168,192,103633,2,0,L|240:192,1,65,2|0,0:0|0:0,0:0:0:0:
448,192,103909,5,4,0:0:0:0:
448,192,103978,1,0,0:0:0:0:
416,192,104047,1,0,0:0:0:0:
376,192,104116,1,0,0:0:0:0:
280,192,104186,1,2,0:0:0:0:
240,192,104255,1,0,0:0:0:0:
240,192,104324,1,0,0:0:0:0:
280,192,104393,1,0,0:0:0:0:
416,192,104462,2,0,L|456:192,1,32.5,2|0,0:0|0:0,0:0:0:0:
416,192,104600,2,0,L|376:192,1,32.5,0|0,0:0|0:0,0:0:0:0:
240,192,104738,1,2,0:0:0:0:
192,192,104808,1,0,0:0:0:0:
176,192,104877,1,0,0:0:0:0:
192,192,104946,1,0,0:0:0:0:
336,192,105015,5,4,0:0:0:0:
376,192,105084,1,0,0:0:0:0:
392,192,105153,1,8,0:0:0:0:
368,192,105222,1,0,0:0:0:0:
224,192,105291,1,2,0:0:0:0:
184,192,105360,1,0,0:0:0:0:
168,192,105429,1,8,0:0:0:0:
192,192,105498,1,0,0:0:0:0:
336,192,105568,2,0,L|384:192,1,32.5,2|0,0:0|0:0,0:0:0:0:
232,192,105706,2,0,L|184:192,1,32.5,2|0,0:0|0:0,0:0:0:0:
336,192,105844,2,0,L|384:192,1,32.5,2|2,0:0|0:0,0:0:0:0:
232,192,105982,2,0,L|184:192,1,32.5,2|2,0:0|0:0,0:0:0:0:
368,192,106121,6,0,L|448:192,1,65,4|0,0:0|0:0,0:0:0:0:
296,192,106397,2,0,L|231:192,1,65,2|0,0:0|0:0,0:0:0:0:
272,192,106605,1,0,0:0:0:0:
361,192,106674,2,0,L|393:192,2,32.5,8|0|0,0:0|0:0|0:0,0:0:0:0:
224,192,106950,2,0,L|159:192,1,65,2|0,0:0|0:0,0:0:0:0:
361,192,107227,6,0,L|281:192,1,65,4|0,0:0|0:0,0:0:0:0:
161,192,107503,2,0,L|73:192,1,65,2|0,0:0|0:0,0:0:0:0:
313,192,107780,1,8,0:0:0:0:
353,192,107849,1,0,0:0:0:0:
353,192,107918,1,2,0:0:0:0:
313,192,107987,1,0,0:0:0:0:
177,192,108056,2,0,L|129:192,1,32.5,2|0,0:0|0:0,0:0:0:0:
241,192,108195,2,0,L|297:192,1,32.5,2|2,0:0|0:0,0:0:0:0:
136,192,108333,5,6,0:0:0:0:
96,192,108402,1,0,0:0:0:0:
80,192,108471,1,8,0:0:0:0:
96,192,108540,1,0,0:0:0:0:
232,192,108609,1,2,0:0:0:0:
273,192,108679,1,0,0:0:0:0:
273,192,108748,1,2,0:0:0:0:
232,192,108818,1,0,0:0:0:0:
368,192,108886,1,8,0:0:0:0:
408,192,108955,1,0,0:0:0:0:
368,192,109024,1,8,0:0:0:0:
328,192,109093,1,0,0:0:0:0:
192,192,109162,1,2,0:0:0:0:
152,192,109232,1,0,0:0:0:0:
192,192,109301,1,8,0:0:0:0:
233,192,109370,1,0,0:0:0:0:
88,192,109439,6,0,L|40:192,1,32.5,4|0,0:0|0:0,0:0:0:0:
192,192,109577,2,0,L|232:192,1,32.5,0|0,0:0|0:0,0:0:0:0:
88,192,109715,2,0,L|48:192,1,32.5,2|0,0:0|0:0,0:0:0:0:
192,192,109854,2,0,L|232:192,1,32.5,4|0,0:0|0:0,0:0:0:0:
88,192,109992,1,8,0:0:0:0:
48,192,110061,1,0,0:0:0:0:
32,192,110130,1,0,0:0:0:0:
32,192,110199,1,0,0:0:0:0:
168,192,110268,2,0,L|200:192,1,32.5,2|0,0:0|0:0,0:0:0:0:
112,192,110407,2,0,L|80:192,1,32.5,0|0,0:0|0:0,0:0:0:0:
248,192,110545,6,0,L|336:192,1,65,4|0,0:0|0:0,0:0:0:0:
112,192,110821,1,2,0:0:0:0:
136,192,110891,1,0,0:0:0:0:
176,192,110960,1,0,0:0:0:0:
216,192,111029,1,0,0:0:0:0:
248,192,111098,1,8,0:0:0:0:
280,192,111167,1,0,0:0:0:0:
280,192,111236,1,0,0:0:0:0:
248,192,111305,1,0,0:0:0:0:
288,192,111374,1,2,0:0:0:0:
288,192,111444,1,0,0:0:0:0:
256,192,111513,1,0,0:0:0:0:
224,192,111583,1,0,0:0:0:0:
368,192,111651,6,0,L|440:192,1,65,4|0,0:0|0:0,0:0:0:0:
224,192,111927,1,2,0:0:0:0:
192,192,111997,1,0,0:0:0:0:
192,192,112066,1,0,0:0:0:0:
224,192,112136,1,0,0:0:0:0:
264,192,112204,1,8,0:0:0:0:
304,192,112273,1,0,0:0:0:0:
320,192,112342,1,0,0:0:0:0:
304,192,112411,1,0,0:0:0:0:
264,192,112480,1,2,0:0:0:0:
224,192,112550,1,0,0:0:0:0:
200,192,112619,1,0,0:0:0:0:
184,192,112688,1,0,0:0:0:0:
320,192,112757,5,4,0:0:0:0:
360,192,112826,1,0,0:0:0:0:
360,192,112895,1,0,0:0:0:0:
320,192,112964,1,0,0:0:0:0:
184,192,113033,1,2,0:0:0:0:
144,192,113102,1,0,0:0:0:0:
144,192,113171,1,0,0:0:0:0:
184,192,113240,1,0,0:0:0:0:
280,192,113310,1,8,0:0:0:0:
320,192,113379,1,0,0:0:0:0:
280,192,113448,1,0,0:0:0:0:
240,192,113517,1,0,0:0:0:0:
144,192,113586,2,0,L|112:192,1,32.5,2|0,0:0|0:0,0:0:0:0:
96,192,113725,2,0,L|96:152,1,32.5,8|0,0:0|0:0,0:0:0:0:
255,192,113863,6,0,L|327:192,1,65,4|0,0:0|0:0,0:0:0:0:
176,192,114070,1,0,0:0:0:0:
144,192,114139,2,0,P|112:176|144:128,1,97.5,2|0,0:0|0:0,0:0:0:0:
272,192,114416,2,0,P|328:160|336:128,1,97.5,4|0,0:0|0:0,0:0:0:0:
193,192,114692,2,0,L|73:192,1,97.5,2|0,0:0|0:0,0:0:0:0:
272,192,114969,5,4,0:0:0:0:
312,192,115038,1,0,0:0:0:0:
328,192,115107,1,0,0:0:0:0:
296,192,115176,1,0,0:0:0:0:
136,192,115245,2,0,L|112:160,3,32.5,2|0|0|0,0:0|0:0|0:0|0:0,0:0:0:0:
256,192,115522,2,0,L|320:192,1,65,8|0,0:0|0:0,0:0:0:0:
184,192,115798,1,2,0:0:0:0:
321,192,115937,1,2,0:0:0:0:
96,192,116075,6,0,L|24:192,2,65,4|0|2,0:0|0:0|0:0,0:0:0:0:
16,192,116490,2,0,L|56:192,1,32.5,8|0,0:0|0:0,0:0:0:0:
152,192,116628,1,8,0:0:0:0:
200,192,116697,1,0,0:0:0:0:
232,192,116766,1,0,0:0:0:0:
248,192,116835,1,0,0:0:0:0:
152,192,116904,2,0,L|88:192,1,65,2|2,0:0|0:0,0:0:0:0:
304,192,117181,6,0,L|368:192,2,65,4|0|2,0:0|0:0|0:0,0:0:0:0:
440,192,117596,1,0,0:0:0:0:
232,192,117734,2,0,L|160:192,1,65,8|0,0:0|0:0,0:0:0:0:
369,192,118010,1,2,0:0:0:0:
168,192,118149,1,2,0:0:0:0:
96,192,118287,5,4,0:0:0:0:
369,192,118425,2,0,L|425:192,1,32.5,2|0,0:0|0:0,0:0:0:0:
264,192,118563,1,2,0:0:0:0:
224,192,118633,1,0,0:0:0:0:
224,192,118702,1,2,0:0:0:0:
264,192,118772,1,0,0:0:0:0:
401,192,118840,1,8,0:0:0:0:
440,192,118909,1,0,0:0:0:0:
464,192,118978,1,8,0:0:0:0:
440,192,119047,1,0,0:0:0:0:
304,192,119116,2,0,L|256:192,1,32.5,2|0,0:0|0:0,0:0:0:0:
407,192,119255,2,0,L|455:192,1,32.5,2|0,0:0|0:0,0:0:0:0:
296,192,119393,5,4,0:0:0:0:
264,192,119462,1,0,0:0:0:0:
296,192,119531,1,0,0:0:0:0:
328,192,119600,1,8,0:0:0:0:
360,192,119669,1,0,0:0:0:0:
328,192,119738,1,0,0:0:0:0:
296,192,119808,1,8,0:0:0:0:
328,192,119877,1,0,0:0:0:0:
360,192,119946,1,0,0:0:0:0:
208,192,120015,2,0,L|160:192,2,32.5,8|0|0,0:0|0:0|0:0,0:0:0:0:
344,192,120222,2,0,L|392:192,2,32.5,8|0|0,0:0|0:0|0:0,0:0:0:0:
208,192,120430,1,0,0:0:0:0:
72,192,120499,5,8,0:0:0:0:
32,192,120568,1,0,0:0:0:0:
72,192,120637,1,0,0:0:0:0:
168,192,120706,1,8,0:0:0:0:
208,192,120775,1,0,0:0:0:0:
168,192,120844,1,0,0:0:0:0:
72,192,120914,1,8,0:0:0:0:
32,192,120983,1,0,0:0:0:0:
72,192,121052,1,0,0:0:0:0:
304,192,121155,1,8,0:0:0:0:
344,192,121224,1,0,0:0:0:0:
344,192,121293,1,0,0:0:0:0:
200,192,121362,1,8,0:0:0:0:
160,192,121431,1,0,0:0:0:0:
160,192,121500,1,0,0:0:0:0:
304,192,121570,1,8,0:0:0:0:
416,192,121605,6,0,P|480:160|408:88,1,195,4|0,0:0|0:0,0:0:0:0:
368,192,122089,1,0,0:0:0:0:
224,192,122158,1,2,0:0:0:0:
184,192,122227,1,0,0:0:0:0:
144,192,122296,1,0,0:0:0:0:
184,192,122365,1,0,0:0:0:0:
224,192,122434,1,0,0:0:0:0:
184,192,122503,1,0,0:0:0:0:
144,192,122573,1,0,0:0:0:0:
184,192,122642,1,0,0:0:0:0:
280,192,122711,5,8,0:0:0:0:
320,192,122780,1,0,0:0:0:0:
344,192,122849,1,0,0:0:0:0:
320,192,122918,1,0,0:0:0:0:
344,192,122987,1,0,0:0:0:0:
376,192,123056,1,0,0:0:0:0:
376,192,123126,1,0,0:0:0:0:
344,192,123195,1,0,0:0:0:0:
296,192,123264,1,8,0:0:0:0:
256,192,123333,1,0,0:0:0:0:
232,192,123402,1,0,0:0:0:0:
232,192,123471,1,0,0:0:0:0:
272,192,123540,1,8,0:0:0:0:
312,192,123609,1,0,0:0:0:0:
336,192,123678,1,0,0:0:0:0:
336,192,123747,1,0,0:0:0:0:
192,192,123817,6,0,P|128:192|96:136,1,130,4|0,0:0|0:0,0:0:0:0:
336,192,124370,1,2,0:0:0:0:
192,192,124646,2,0,L|112:192,1,65,8|0,0:0|0:0,0:0:0:0:
271,192,124923,6,0,L|351:192,2,65,8|0|8,0:0|0:0|0:0,0:0:0:0:
16,192,125476,2,0,P|24:152|104:112,1,130,2|0,0:0|0:0,0:0:0:0:
184,192,125891,1,0,0:0:0:0:
480,192,126029,6,0,L|480:48,1,130,4|0,0:0|0:0,0:0:0:0:
200,192,127135,5,14,0:0:0:0:
256,192,127273,12,4,140130,0:0:0:0:
