osu file format v14

[General]
AudioFilename: audio.mp3
AudioLeadIn: 0
PreviewTime: 66029
Countdown: 0
SampleSet: None
StackLeniency: 0.7
Mode: 2
LetterboxInBreaks: 0
WidescreenStoryboard: 0

[Editor]
DistanceSpacing: 0.8
BeatDivisor: 4
GridSize: 8
TimelineZoom: 2.4

[Metadata]
Title:Lawn Wake IV (Black)
TitleUnicode:Lawn Wake IV (Black)
Artist:The Flashbulb
ArtistUnicode:The Flashbulb
Creator:MBomb
Version:Black Overdose
Source:osu!
Tags:magic bomb featured artist mappers guild instrumental electronic breakcore Deif drill'n bass four 4
BeatmapID:2021499
BeatmapSetID:965730

[Difficulty]
HPDrainRate:7
CircleSize:4.2
OverallDifficulty:9.8
ApproachRate:9.8
SliderMultiplier:1.6
SliderTickRate:2

[Events]
//Background and Video events
0,0,"rsz_since_i_keep_reading_the_title_as_swan_lake.jpg",0,0
//Break Periods
//Storyboard Layer 0 (Background)
//Storyboard Layer 1 (Fail)
//Storyboard Layer 2 (Pass)
//Storyboard Layer 3 (Foreground)
//Storyboard Sound Samples

[TimingPoints]
2,276.497695852535,4,3,0,60,1,0
22398,-83.3333333333333,4,3,0,60,0,0
22674,-100,4,3,0,60,0,0
22951,-80,4,3,0,60,0,0
23227,-100,4,3,0,60,0,0
25025,-71.4285714285714,4,3,0,60,0,0
25439,-100,4,3,0,60,0,0
28550,-71.4285714285714,4,3,0,60,0,0
28757,-100,4,3,0,60,0,0
30140,-83.3333333333333,4,3,0,60,0,0
30416,-100,4,3,0,60,0,0
30693,-30,4,3,0,60,0,0
30969,-100,4,3,0,60,0,0
31799,-50,4,3,0,60,0,0
32075,-100,4,3,0,60,0,0
34149,-50,4,3,0,60,0,0
34218,-100,4,3,0,60,0,0
34840,-66.6666666666667,4,3,0,60,0,0
35393,-100,4,3,0,60,0,0
35946,-83.3333333333333,4,3,0,60,0,0
36223,-100,4,3,0,60,0,0
37328,-83.3333333333333,4,3,0,60,0,0
37605,-133.333333333333,4,3,0,60,0,0
38296,-100,4,3,0,60,0,0
38711,-133.333333333333,4,3,0,60,0,0
39264,-100,4,3,0,60,0,0
41338,-88.4955752212389,4,3,0,60,0,0
41545,-30,4,3,0,60,0,0
41753,-100,4,3,0,60,0,0
43273,304.568527918782,4,3,0,60,1,0
44186,276.497695852535,4,3,0,60,1,0
48333,-83.3333333333333,4,3,0,60,0,0
48609,-100,4,3,0,60,0,0
54692,-50,4,3,0,60,0,0
54831,-100,4,3,0,60,0,0
57457,-74.0740740740741,4,3,0,60,0,0
59669,-100,4,3,0,40,0,0
64093,-133.333333333333,4,3,0,40,0,0
66029,-100,4,3,0,60,0,0
66305,-100,4,3,0,60,0,1
70453,-83.3333333333333,4,3,0,60,0,1
70729,-100,4,3,0,60,0,1
74877,-83.3333333333333,4,3,0,60,0,1
75153,-100,4,3,0,60,0,1
77089,-30,4,3,0,60,0,1
77365,-100,4,3,0,60,0,1
80407,-30,4,3,0,60,0,1
80614,-100,4,3,0,60,0,1
83725,-30,4,3,0,60,0,1
84001,-100,4,3,0,60,0,0
92849,-74.0740740740741,4,3,0,60,0,0
93056,-100,4,3,0,60,0,0
99209,-83.3333333333333,4,3,0,60,0,0
99485,-100,4,3,0,60,0,0
101697,-100,4,3,0,40,0,0
105015,-100,4,3,0,60,0,0
106121,-100,4,3,0,60,0,1
109854,-66.6666666666667,4,3,0,60,0,1
109992,-100,4,3,0,60,0,1
114692,-83.3333333333333,4,3,0,60,0,1
114969,-100,4,3,0,60,0,1
121605,-100,4,3,0,60,0,0
126029,-30,4,3,0,60,0,1
126305,-100,4,3,0,25,0,0
127135,-100,4,3,0,70,0,0
127273,-100,4,3,0,45,0,0
129900,-100,4,3,0,35,0,0
131835,-100,4,3,0,25,0,0
133771,-100,4,3,0,15,0,0

[Colours]
Combo1 : 128,128,128
Combo2 : 192,192,192

[HitObjects]
256,192,13273,12,0,17421,0:0:0:0:
184,192,17697,6,0,P|96:160|88:104,1,160,4|0,0:0|0:0,0:0:0:0:
120,192,18008,1,0,0:0:0:0:
152,192,18043,1,0,0:0:0:0:
168,192,18078,1,0,0:0:0:0:
168,192,18112,1,0,0:0:0:0:
168,192,18147,1,0,0:0:0:0:
168,192,18181,1,0,0:0:0:0:
152,192,18216,1,0,0:0:0:0:
120,192,18251,1,0,0:0:0:0:
88,192,18285,1,0,0:0:0:0:
72,192,18319,1,0,0:0:0:0:
72,192,18354,1,0,0:0:0:0:
208,192,18389,1,8,0:0:0:0:
416,192,18527,2,0,P|472:152|456:112,1,120,8|0,0:0|0:0,0:0:0:0:
256,192,18803,5,8,0:0:0:0:
208,192,18872,1,0,0:0:0:0:
208,192,18942,1,8,0:0:0:0:
256,192,19011,1,0,0:0:0:0:
416,192,19080,2,0,L|320:192,1,80,2|0,0:0|0:0,0:0:0:0:
384,192,19287,1,0,0:0:0:0:
464,192,19356,1,8,0:0:0:0:
504,192,19425,1,0,0:0:0:0:
504,192,19495,1,8,0:0:0:0:
464,192,19564,1,0,0:0:0:0:
304,192,19633,2,0,L|400:192,1,80,2|0,0:0|0:0,0:0:0:0:
336,192,19840,1,0,0:0:0:0:
136,192,19909,6,0,L|136:48,1,120,4|0,0:0|0:0,0:0:0:0:
304,192,20186,1,2,0:0:0:0:
352,192,20255,1,0,0:0:0:0:
304,192,20324,1,2,0:0:0:0:
256,192,20393,1,0,0:0:0:0:
96,192,20462,1,8,0:0:0:0:
416,192,20601,1,8,0:0:0:0:
304,192,20739,2,0,L|240:192,1,40,2|0,0:0|0:0,0:0:0:0:
264,192,20877,2,0,L|328:192,1,40,2|0,0:0|0:0,0:0:0:0:
464,192,21015,5,4,0:0:0:0:
144,192,21223,1,4,0:0:0:0:
464,192,21430,1,4,0:0:0:0:
200,192,21568,2,0,P|144:168|144:128,1,80,8|0,0:0|0:0,0:0:0:0:
200,192,21776,1,0,0:0:0:0:
360,192,21845,2,0,L|408:192,1,40,2|0,0:0|0:0,0:0:0:0:
424,192,21983,2,0,L|384:192,1,40,2|0,0:0|0:0,0:0:0:0:
200,192,22121,6,0,L|296:192,1,80,4|0,0:0|0:0,0:0:0:0:
152,192,22398,2,0,L|88:192,3,47.9999985351563,2|0|2|0,0:0|0:0|0:0|0:0,0:0:0:0:
280,192,22674,2,0,L|336:192,2,40,8|0|0,0:0|0:0|0:0,0:0:0:0:
128,192,22951,2,0,L|280:192,1,150,2|0,0:0|0:0,0:0:0:0:
64,192,23227,6,0,L|40:192,5,20,4|0|0|0|0|0,0:0|0:0|0:0|0:0|0:0|0:0,0:0:0:0:
192,192,23435,1,2,0:0:0:0:
352,192,23504,1,2,0:0:0:0:
496,192,23573,1,2,0:0:0:0:
272,192,23642,2,0,L|192:192,1,80,8|0,0:0|0:0,0:0:0:0:
352,192,23849,2,0,P|400:168|400:144,1,80
344,192,24057,1,2,0:0:0:0:
292,192,24126,1,0,0:0:0:0:
292,192,24195,1,0,0:0:0:0:
344,192,24264,1,0,0:0:0:0:
104,192,24333,5,4,0:0:0:0:
48,192,24402,1,0,0:0:0:0:
48,192,24472,1,0,0:0:0:0:
256,192,24541,2,0,L|256:136,1,40,2|0,0:0|0:0,0:0:0:0:
440,192,24679,1,4,0:0:0:0:
496,192,24748,1,0,0:0:0:0:
496,192,24818,1,0,0:0:0:0:
288,192,24887,2,0,L|288:136,1,40,2|0,0:0|0:0,0:0:0:0:
464,192,25025,2,0,L|160:192,1,279.999991455078,4|0,0:0|0:0,0:0:0:0:
360,192,25439,5,4,0:0:0:0:
448,192,25578,1,0,0:0:0:0:
184,192,25716,1,2,0:0:0:0:
264,192,25854,1,4,0:0:0:0:
136,192,25993,1,0,0:0:0:0:
56,192,26131,2,0,L|56:144,1,40,2|0,0:0|0:0,0:0:0:0:
216,192,26269,1,10,0:0:0:0:
104,192,26407,1,2,0:0:0:0:
392,192,26545,6,0,B|416:176|416:176|432:80,1,120,4|0,0:0|0:0,0:0:0:0:
264,192,26822,1,2,0:0:0:0:
376,192,26960,1,8,0:0:0:0:
424,192,27029,1,0,0:0:0:0:
448,192,27098,1,0,0:0:0:0:
448,192,27167,1,8,0:0:0:0:
424,192,27236,1,0,0:0:0:0:
376,192,27305,1,0,0:0:0:0:
208,192,27375,2,0,P|144:168|136:144,1,80,2|0,0:0|0:0,0:0:0:0:
192,192,27582,1,0,0:0:0:0:
352,192,27651,5,4,0:0:0:0:
104,192,27790,1,4,0:0:0:0:
240,192,27928,2,0,L|328:192,1,80,2|0,0:0|0:0,0:0:0:0:
128,192,28135,2,0,L|72:192,2,40,8|8|8,0:0|0:0|0:0,0:0:0:0:
352,192,28343,2,0,L|432:192,1,80,4|0,0:0|0:0,0:0:0:0:
256,192,28550,2,0,L|368:192,1,111.999996582031,8|0,0:0|0:0,0:0:0:0:
184,192,28757,6,0,P|120:168|112:144,1,80,4|8,0:0|0:0,0:0:0:0:
384,192,29034,1,2,0:0:0:0:
80,192,29172,2,0,L|64:192,5,13.3333333333333
80,192,29310,1,0,0:0:0:0:
240,192,29379,2,0,L|296:192,2,40
80,192,29587,1,2,0:0:0:0:
80,192,29725,2,0,L|144:192,1,40
320,192,29863,5,4,0:0:0:0:
208,192,30002,2,0,L|152:192,1,40,8|0,0:0|0:0,0:0:0:0:
376,192,30140,2,0,L|224:192,1,143.999995605469,4|0,0:0|0:0,0:0:0:0:
360,192,30416,1,4,0:0:0:0:
248,192,30554,2,0,L|200:192,1,40,8|0,0:0|0:0,0:0:0:0:
464,192,30693,2,0,L|64:192,1,400,4|0,0:0|0:0,0:0:0:0:
272,192,30969,6,0,L|368:192,1,80,4|0,0:0|0:0,0:0:0:0:
96,192,31246,1,2,0:0:0:0:
176,192,31384,1,0,0:0:0:0:
224,192,31453,1,0,0:0:0:0:
248,192,31522,1,8,0:0:0:0:
248,192,31591,1,0,0:0:0:0:
224,192,31660,1,8,0:0:0:0:
176,192,31729,1,0,0:0:0:0:
392,192,31799,2,0,P|472:112|392:80,1,240,4|0,0:0|0:0,0:0:0:0:
192,192,32075,5,4,0:0:0:0:
160,192,32110,1,0,0:0:0:0:
144,192,32144,1,0,0:0:0:0:
128,192,32179,1,0,0:0:0:0:
144,192,32213,1,0,0:0:0:0:
192,192,32282,1,0,0:0:0:0:
352,192,32352,2,0,L|416:192,2,53.3333333333333
112,192,32628,5,2,0:0:0:0:
80,192,32663,1,0,0:0:0:0:
56,192,32697,1,0,0:0:0:0:
40,192,32732,1,0,0:0:0:0:
32,192,32766,1,0,0:0:0:0:
32,192,32801,1,0,0:0:0:0:
40,192,32835,1,0,0:0:0:0:
56,192,32870,1,0,0:0:0:0:
80,192,32904,1,0,0:0:0:0:
112,192,32939,1,0,0:0:0:0:
144,192,32974,1,0,0:0:0:0:
168,192,33008,1,0,0:0:0:0:
168,192,33043,1,0,0:0:0:0:
144,192,33078,1,0,0:0:0:0:
120,192,33112,1,0,0:0:0:0:
104,192,33147,1,0,0:0:0:0:
264,192,33181,5,4,0:0:0:0:
496,192,33319,2,0,L|496:128,1,40,8|0,0:0|0:0,0:0:0:0:
328,192,33458,1,4,0:0:0:0:
96,192,33596,2,0,L|96:128,1,40,8|0,0:0|0:0,0:0:0:0:
264,192,33734,1,4,0:0:0:0:
32,192,33872,2,0,L|32:128,1,40,8|0,0:0|0:0,0:0:0:0:
336,192,34011,1,4,0:0:0:0:
376,192,34045,1,0,0:0:0:0:
376,192,34080,1,0,0:0:0:0:
336,192,34114,1,0,0:0:0:0:
232,192,34149,2,0,L|184:192,1,40,8|0,0:0|0:0,0:0:0:0:
96,192,34218,2,0,L|80:160,1,20,8|0,0:0|0:0,0:0:0:0:
264,192,34287,6,0,P|302:185|328:128,1,80,8|0,0:0|0:0,0:0:0:0:
120,192,34495,2,0,L|120:152,1,40,8|0,0:0|0:0,0:0:0:0:
336,192,34633,2,0,L|424:192,1,80,4|0,0:0|0:0,0:0:0:0:
96,192,34840,2,0,P|16:152|96:72,1,240.000009155274,4|0,0:0|0:0,0:0:0:0:
440,192,35393,6,0,P|480:160|464:136,1,80,4|0,0:0|0:0,0:0:0:0:
416,192,35601,1,0,0:0:0:0:
256,192,35670,2,0,L|352:192,1,80,2|0,0:0|0:0,0:0:0:0:
368,192,35877,1,0,0:0:0:0:
168,192,35946,2,0,L|104:192,3,47.9999985351563,8|0|8|0,0:0|0:0|0:0|0:0,0:0:0:0:
296,192,36223,2,0,L|352:192,1,40,2|0,0:0|0:0,0:0:0:0:
128,192,36361,2,0,L|72:192,1,40,2|0,0:0|0:0,0:0:0:0:
368,192,36499,6,0,L|368:80,1,80,4|0,0:0|0:0,0:0:0:0:
128,192,36776,2,0,L|128:104,1,80,4|0,0:0|0:0,0:0:0:0:
184,192,36983,1,0,0:0:0:0:
368,192,37052,2,0,L|440:192,1,40,4|0,0:0|0:0,0:0:0:0:
240,192,37190,1,8,0:0:0:0:
76,193,37260,1,8,0:0:0:0:
272,192,37329,2,0,L|96:192,1,143.999995605469,4|0,0:0|0:0,0:0:0:0:
368,192,37605,6,0,L|120:192,1,240.000009155274,4|0,0:0|0:0,0:0:0:0:
408,192,38296,2,0,L|464:192,1,40,2|0,0:0|0:0,0:0:0:0:
288,192,38435,2,0,L|232:192,1,40,2|0,0:0|0:0,0:0:0:0:
400,192,38573,2,0,L|456:192,1,40,2|0,0:0|0:0,0:0:0:0:
224,192,38711,6,0,L|448:192,1,210.000008010865,4|0,0:0|0:0,0:0:0:0:
224,192,39264,2,0,P|176:168|224:128,1,120,8|0,0:0|0:0,0:0:0:0:
272,192,39541,1,0,0:0:0:0:
296,192,39575,1,0,0:0:0:0:
312,192,39610,1,0,0:0:0:0:
312,192,39644,1,0,0:0:0:0:
312,192,39679,1,0,0:0:0:0:
296,192,39713,1,0,0:0:0:0:
264,192,39748,1,0,0:0:0:0:
224,192,39783,1,0,0:0:0:0:
96,192,39817,6,0,P|16:160|96:80,1,240,4|0,0:0|0:0,0:0:0:0:
344,192,40370,2,0,L|384:192,1,40
424,192,40508,2,0,P|496:152|416:104,1,200
208,192,40923,6,0,L|120:192,1,80,4|0,0:0|0:0,0:0:0:0:
288,192,41131,2,0,L|200:192,1,80,4|0,0:0|0:0,0:0:0:0:
368,192,41338,2,0,L|272:192,1,90.4000002758789,4|0,0:0|0:0,0:0:0:0:
448,192,41545,2,0,L|216:56,1,266.666666666667,4|0,0:0|0:0,0:0:0:0:
408,192,41753,1,4,0:0:0:0:
472,192,41822,2,0,L|496:192,5,20,8|0|0|0|0|0,0:0|0:0|0:0|0:0|0:0|0:0,0:0:0:0:
472,192,42029,6,0,L|496:192,4,20
248,192,42237,1,2,0:0:0:0:
72,192,42306,1,8,0:0:0:0:
40,192,42340,1,0,0:0:0:0:
40,192,42375,1,0,0:0:0:0:
72,192,42409,1,0,0:0:0:0:
216,192,42444,1,2,0:0:0:0:
408,192,42513,1,8,0:0:0:0:
440,192,42548,1,0,0:0:0:0:
408,192,42582,1,0,0:0:0:0:
232,192,42617,5,8,0:0:0:0:
200,192,42651,1,0,0:0:0:0:
184,192,42686,1,0,0:0:0:0:
184,192,42720,1,0,0:0:0:0:
200,192,42755,1,0,0:0:0:0:
232,192,42789,1,0,0:0:0:0:
376,192,42824,1,8,0:0:0:0:
408,192,42859,1,0,0:0:0:0:
416,192,42893,1,0,0:0:0:0:
408,192,42928,1,0,0:0:0:0:
376,192,42963,1,0,0:0:0:0:
200,192,42997,1,8,0:0:0:0:
168,192,43031,1,0,0:0:0:0:
168,192,43066,1,0,0:0:0:0:
344,192,43101,5,8,0:0:0:0:
472,192,43135,1,0,0:0:0:0:
504,192,43170,1,0,0:0:0:0:
504,192,43204,1,0,0:0:0:0:
472,192,43239,1,0,0:0:0:0:
304,192,43273,6,0,B|65:192|65:192|57:80|197:80,1,440,4|0,0:0|0:0,0:0:0:0:
368,192,44186,5,4,0:0:0:0:
480,192,44324,1,0,0:0:0:0:
432,192,44393,1,0,0:0:0:0:
432,192,44462,1,0,0:0:0:0:
480,192,44531,1,0,0:0:0:0:
320,192,44600,2,0,L|192:192,1,120,4|0,0:0|0:0,0:0:0:0:
360,192,44877,1,8,0:0:0:0:
72,192,45015,1,8,0:0:0:0:
72,192,45291,6,0,L|176:192,1,80,4|0,0:0|0:0,0:0:0:0:
416,192,45568,1,8,0:0:0:0:
264,192,45706,1,8,0:0:0:0:
216,192,45775,1,0,0:0:0:0:
288,192,45844,1,8,0:0:0:0:
360,192,45914,1,0,0:0:0:0:
288,192,45983,1,8,0:0:0:0:
216,192,46052,1,0,0:0:0:0:
408,192,46121,2,0,P|456:144|408:120,1,120,2|0,0:0|0:0,0:0:0:0:
192,192,46397,5,4,0:0:0:0:
80,192,46535,1,0,0:0:0:0:
128,192,46604,1,0,0:0:0:0:
128,192,46673,1,0,0:0:0:0:
80,192,46742,1,0,0:0:0:0:
240,192,46812,2,0,L|360:192,1,120,4|0,0:0|0:0,0:0:0:0:
200,192,47088,1,8,0:0:0:0:
488,192,47226,1,8,0:0:0:0:
488,192,47503,6,0,L|376:192,1,80,4|0,0:0|0:0,0:0:0:0:
160,192,47780,1,8,0:0:0:0:
264,192,47918,2,0,L|328:192,1,40
120,192,48056,2,0,P|64:176|48:144,1,80,8|0,0:0|0:0,0:0:0:0:
304,192,48333,2,0,L|152:192,1,143.999995605469,2|0,0:0|0:0,0:0:0:0:
328,192,48609,5,4,0:0:0:0:
72,192,48748,1,0,0:0:0:0:
24,192,48817,1,0,0:0:0:0:
24,192,48886,1,0,0:0:0:0:
72,192,48955,1,0,0:0:0:0:
240,192,49024,2,0,L|304:192,1,40,4|0,0:0|0:0,0:0:0:0:
112,192,49162,1,8,0:0:0:0:
360,192,49301,1,8,0:0:0:0:
360,192,49439,1,0,0:0:0:0:
336,192,49508,1,0,0:0:0:0:
288,192,49577,1,0,0:0:0:0:
88,192,49715,6,0,L|8:192,1,80,2|0,0:0|0:0,0:0:0:0:
144,192,49992,1,2,0:0:0:0:
64,192,50130,1,0,0:0:0:0:
200,192,50268,1,2,0:0:0:0:
120,192,50406,1,0,0:0:0:0:
416,192,50545,2,0,L|432:176,7,20,2|0|0|0|0|0|0|0,0:0|0:0|0:0|0:0|0:0|0:0|0:0|0:0,0:0:0:0:
264,192,50821,5,4,0:0:0:0:
136,192,50960,1,0,0:0:0:0:
80,192,51029,1,0,0:0:0:0:
48,192,51098,1,0,0:0:0:0:
40,192,51167,1,0,0:0:0:0:
232,192,51236,2,0,P|272:152|232:136,1,120,4|0,0:0|0:0,0:0:0:0:
64,192,51513,1,8,0:0:0:0:
64,192,51651,1,8,0:0:0:0:
104,192,51720,1,0,0:0:0:0:
104,192,51789,1,0,0:0:0:0:
64,192,51858,1,0,0:0:0:0:
256,192,51927,5,4,0:0:0:0:
424,192,51997,1,0,0:0:0:0:
256,192,52066,1,8,0:0:0:0:
88,192,52136,1,0,0:0:0:0:
280,192,52204,1,2,0:0:0:0:
328,192,52273,1,0,0:0:0:0:
168,192,52342,1,8,0:0:0:0:
120,192,52411,1,0,0:0:0:0:
344,192,52480,1,2,0:0:0:0:
392,192,52550,1,0,0:0:0:0:
392,192,52619,1,8,0:0:0:0:
344,192,52689,1,0,0:0:0:0:
160,192,52757,2,0,L|104:192,1,40,2|0,0:0|0:0,0:0:0:0:
280,192,52895,2,0,L|336:192,1,40,8|0,0:0|0:0,0:0:0:0:
120,192,53033,6,0,L|64:192,2,40,4|0|0,0:0|0:0|0:0,0:0:0:0:
280,192,53241,1,2,0:0:0:0:
240,192,53310,1,0,0:0:0:0:
200,192,53379,1,0,0:0:0:0:
160,192,53448,1,0,0:0:0:0:
120,192,53517,1,0,0:0:0:0:
280,192,53586,1,2,0:0:0:0:
40,192,53725,2,0,L|96:192,1,40,2|0,0:0|0:0,0:0:0:0:
280,192,53863,2,0,L|336:192,1,40,2|0,0:0|0:0,0:0:0:0:
168,192,54001,1,2,0:0:0:0:
16,192,54070,1,0,0:0:0:0:
168,192,54139,6,0,L|216:192,1,40,2|0,0:0|0:0,0:0:0:0:
56,192,54278,1,8,0:0:0:0:
208,192,54347,1,0,0:0:0:0:
360,192,54416,2,0,L|408:192,1,40,2|0,0:0|0:0,0:0:0:0:
248,192,54554,1,8,0:0:0:0:
96,192,54623,1,0,0:0:0:0:
248,192,54692,2,0,L|328:192,1,80,2|0,0:0|0:0,0:0:0:0:
488,192,54831,2,0,L|424:192,1,40,8|0,0:0|0:0,0:0:0:0:
256,192,54969,2,0,L|304:192,1,40,2|0,0:0|0:0,0:0:0:0:
488,192,55107,2,0,L|440:192,1,40,8|0,0:0|0:0,0:0:0:0:
256,192,55245,5,2,0:0:0:0:
96,192,55315,2,0,L|56:192,1,40,4|0,0:0|0:0,0:0:0:0:
128,192,55522,1,0,0:0:0:0:
56,192,55660,1,0,0:0:0:0:
328,192,55798,1,2,0:0:0:0:
176,192,55868,1,0,0:0:0:0:
24,192,55937,1,8,0:0:0:0:
176,192,56006,1,0,0:0:0:0:
328,192,56075,1,2,0:0:0:0:
376,192,56144,1,0,0:0:0:0:
208,192,56213,1,8,0:0:0:0:
160,192,56282,1,0,0:0:0:0:
376,192,56351,5,2,0:0:0:0:
432,192,56421,1,0,0:0:0:0:
456,192,56490,1,8,0:0:0:0:
256,192,56559,1,0,0:0:0:0:
200,192,56629,1,2,0:0:0:0:
176,192,56698,1,0,0:0:0:0:
336,192,56766,2,0,L|400:192,2,40,2|0|0,0:0|0:0|0:0,0:0:0:0:
176,192,56974,2,0,L|120:192,2,40,2|0|0,0:0|0:0|0:0,0:0:0:0:
336,192,57181,2,0,L|272:192,1,40,2|0,0:0|0:0,0:0:0:0:
120,192,57319,2,0,L|56:192,1,40,8|0,0:0|0:0,0:0:0:0:
336,192,57457,6,0,P|472:120|336:72,1,378.000001441956,4|0,0:0|0:0,0:0:0:0:
160,272,58010,2,0,L|440:16,1,378.000001441956,2|0,0:0|0:0,0:0:0:0:
176,192,58563,6,0,P|40:120|176:72,1,378.000001441956,4|0,0:0|0:0,0:0:0:0:
384,192,59116,2,0,L|16:104,1,378.000001441956,2|0,0:0|0:0,0:0:0:0:
256,192,59669,6,0,P|304:184|360:112,1,120,4|0,0:0|0:0,0:0:0:0:
176,192,59946,1,2,0:0:0:0:
128,192,60015,1,0,0:0:0:0:
176,192,60084,1,0,0:0:0:0:
224,192,60153,1,0,0:0:0:0:
64,192,60222,1,2,0:0:0:0:
16,192,60291,1,0,0:0:0:0:
64,192,60360,1,0,0:0:0:0:
112,192,60429,1,0,0:0:0:0:
296,192,60499,1,2,0:0:0:0:
368,192,60568,1,0,0:0:0:0:
296,192,60637,1,0,0:0:0:0:
224,192,60706,1,0,0:0:0:0:
392,192,60775,5,2,0:0:0:0:
440,192,60844,1,0,0:0:0:0:
392,192,60913,1,0,0:0:0:0:
344,192,60982,1,0,0:0:0:0:
184,192,61052,1,2,0:0:0:0:
184,192,61121,1,0,0:0:0:0:
224,192,61190,1,0,0:0:0:0:
272,192,61259,1,0,0:0:0:0:
424,192,61328,1,2,0:0:0:0:
464,192,61397,1,0,0:0:0:0:
464,192,61467,1,0,0:0:0:0:
424,192,61536,1,0,0:0:0:0:
272,192,61605,2,0,L|272:152,1,40,2|0,0:0|0:0,0:0:0:0:
344,192,61743,2,0,L|344:152,1,40
136,192,61881,6,0,B|24:176|0:112|16:56|368:79|368:79|416:106|397:157|243:348|243:348|152:224|152:224|448:224,1,1240,4|0,0:0|0:0,0:0:0:0:
272,192,64093,6,0,B|88:192|88:192|384:192|384:192|280:176|184:136|144:56|224:0,1,810.000030899049,2|0,0:0|0:0,0:0:0:0:
416,192,66029,2,0,L|448:192,7,20,8|0|0|0|0|0|0|0,0:0|0:0|0:0|0:0|0:0|0:0|0:0|0:0,0:0:0:0:
280,192,66305,5,4,0:0:0:0:
192,192,66444,1,8,0:0:0:0:
448,192,66582,1,2,0:0:0:0:
336,192,66720,2,0,L|288:192,1,40
448,192,66858,2,0,L|488:192,1,40,8|0,0:0|0:0,0:0:0:0:
448,192,66997,2,0,L|400:192,1,40
240,192,67135,1,2,0:0:0:0:
488,192,67273,1,2,0:0:0:0:
248,192,67411,5,4,0:0:0:0:
16,192,67550,1,8,0:0:0:0:
248,192,67688,1,2,0:0:0:0:
136,192,67826,2,0,L|200:192,1,40
336,192,67964,1,8,0:0:0:0:
384,192,68033,1,0,0:0:0:0:
384,192,68103,1,0,0:0:0:0:
336,192,68172,1,0,0:0:0:0:
176,192,68241,1,2,0:0:0:0:
432,192,68379,2,0,L|488:192,1,40,8|0,0:0|0:0,0:0:0:0:
280,192,68517,5,4,0:0:0:0:
496,192,68656,1,8,0:0:0:0:
280,192,68794,1,2,0:0:0:0:
392,192,68932,1,0,0:0:0:0:
136,192,69070,1,8,0:0:0:0:
392,192,69209,1,2,0:0:0:0:
232,192,69278,1,2,0:0:0:0:
72,192,69347,1,2,0:0:0:0:
360,192,69485,1,8,0:0:0:0:
40,192,69623,5,4,0:0:0:0:
312,192,69762,1,8,0:0:0:0:
40,192,69900,1,2,0:0:0:0:
296,192,70038,2,0,L|368:192,1,40
176,192,70176,1,8,0:0:0:0:
224,192,70245,1,0,0:0:0:0:
424,192,70315,1,8,0:0:0:0:
376,192,70384,1,0,0:0:0:0:
224,192,70453,2,0,B|144:192|144:192|136:184|136:184|112:128,1,143.999995605469,2|0,0:0|0:0,0:0:0:0:
272,192,70729,5,4,0:0:0:0:
352,192,70868,1,8,0:0:0:0:
112,192,71006,1,2,0:0:0:0:
224,192,71144,2,0,L|272:192,1,40
112,192,71282,1,8,0:0:0:0:
64,192,71351,1,0,0:0:0:0:
64,192,71421,1,0,0:0:0:0:
112,192,71490,1,0,0:0:0:0:
264,192,71559,1,2,0:0:0:0:
32,192,71697,1,2,0:0:0:0:
264,192,71835,5,4,0:0:0:0:
496,192,71974,1,8,0:0:0:0:
264,192,72112,1,2,0:0:0:0:
136,192,72250,2,0,L|192:192,1,40
336,192,72388,1,8,0:0:0:0:
336,192,72457,1,0,0:0:0:0:
312,192,72527,1,0,0:0:0:0:
264,192,72596,1,0,0:0:0:0:
104,192,72665,1,2,0:0:0:0:
336,192,72803,2,0,L|384:192,1,40,8|0,0:0|0:0,0:0:0:0:
216,192,72941,5,4,0:0:0:0:
16,192,73080,1,8,0:0:0:0:
216,192,73218,1,2,0:0:0:0:
104,192,73356,1,0,0:0:0:0:
384,192,73494,1,8,0:0:0:0:
104,192,73633,1,2,0:0:0:0:
264,192,73702,1,2,0:0:0:0:
424,192,73771,1,2,0:0:0:0:
168,192,73909,1,8,0:0:0:0:
472,192,74047,5,4,0:0:0:0:
200,192,74186,1,8,0:0:0:0:
472,192,74324,1,2,0:0:0:0:
224,192,74462,2,0,L|176:192,1,40
344,192,74600,2,0,L|296:192,1,40,8|0,0:0|0:0,0:0:0:0:
144,192,74738,2,0,L|192:192,1,40,8|0,0:0|0:0,0:0:0:0:
344,192,74877,2,0,P|400:176|432:96,1,143.999995605469,2|0,0:0|0:0,0:0:0:0:
256,192,75153,5,4,0:0:0:0:
32,192,75291,1,8,0:0:0:0:
256,192,75430,1,2,0:0:0:0:
368,192,75568,2,0,L|408:192,1,40
248,192,75706,1,8,0:0:0:0:
200,192,75775,1,0,0:0:0:0:
248,192,75844,1,0,0:0:0:0:
296,192,75913,1,0,0:0:0:0:
472,192,75983,1,2,0:0:0:0:
320,192,76052,1,2,0:0:0:0:
168,192,76121,1,2,0:0:0:0:
16,192,76190,1,2,0:0:0:0:
176,192,76259,5,6,0:0:0:0:
400,192,76397,2,0,L|456:192,1,40,8|0,0:0|0:0,0:0:0:0:
280,192,76536,1,2,0:0:0:0:
488,192,76674,2,0,L|448:192,1,40,8|0,0:0|0:0,0:0:0:0:
288,192,76812,1,2,0:0:0:0:
176,192,76950,1,8,0:0:0:0:
376,192,77089,2,0,L|96:192,1,266.666666666667,2|2,0:0|0:0,0:0:0:0:
432,192,77365,5,4,0:0:0:0:
480,192,77434,1,0,0:0:0:0:
432,192,77503,1,0,0:0:0:0:
384,192,77573,1,0,0:0:0:0:
240,192,77642,1,2,0:0:0:0:
96,192,77711,1,2,0:0:0:0:
240,192,77780,1,2,0:0:0:0:
384,192,77849,1,2,0:0:0:0:
240,192,77918,1,10,0:0:0:0:
96,192,77987,1,2,0:0:0:0:
96,192,78056,1,2,0:0:0:0:
136,192,78126,1,0,0:0:0:0:
304,192,78195,1,2,0:0:0:0:
352,192,78264,1,0,0:0:0:0:
352,192,78333,1,8,0:0:0:0:
304,192,78402,1,0,0:0:0:0:
144,192,78471,5,4,0:0:0:0:
32,192,78609,2,0,L|96:192,1,40
232,192,78748,1,2,0:0:0:0:
152,192,78886,2,0,L|152:136,1,40
304,192,79024,2,0,L|360:192,1,40,8|0,0:0|0:0,0:0:0:0:
256,192,79162,2,0,L|200:192,1,40,8|0,0:0|0:0,0:0:0:0:
352,192,79301,2,0,L|376:192,2,20,2|0|0,0:0|0:0|0:0,0:0:0:0:
160,192,79439,2,0,L|136:192,2,20,2|0|0,0:0|0:0|0:0,0:0:0:0:
320,192,79577,5,4,0:0:0:0:
112,192,79715,1,8,0:0:0:0:
320,192,79854,1,2,0:0:0:0:
352,192,79888,1,0,0:0:0:0:
352,192,79923,1,0,0:0:0:0:
352,192,79957,1,0,0:0:0:0:
320,192,79992,1,0,0:0:0:0:
256,192,80061,1,0,0:0:0:0:
80,192,80130,2,0,L|144:192,1,40,8|0,0:0|0:0,0:0:0:0:
288,192,80268,2,0,L|240:192,1,40,8|0,0:0|0:0,0:0:0:0:
88,192,80407,2,0,L|360:192,1,266.666666666667,2|0,0:0|0:0,0:0:0:0:
354,192,80614,1,0,0:0:0:0:
192,192,80683,5,4,0:0:0:0:
80,192,80821,1,0,0:0:0:0:
288,192,80960,1,2,0:0:0:0:
176,192,81098,1,0,0:0:0:0:
384,192,81236,1,8,0:0:0:0:
328,192,81305,1,0,0:0:0:0:
272,192,81374,1,0,0:0:0:0:
328,192,81444,1,0,0:0:0:0:
496,192,81513,1,2,0:0:0:0:
240,192,81651,2,0,L|192:192,1,40,2|0,0:0|0:0,0:0:0:0:
384,192,81789,6,0,L|432:192,1,40,4|0,0:0|0:0,0:0:0:0:
264,192,81927,2,0,L|216:192,1,40,8|0,0:0|0:0,0:0:0:0:
360,192,82066,1,2,0:0:0:0:
496,192,82135,1,0,0:0:0:0:
496,192,82204,2,0,L|432:192,1,40
224,192,82342,1,2,0:0:0:0:
168,192,82411,1,0,0:0:0:0:
328,192,82480,1,2,0:0:0:0:
384,192,82549,1,0,0:0:0:0:
224,192,82619,1,2,0:0:0:0:
64,192,82688,1,2,0:0:0:0:
224,192,82757,1,2,0:0:0:0:
384,192,82826,1,2,0:0:0:0:
224,192,82895,5,4,0:0:0:0:
112,192,83033,2,0,L|64:192,1,40,8|0,0:0|0:0,0:0:0:0:
224,192,83172,2,0,P|280:176|296:152,1,80,2|0,0:0|0:0,0:0:0:0:
72,192,83448,1,8,0:0:0:0:
184,192,83586,2,0,L|184:144,1,40,8|0,0:0|0:0,0:0:0:0:
24,192,83725,2,0,L|312:192,1,266.666666666667,2|2,0:0|0:0,0:0:0:0:
24,192,84001,5,4,0:0:0:0:
104,192,84278,1,0,0:0:0:0:
24,192,84554,1,2,0:0:0:0:
104,192,84831,2,0,L|24:192,1,80
288,192,85107,6,0,L|368:192,2,80,4|0|0,0:0|0:0|0:0,0:0:0:0:
144,192,85660,1,2,0:0:0:0:
288,192,85937,2,0,L|344:136,1,80
112,192,86213,6,0,P|72:160|112:120,1,120,4|0,0:0|0:0,0:0:0:0:
288,192,86490,1,2,0:0:0:0:
344,192,86559,1,0,0:0:0:0:
376,192,86628,1,0,0:0:0:0:
384,192,86697,1,0,0:0:0:0:
240,192,86766,1,8,0:0:0:0:
184,192,86835,1,0,0:0:0:0:
152,192,86904,1,0,0:0:0:0:
144,192,86973,1,0,0:0:0:0:
320,192,87043,1,2,0:0:0:0:
368,192,87112,1,0,0:0:0:0:
368,192,87181,1,0,0:0:0:0:
320,192,87250,1,0,0:0:0:0:
152,192,87319,6,0,L|104:192,2,40,2|0|0,0:0|0:0|0:0,0:0:0:0:
312,192,87527,1,2,0:0:0:0:
472,192,87596,2,0,L|408:192,1,40,2|0,0:0|0:0,0:0:0:0:
272,192,87734,2,0,L|224:192,1,40
432,192,87872,1,8,0:0:0:0:
480,192,87941,1,0,0:0:0:0:
480,192,88010,1,0,0:0:0:0:
432,192,88079,1,0,0:0:0:0:
272,192,88149,1,2,0:0:0:0:
224,192,88218,1,0,0:0:0:0:
224,192,88287,1,0,0:0:0:0:
272,192,88356,1,0,0:0:0:0:
432,192,88425,6,0,P|472:160|432:120,1,120,4|0,0:0|0:0,0:0:0:0:
272,192,88702,2,0,P|200:168|176:112,1,120,4|0,0:0|0:0,0:0:0:0:
344,192,88978,1,2,0:0:0:0:
392,192,89047,1,0,0:0:0:0:
416,192,89116,1,0,0:0:0:0:
392,192,89186,1,0,0:0:0:0:
232,192,89255,1,2,0:0:0:0:
184,192,89324,1,0,0:0:0:0:
184,192,89393,1,0,0:0:0:0:
232,192,89462,1,0,0:0:0:0:
72,192,89531,6,0,P|32:160|72:120,1,120,4|0,0:0|0:0,0:0:0:0:
232,192,89808,2,0,P|304:168|328:112,1,120,4|0,0:0|0:0,0:0:0:0:
168,192,90084,1,2,0:0:0:0:
120,192,90153,1,0,0:0:0:0:
168,192,90222,1,0,0:0:0:0:
216,192,90291,1,0,0:0:0:0:
376,192,90361,2,0,L|424:192,1,40,2|0,0:0|0:0,0:0:0:0:
256,192,90499,2,0,L|208:192,1,40,8|0,0:0|0:0,0:0:0:0:
376,192,90637,5,4,0:0:0:0:
144,192,90775,1,4,0:0:0:0:
376,192,90914,1,6,0:0:0:0:
376,192,91052,2,0,L|312:192,1,40
176,192,91190,2,0,L|128:192,1,40,2|0,0:0|0:0,0:0:0:0:
296,192,91328,1,8,0:0:0:0:
296,192,91397,1,0,0:0:0:0:
272,192,91467,1,2,0:0:0:0:
224,192,91536,1,0,0:0:0:0:
64,192,91605,2,0,L|24:192,1,40,8|0,0:0|0:0,0:0:0:0:
184,192,91743,6,0,L|232:192,1,40,6|0,0:0|0:0,0:0:0:0:
64,192,91881,1,8,0:0:0:0:
32,192,91916,1,0,0:0:0:0:
32,192,91950,1,0,0:0:0:0:
64,192,91985,1,0,0:0:0:0:
224,192,92020,1,2,0:0:0:0:
272,192,92089,1,0,0:0:0:0:
224,192,92158,1,8,0:0:0:0:
192,192,92192,1,0,0:0:0:0:
192,192,92227,1,0,0:0:0:0:
224,192,92261,1,0,0:0:0:0:
256,192,92296,6,0,L|312:192,1,40,2|0,0:0|0:0,0:0:0:0:
128,192,92434,1,8,0:0:0:0:
96,192,92469,1,0,0:0:0:0:
80,192,92503,1,0,0:0:0:0:
80,192,92538,1,0,0:0:0:0:
80,192,92573,2,0,L|128:192,1,40,2|0,0:0|0:0,0:0:0:0:
312,192,92711,1,8,0:0:0:0:
344,192,92745,1,0,0:0:0:0:
360,192,92780,1,0,0:0:0:0:
360,192,92815,1,0,0:0:0:0:
232,192,92849,6,0,P|176:176|152:128,1,108.000000411987,4|0,0:0|0:0,0:0:0:0:
280,192,93126,1,2,0:0:0:0:
320,192,93195,1,0,0:0:0:0:
320,192,93264,1,0,0:0:0:0:
280,192,93333,1,0,0:0:0:0:
176,192,93402,1,8,0:0:0:0:
136,192,93471,1,0,0:0:0:0:
136,192,93540,1,0,0:0:0:0:
176,192,93609,1,0,0:0:0:0:
280,192,93679,1,2,0:0:0:0:
320,192,93748,1,0,0:0:0:0:
216,192,93817,1,0,0:0:0:0:
176,192,93886,1,0,0:0:0:0:
336,192,93955,6,0,P|392:176|408:136,1,80,4|0,0:0|0:0,0:0:0:0:
200,192,94232,1,2,0:0:0:0:
160,192,94301,1,0,0:0:0:0:
160,192,94370,1,0,0:0:0:0:
200,192,94439,1,0,0:0:0:0:
360,192,94508,1,8,0:0:0:0:
400,192,94577,1,0,0:0:0:0:
400,192,94646,1,0,0:0:0:0:
360,192,94715,1,0,0:0:0:0:
184,192,94785,1,2,0:0:0:0:
160,192,94819,1,0,0:0:0:0:
160,192,94854,1,0,0:0:0:0:
360,192,94923,1,2,0:0:0:0:
384,192,94957,1,0,0:0:0:0:
384,192,94992,1,0,0:0:0:0:
216,192,95061,5,4,0:0:0:0:
168,192,95130,1,0,0:0:0:0:
144,192,95199,1,0,0:0:0:0:
144,192,95268,1,0,0:0:0:0:
296,192,95338,2,0,L|352:192,1,40,2|0,0:0|0:0,0:0:0:0:
168,192,95476,1,0,0:0:0:0:
144,192,95510,1,0,0:0:0:0:
144,192,95545,1,0,0:0:0:0:
168,192,95579,1,0,0:0:0:0:
272,192,95614,6,0,L|312:192,1,40,8|0,0:0|0:0,0:0:0:0:
112,192,95752,2,0,L|80:192,2,20,8|0|0,0:0|0:0|0:0,0:0:0:0:
336,192,95891,1,2,0:0:0:0:
192,192,95960,1,0,0:0:0:0:
48,192,96029,2,0,L|24:192,2,20,2|0|0,0:0|0:0|0:0,0:0:0:0:
248,192,96167,5,4,0:0:0:0:
296,192,96236,1,0,0:0:0:0:
296,192,96305,1,0,0:0:0:0:
248,192,96374,1,0,0:0:0:0:
92,192,96444,1,2,0:0:0:0:
44,192,96513,1,0,0:0:0:0:
44,192,96582,1,0,0:0:0:0:
92,192,96651,1,0,0:0:0:0:
248,192,96720,1,4,0:0:0:0:
208,192,96789,1,0,0:0:0:0:
168,192,96858,1,0,0:0:0:0:
128,192,96927,1,0,0:0:0:0:
224,192,96997,2,0,L|280:192,1,40,6|0,0:0|0:0,0:0:0:0:
168,192,97135,2,0,L|112:192,1,40
320,192,97273,6,0,P|432:160|448:112,1,160,4|0,0:0|0:0,0:0:0:0:
240,192,97826,2,0,L|152:192,1,80,2|0,0:0|0:0,0:0:0:0:
296,192,98103,2,0,P|344:160|288:144,1,120
144,192,98379,5,4,0:0:0:0:
104,192,98448,1,0,0:0:0:0:
144,192,98517,1,0,0:0:0:0:
192,192,98586,1,0,0:0:0:0:
352,192,98656,1,2,0:0:0:0:
392,192,98725,1,0,0:0:0:0:
352,192,98794,1,0,0:0:0:0:
304,192,98863,1,0,0:0:0:0:
464,192,98932,1,8,0:0:0:0:
464,192,99001,1,0,0:0:0:0:
440,192,99070,1,0,0:0:0:0:
392,192,99139,1,0,0:0:0:0:
248,192,99209,2,0,L|152:192,1,95.9999970703126,2|0,0:0|0:0,0:0:0:0:
152,192,99416,1,0,0:0:0:0:
336,192,99485,6,0,L|416:184,1,80,4|0,0:0|0:0,0:0:0:0:
192,192,99762,1,2,0:0:0:0:
192,192,99900,2,0,L|248:192,1,40
328,192,100038,1,8,0:0:0:0:
376,192,100107,1,0,0:0:0:0:
376,192,100176,1,0,0:0:0:0:
328,192,100245,1,0,0:0:0:0:
232,192,100315,1,2,0:0:0:0:
184,192,100384,1,0,0:0:0:0:
280,192,100453,1,2,0:0:0:0:
304,192,100522,1,0,0:0:0:0:
144,192,100591,6,0,L|40:192,1,80,4|0,0:0|0:0,0:0:0:0:
280,192,100868,2,0,L|384:192,1,80,8|0,0:0|0:0,0:0:0:0:
224,192,101144,2,0,L|312:192,1,80,2|0,0:0|0:0,0:0:0:0:
344,192,101351,1,0,0:0:0:0:
344,192,101421,1,8,0:0:0:0:
304,192,101490,1,0,0:0:0:0:
264,192,101559,1,0,0:0:0:0:
304,192,101628,1,0,0:0:0:0:
464,192,101697,6,0,P|491:161|456:144,1,80,4|0,0:0|0:0,0:0:0:0:
336,192,101974,1,0,0:0:0:0:
288,192,102043,1,0,0:0:0:0:
288,192,102112,1,0,0:0:0:0:
336,192,102181,1,0,0:0:0:0:
432,192,102250,2,0,P|400:144|328:136,1,120
168,192,102527,2,0,P|128:176|112:136,1,80
168,192,102734,1,0,0:0:0:0:
336,192,102803,6,0,P|392:160|336:112,1,160,8|0,0:0|0:0,0:0:0:0:
280,192,103149,2,0,L|232:192,2,40
432,192,103356,1,2,0:0:0:0:
496,192,103494,2,0,L|432:192,1,40
408,192,103633,1,2,0:0:0:0:
368,192,103702,1,0,0:0:0:0:
368,192,103771,1,0,0:0:0:0:
408,192,103840,1,0,0:0:0:0:
248,192,103909,5,4,0:0:0:0:
200,192,103978,1,0,0:0:0:0:
176,192,104047,1,0,0:0:0:0:
176,192,104116,1,0,0:0:0:0:
336,192,104186,1,2,0:0:0:0:
384,192,104255,1,0,0:0:0:0:
408,192,104324,1,0,0:0:0:0:
408,192,104393,1,0,0:0:0:0:
248,192,104462,2,0,L|192:192,1,40,2|0,0:0|0:0,0:0:0:0:
288,192,104600,2,0,L|344:192,1,40
168,192,104738,2,0,L|112:192,1,40,2|0,0:0|0:0,0:0:0:0:
224,192,104877,2,0,L|280:192,1,40
104,192,105015,6,0,L|160:192,1,40,4|0,0:0|0:0,0:0:0:0:
328,192,105153,2,0,L|280:192,1,40,8|0,0:0|0:0,0:0:0:0:
80,192,105291,2,0,L|128:192,1,40,2|0,0:0|0:0,0:0:0:0:
344,192,105430,2,0,L|288:192,1,40,8|0,0:0|0:0,0:0:0:0:
56,192,105568,1,2,0:0:0:0:
216,192,105637,1,0,0:0:0:0:
376,192,105706,1,2,0:0:0:0:
216,192,105775,1,0,0:0:0:0:
56,192,105844,1,2,0:0:0:0:
216,192,105913,1,2,0:0:0:0:
376,192,105982,1,2,0:0:0:0:
216,192,106051,1,2,0:0:0:0:
56,192,106121,5,4,0:0:0:0:
168,192,106259,1,0,0:0:0:0:
400,192,106397,1,2,0:0:0:0:
288,192,106536,2,0,L|232:192,1,40
344,192,106674,1,8,0:0:0:0:
392,192,106743,1,0,0:0:0:0:
392,192,106812,1,0,0:0:0:0:
344,192,106881,1,0,0:0:0:0:
192,192,106950,2,0,P|128:168|112:128,1,80,2|0,0:0|0:0,0:0:0:0:
176,192,107158,1,0,0:0:0:0:
344,192,107227,6,0,L|432:192,1,80,4|0,0:0|0:0,0:0:0:0:
224,192,107503,2,0,L|168:192,2,40,2|0|0,0:0|0:0|0:0,0:0:0:0:
16,192,107780,1,8,0:0:0:0:
16,192,107849,1,0,0:0:0:0:
40,192,107918,1,2,0:0:0:0:
88,192,107987,1,0,0:0:0:0:
256,192,108056,1,2,0:0:0:0:
304,192,108126,1,0,0:0:0:0:
304,192,108195,1,2,0:0:0:0:
256,192,108265,1,2,0:0:0:0:
88,192,108333,5,6,0:0:0:0:
40,192,108402,1,0,0:0:0:0:
88,192,108471,1,8,0:0:0:0:
136,192,108540,1,0,0:0:0:0:
304,192,108609,2,0,L|352:192,1,40,2|0,0:0|0:0,0:0:0:0:
248,192,108748,2,0,L|200:192,1,40,2|0,0:0|0:0,0:0:0:0:
384,192,108886,2,0,L|336:192,1,40,8|0,0:0|0:0,0:0:0:0:
168,192,109024,2,0,L|216:192,1,40,8|0,0:0|0:0,0:0:0:0:
408,192,109162,2,0,L|352:192,1,40,2|0,0:0|0:0,0:0:0:0:
152,192,109301,2,0,L|208:192,1,40,8|0,0:0|0:0,0:0:0:0:
408,192,109439,5,4,0:0:0:0:
248,192,109508,1,0,0:0:0:0:
88,192,109577,1,0,0:0:0:0:
248,192,109646,1,0,0:0:0:0:
408,192,109715,2,0,L|464:192,1,40,2|0,0:0|0:0,0:0:0:0:
248,192,109854,2,0,L|168:192,1,60.0000022888184,4|0,0:0|0:0,0:0:0:0:
48,192,109992,1,8,0:0:0:0:
16,192,110061,1,0,0:0:0:0:
48,192,110130,1,0,0:0:0:0:
96,192,110199,1,0,0:0:0:0:
272,192,110268,2,0,L|320:192,1,40,2|0,0:0|0:0,0:0:0:0:
152,192,110407,2,0,L|104:192,1,40
352,192,110545,6,0,P|416:168|424:144,1,80,4|0,0:0|0:0,0:0:0:0:
208,192,110821,1,2,0:0:0:0:
160,192,110891,1,0,0:0:0:0:
160,192,110960,1,0,0:0:0:0:
208,192,111029,1,0,0:0:0:0:
256,192,111098,1,8,0:0:0:0:
304,192,111167,1,0,0:0:0:0:
304,192,111236,1,0,0:0:0:0:
256,192,111305,1,0,0:0:0:0:
160,192,111374,1,2,0:0:0:0:
112,192,111444,1,0,0:0:0:0:
112,192,111513,1,0,0:0:0:0:
160,192,111582,1,0,0:0:0:0:
24,192,111651,6,0,L|24:104,1,80,4|0,0:0|0:0,0:0:0:0:
256,192,111927,1,2,0:0:0:0:
304,192,111997,1,0,0:0:0:0:
328,192,112066,1,0,0:0:0:0:
328,192,112135,1,0,0:0:0:0:
304,192,112204,1,8,0:0:0:0:
264,192,112273,1,0,0:0:0:0:
304,192,112342,1,0,0:0:0:0:
344,192,112411,1,0,0:0:0:0:
248,192,112480,1,2,0:0:0:0:
200,192,112550,1,0,0:0:0:0:
200,192,112619,1,0,0:0:0:0:
248,192,112688,1,0,0:0:0:0:
376,192,112757,5,4,0:0:0:0:
216,192,112826,1,0,0:0:0:0:
56,192,112895,1,0,0:0:0:0:
216,192,112964,1,0,0:0:0:0:
376,192,113033,1,2,0:0:0:0:
424,192,113103,1,0,0:0:0:0:
264,192,113172,1,0,0:0:0:0:
216,192,113242,1,0,0:0:0:0:
376,192,113310,1,8,0:0:0:0:
424,192,113380,1,0,0:0:0:0:
424,192,113448,1,0,0:0:0:0:
400,192,113483,1,0,0:0:0:0:
376,192,113517,1,0,0:0:0:0:
216,192,113586,1,2,0:0:0:0:
168,192,113656,1,0,0:0:0:0:
144,192,113725,1,8,0:0:0:0:
144,192,113794,1,0,0:0:0:0:
388,192,113863,6,0,B|468:192|468:192,1,80,4|0,0:0|0:0,0:0:0:0:
336,192,114070,1,0,0:0:0:0:
296,192,114139,1,2,0:0:0:0:
336,192,114209,1,0,0:0:0:0:
376,192,114278,1,0,0:0:0:0:
416,192,114347,1,0,0:0:0:0:
272,192,114416,1,4,0:0:0:0:
240,192,114450,1,0,0:0:0:0:
240,192,114485,1,0,0:0:0:0:
272,192,114554,2,0,L|336:192,1,40
456,192,114692,2,0,L|328:192,1,95.9999970703126,2|0,0:0|0:0,0:0:0:0:
312,192,114900,1,0,0:0:0:0:
152,192,114969,5,4,0:0:0:0:
88,192,115038,1,0,0:0:0:0:
152,192,115107,1,0,0:0:0:0:
216,192,115176,1,0,0:0:0:0:
416,192,115245,2,0,L|448:176,7,20,2|0|0|0|0|0|0|0,0:0|0:0|0:0|0:0|0:0|0:0|0:0|0:0,0:0:0:0:
272,192,115522,5,8,0:0:0:0:
224,192,115591,1,0,0:0:0:0:
224,192,115660,1,0,0:0:0:0:
272,192,115729,1,0,0:0:0:0:
432,192,115798,1,2,0:0:0:0:
224,192,115937,1,2,0:0:0:0:
432,192,116075,6,0,L|320:192,1,80,4|0,0:0|0:0,0:0:0:0:
224,192,116351,1,2,0:0:0:0:
176,192,116421,1,0,0:0:0:0:
160,192,116490,1,8,0:0:0:0:
176,192,116559,1,0,0:0:0:0:
272,192,116628,1,8,0:0:0:0:
320,192,116697,1,0,0:0:0:0:
320,192,116766,1,0,0:0:0:0:
272,192,116835,1,0,0:0:0:0:
104,192,116904,1,2,0:0:0:0:
320,192,117043,1,2,0:0:0:0:
104,192,117181,5,4,0:0:0:0:
184,192,117319,1,0,0:0:0:0:
72,192,117457,2,0,L|128:192,1,40,2|0,0:0|0:0,0:0:0:0:
272,192,117596,2,0,L|344:192,1,40
152,192,117734,1,8,0:0:0:0:
152,192,117803,1,0,0:0:0:0:
176,192,117872,1,0,0:0:0:0:
224,192,117941,1,0,0:0:0:0:
384,192,118010,1,2,0:0:0:0:
176,192,118149,1,2,0:0:0:0:
384,192,118287,6,0,L|448:192,1,40,4|0,0:0|0:0,0:0:0:0:
256,192,118425,2,0,L|304:192,1,40,2|0,0:0|0:0,0:0:0:0:
456,192,118563,1,2,0:0:0:0:
496,192,118633,1,0,0:0:0:0:
496,192,118702,1,2,0:0:0:0:
456,192,118772,1,0,0:0:0:0:
432,192,118805,1,0,0:0:0:0:
296,192,118840,5,8,0:0:0:0:
256,192,118874,1,0,0:0:0:0:
256,192,118909,1,0,0:0:0:0:
424,192,118978,1,8,0:0:0:0:
448,192,119013,1,0,0:0:0:0:
448,192,119047,1,0,0:0:0:0:
424,192,119082,1,0,0:0:0:0:
296,192,119116,1,2,0:0:0:0:
264,192,119151,1,0,0:0:0:0:
296,192,119186,1,0,0:0:0:0:
448,192,119255,1,2,0:0:0:0:
480,192,119290,1,0,0:0:0:0:
448,192,119325,1,0,0:0:0:0:
264,192,119393,6,0,L|208:192,2,40,4|0|0,0:0|0:0|0:0,0:0:0:0:
104,192,119600,2,0,L|64:192,2,40,8|0|0,0:0|0:0|0:0,0:0:0:0:
280,192,119808,2,0,L|336:192,2,40,8|0|0,0:0|0:0|0:0,0:0:0:0:
128,192,120015,5,8,0:0:0:0:
168,192,120084,1,0,0:0:0:0:
208,192,120153,1,0,0:0:0:0:
368,192,120222,1,8,0:0:0:0:
328,192,120291,1,0,0:0:0:0:
288,192,120360,1,0,0:0:0:0:
152,192,120430,1,0,0:0:0:0:
16,192,120499,5,8,0:0:0:0:
16,192,120533,1,0,0:0:0:0:
40,192,120568,1,0,0:0:0:0:
88,192,120637,1,0,0:0:0:0:
256,192,120706,1,8,0:0:0:0:
216,192,120775,1,0,0:0:0:0:
176,192,120844,1,0,0:0:0:0:
336,192,120914,1,8,0:0:0:0:
296,192,120983,1,0,0:0:0:0:
256,192,121052,1,0,0:0:0:0:
416,192,121156,5,8,0:0:0:0:
256,192,121225,1,0,0:0:0:0:
96,192,121294,1,0,0:0:0:0:
256,192,121363,1,8,0:0:0:0:
416,192,121432,1,0,0:0:0:0:
256,192,121501,1,0,0:0:0:0:
96,192,121570,1,8,0:0:0:0:
275,192,121605,6,0,P|411:128|411:40,1,240
344,192,122089,1,0,0:0:0:0:
184,192,122158,1,2,0:0:0:0:
136,192,122227,1,0,0:0:0:0:
136,192,122296,1,0,0:0:0:0:
184,192,122365,1,0,0:0:0:0:
232,192,122434,1,0,0:0:0:0:
184,192,122503,1,0,0:0:0:0:
136,192,122573,1,0,0:0:0:0:
184,192,122642,1,0,0:0:0:0:
344,192,122711,5,8,0:0:0:0:
392,192,122780,1,0,0:0:0:0:
424,192,122849,1,0,0:0:0:0:
440,192,122918,1,0,0:0:0:0:
440,192,122987,1,0,0:0:0:0:
424,192,123056,1,0,0:0:0:0:
392,192,123125,1,0,0:0:0:0:
344,192,123194,1,0,0:0:0:0:
184,192,123264,1,8,0:0:0:0:
136,192,123333,1,0,0:0:0:0:
136,192,123402,1,0,0:0:0:0:
184,192,123471,1,0,0:0:0:0:
352,192,123540,1,8,0:0:0:0:
400,192,123609,1,0,0:0:0:0:
400,192,123678,1,0,0:0:0:0:
352,192,123747,1,0,0:0:0:0:
136,192,123817,6,0,P|80:168|136:120,1,160,4|0,0:0|0:0,0:0:0:0:
328,192,124370,1,2,0:0:0:0:
200,192,124646,2,0,L|96:192,1,80,8|0,0:0|0:0,0:0:0:0:
216,192,124923,6,0,L|296:192,2,80,8|0|8,0:0|0:0|0:0,0:0:0:0:
16,192,125476,2,0,L|184:192,1,160,2|0,0:0|0:0,0:0:0:0:
104,192,125891,1,0,0:0:0:0:
496,304,126029,6,0,L|16:72,1,533.333333333333,4|0,0:0|0:0,0:0:0:0:
368,192,127135,5,14,0:0:0:0:
256,192,127273,12,4,140130,0:0:0:0:
