osu file format v14

[General]
AudioFilename: audio.mp3
AudioLeadIn: 0
PreviewTime: 101814
Countdown: 0
SampleSet: Normal
StackLeniency: 0.7
Mode: 1
LetterboxInBreaks: 0
WidescreenStoryboard: 0

[Editor]
DistanceSpacing: 1.7
BeatDivisor: 4
GridSize: 4
TimelineZoom: 1.7

[Metadata]
Title:Lawn Wake III
TitleUnicode:Lawn Wake III
Artist:The Flashbulb
ArtistUnicode:The Flashbulb
Creator:Midnaait
Version:Muzukashii
Source:
Tags:Red Extensions Of Me LW3 Chromoxx
BeatmapID:982978
BeatmapSetID:458068

[Difficulty]
HPDrainRate:6
CircleSize:5
OverallDifficulty:5
ApproachRate:9
SliderMultiplier:1.4
SliderTickRate:1

[Events]
//Background and Video events
0,0,"BG-.jpg",0,0
//Break Periods
//Storyboard Layer 0 (Background)
//Storyboard Layer 1 (Fail)
//Storyboard Layer 2 (Pass)
//Storyboard Layer 3 (Foreground)
//Storyboard Sound Samples

[TimingPoints]
5,300,4,1,0,100,1,0
111605,-100,4,1,0,100,0,1
159605,-100,4,1,0,30,0,0

[HitObjects]
164,144,80,5,12,0:0:0:0:
224,160,1205,1,0,0:0:0:0:
224,160,1505,1,8,0:0:0:0:
224,160,1655,1,0,0:0:0:0:
224,160,1805,1,0,0:0:0:0:
224,160,2105,1,8,0:0:0:0:
224,160,2405,1,0,0:0:0:0:
224,160,2705,1,8,0:0:0:0:
224,160,3155,1,8,0:0:0:0:
224,160,3605,1,0,0:0:0:0:
224,160,3905,1,8,0:0:0:0:
224,160,4055,1,0,0:0:0:0:
224,160,4205,1,0,0:0:0:0:
224,160,4505,1,8,0:0:0:0:
224,160,4805,1,0,0:0:0:0:
224,160,5105,1,8,0:0:0:0:
224,160,5555,1,8,0:0:0:0:
224,160,5705,1,8,0:0:0:0:
228,164,5855,1,8,0:0:0:0:
224,160,6005,1,0,0:0:0:0:
224,160,6305,1,8,0:0:0:0:
224,160,6605,1,0,0:0:0:0:
224,160,6755,1,0,0:0:0:0:
224,160,6905,1,8,0:0:0:0:
224,160,7205,1,0,0:0:0:0:
224,160,7505,1,8,0:0:0:0:
224,160,7655,1,8,0:0:0:0:
224,160,7805,1,0,0:0:0:0:
224,160,8405,5,0,0:0:0:0:
224,160,8555,1,0,0:0:0:0:
224,160,8705,1,8,0:0:0:0:
224,160,9005,1,8,0:0:0:0:
224,160,9155,1,8,0:0:0:0:
224,160,9305,1,8,0:0:0:0:
224,160,9455,1,8,0:0:0:0:
224,160,9605,1,0,0:0:0:0:
224,160,9830,1,8,0:0:0:0:
224,160,10055,1,8,0:0:0:0:
224,160,10280,1,0,0:0:0:0:
224,160,10505,1,8,0:0:0:0:
224,160,10580,1,8,0:0:0:0:
224,160,10655,1,8,0:0:0:0:
224,160,10805,1,0,0:0:0:0:
224,160,11105,1,8,0:0:0:0:
224,160,11405,1,0,0:0:0:0:
224,160,11555,1,0,0:0:0:0:
224,160,11705,1,8,0:0:0:0:
224,160,12005,1,0,0:0:0:0:
224,160,12305,1,8,0:0:0:0:
224,160,12455,1,8,0:0:0:0:
224,160,12605,1,0,0:0:0:0:
224,160,13205,5,0,0:0:0:0:
224,160,13355,1,0,0:0:0:0:
224,160,13505,1,8,0:0:0:0:
224,160,13805,1,8,0:0:0:0:
224,160,13955,1,8,0:0:0:0:
224,160,14105,1,8,0:0:0:0:
224,160,14255,1,8,0:0:0:0:
224,160,14405,1,0,0:0:0:0:
224,160,14705,1,0,0:0:0:0:
224,160,15005,1,0,0:0:0:0:
224,160,15305,1,8,0:0:0:0:
224,160,15605,1,0,0:0:0:0:
224,160,15905,1,0,0:0:0:0:
224,160,16055,1,0,0:0:0:0:
224,160,16205,1,8,0:0:0:0:
224,160,16505,1,8,0:0:0:0:
224,160,16805,1,0,0:0:0:0:
224,160,16955,1,8,0:0:0:0:
224,160,17180,1,8,0:0:0:0:
224,160,17405,1,8,0:0:0:0:
224,160,17705,1,8,0:0:0:0:
224,160,17855,1,8,0:0:0:0:
224,160,18005,1,0,0:0:0:0:
224,160,18080,1,0,0:0:0:0:
224,160,18305,1,8,0:0:0:0:
224,160,18530,1,8,0:0:0:0:
224,160,18905,1,8,0:0:0:0:
224,160,18980,1,8,0:0:0:0:
224,160,19055,1,8,0:0:0:0:
224,160,19205,1,0,0:0:0:0:
224,160,19505,1,8,0:0:0:0:
224,160,19655,1,8,0:0:0:0:
224,160,19805,1,0,0:0:0:0:
256,160,20405,1,0,0:0:0:0:
224,160,20555,1,0,0:0:0:0:
224,160,20705,1,8,0:0:0:0:
224,160,21005,1,8,0:0:0:0:
224,160,21305,1,8,0:0:0:0:
224,160,21455,1,8,0:0:0:0:
224,160,21605,1,0,0:0:0:0:
224,160,21905,1,8,0:0:0:0:
224,160,22055,1,8,0:0:0:0:
224,160,22205,1,0,0:0:0:0:
224,160,22355,1,0,0:0:0:0:
224,160,22505,1,8,0:0:0:0:
224,160,22805,1,0,0:0:0:0:
224,160,23105,1,8,0:0:0:0:
224,160,23255,1,0,0:0:0:0:
224,160,23405,1,8,0:0:0:0:
224,160,23555,1,8,0:0:0:0:
224,160,23705,1,0,0:0:0:0:
224,160,24005,1,0,0:0:0:0:
224,160,24155,1,0,0:0:0:0:
224,160,24305,1,8,0:0:0:0:
224,160,24530,1,8,0:0:0:0:
224,160,24755,1,8,0:0:0:0:
224,160,24905,1,12,0:0:0:0:
224,160,25205,1,0,0:0:0:0:
224,160,25505,1,8,0:0:0:0:
224,160,25655,1,0,0:0:0:0:
224,160,25805,1,0,0:0:0:0:
224,160,26105,1,8,0:0:0:0:
224,160,26405,1,0,0:0:0:0:
224,160,26555,1,8,0:0:0:0:
224,160,26855,1,8,0:0:0:0:
224,160,27005,1,0,0:0:0:0:
224,160,27605,1,0,0:0:0:0:
224,160,27905,1,8,0:0:0:0:
224,160,28205,1,0,0:0:0:0:
224,160,28355,1,0,0:0:0:0:
224,160,28505,1,8,0:0:0:0:
224,160,28805,1,0,0:0:0:0:
224,160,29105,1,8,0:0:0:0:
224,160,29255,1,8,0:0:0:0:
224,160,29405,1,0,0:0:0:0:
224,160,30005,1,0,0:0:0:0:
224,160,30305,1,8,0:0:0:0:
224,160,30455,1,0,0:0:0:0:
224,160,30605,1,0,0:0:0:0:
224,160,30755,1,0,0:0:0:0:
224,160,30905,1,8,0:0:0:0:
224,160,31205,1,0,0:0:0:0:
224,160,31355,1,0,0:0:0:0:
224,160,31505,1,8,0:0:0:0:
224,160,31730,1,8,0:0:0:0:
224,160,31955,1,8,0:0:0:0:
224,160,32105,1,8,0:0:0:0:
224,160,32405,1,0,0:0:0:0:
224,160,32705,1,8,0:0:0:0:
224,160,32855,1,8,0:0:0:0:
224,160,33005,1,0,0:0:0:0:
224,160,33155,1,0,0:0:0:0:
224,160,33305,1,8,0:0:0:0:
224,160,33605,1,8,0:0:0:0:
224,160,33755,1,0,0:0:0:0:
224,160,33905,1,8,0:0:0:0:
224,160,34055,1,8,0:0:0:0:
224,160,34205,1,0,0:0:0:0:
224,160,34505,1,8,0:0:0:0:
224,160,34805,1,0,0:0:0:0:
224,160,35105,1,8,0:0:0:0:
224,160,35255,1,8,0:0:0:0:
224,160,35405,1,0,0:0:0:0:
224,160,35555,1,0,0:0:0:0:
224,160,35705,1,8,0:0:0:0:
224,160,36005,1,0,0:0:0:0:
224,160,36155,1,0,0:0:0:0:
224,160,36305,1,8,0:0:0:0:
224,160,36530,1,8,0:0:0:0:
224,160,36755,1,8,0:0:0:0:
224,160,36905,1,8,0:0:0:0:
224,160,37205,1,0,0:0:0:0:
224,160,37505,1,8,0:0:0:0:
224,160,37655,1,8,0:0:0:0:
224,160,37805,1,0,0:0:0:0:
224,160,37955,1,0,0:0:0:0:
224,160,38105,1,8,0:0:0:0:
224,160,38405,1,8,0:0:0:0:
224,160,38705,1,8,0:0:0:0:
224,160,38855,1,8,0:0:0:0:
224,160,39005,1,0,0:0:0:0:
224,160,39605,1,0,0:0:0:0:
224,160,39905,1,8,0:0:0:0:
224,160,40055,1,8,0:0:0:0:
224,160,40205,1,0,0:0:0:0:
224,160,40280,1,0,0:0:0:0:
224,160,40355,1,0,0:0:0:0:
224,160,40505,1,8,0:0:0:0:
224,160,40805,1,0,0:0:0:0:
224,160,40955,1,0,0:0:0:0:
224,160,41105,1,8,0:0:0:0:
224,160,41330,1,8,0:0:0:0:
224,160,41555,1,8,0:0:0:0:
224,160,41705,1,8,0:0:0:0:
224,160,42005,1,0,0:0:0:0:
224,160,42155,1,0,0:0:0:0:
224,160,42305,1,8,0:0:0:0:
224,160,42455,1,8,0:0:0:0:
224,160,42605,1,0,0:0:0:0:
224,160,42905,1,8,0:0:0:0:
224,160,43205,1,8,0:0:0:0:
224,160,43355,1,0,0:0:0:0:
224,160,43505,1,8,0:0:0:0:
224,160,43655,1,8,0:0:0:0:
224,160,43805,1,0,0:0:0:0:
224,160,44405,1,0,0:0:0:0:
224,160,44705,1,8,0:0:0:0:
224,160,44855,1,0,0:0:0:0:
224,160,45005,1,0,0:0:0:0:
224,160,45305,1,8,0:0:0:0:
224,160,45605,1,0,0:0:0:0:
216,160,45905,1,8,0:0:0:0:
224,160,46355,1,8,0:0:0:0:
224,160,46805,1,0,0:0:0:0:
224,160,47105,1,8,0:0:0:0:
224,160,47255,1,0,0:0:0:0:
224,160,47405,1,0,0:0:0:0:
224,160,47705,1,8,0:0:0:0:
224,160,48005,1,0,0:0:0:0:
224,160,48305,1,8,0:0:0:0:
224,160,48455,1,0,0:0:0:0:
224,160,49205,1,0,0:0:0:0:
224,160,49505,1,8,0:0:0:0:
224,160,49655,1,0,0:0:0:0:
224,160,49805,1,0,0:0:0:0:
224,160,49955,1,0,0:0:0:0:
224,160,50105,1,8,0:0:0:0:
224,160,50405,1,0,0:0:0:0:
224,160,50705,1,8,0:0:0:0:
224,160,51155,1,8,0:0:0:0:
224,160,51605,1,0,0:0:0:0:
192,160,51905,1,8,0:0:0:0:
192,160,52205,1,0,0:0:0:0:
192,160,52355,1,0,0:0:0:0:
224,160,52505,1,8,0:0:0:0:
224,160,52805,1,0,0:0:0:0:
224,160,53105,1,8,0:0:0:0:
224,160,53255,1,0,0:0:0:0:
224,160,54005,1,0,0:0:0:0:
224,160,54305,1,8,0:0:0:0:
224,160,54455,1,0,0:0:0:0:
224,160,54605,1,0,0:0:0:0:
224,160,54905,1,8,0:0:0:0:
224,160,55205,1,0,0:0:0:0:
224,160,55505,1,8,0:0:0:0:
224,160,55955,1,8,0:0:0:0:
224,160,56405,1,0,0:0:0:0:
224,160,56705,1,8,0:0:0:0:
224,160,56855,1,0,0:0:0:0:
224,160,57005,1,0,0:0:0:0:
224,160,57305,1,8,0:0:0:0:
224,160,57605,1,0,0:0:0:0:
224,160,57905,1,8,0:0:0:0:
224,160,58055,1,0,0:0:0:0:
224,160,58805,1,0,0:0:0:0:
224,160,59105,1,8,0:0:0:0:
224,160,59405,1,0,0:0:0:0:
224,160,59555,1,0,0:0:0:0:
224,160,59705,1,8,0:0:0:0:
224,160,60005,1,0,0:0:0:0:
224,160,60305,1,8,0:0:0:0:
224,160,60755,1,0,0:0:0:0:
224,160,60905,1,8,0:0:0:0:
224,160,61205,1,8,0:0:0:0:
224,160,61505,1,0,0:0:0:0:
224,160,61805,1,0,0:0:0:0:
224,160,61955,1,0,0:0:0:0:
224,160,62105,1,8,0:0:0:0:
224,160,62405,1,0,0:0:0:0:
224,160,62705,1,8,0:0:0:0:
224,160,62855,1,0,0:0:0:0:
224,160,63605,1,0,0:0:0:0:
224,160,63905,1,8,0:0:0:0:
224,160,64205,1,0,0:0:0:0:
224,160,64355,1,0,0:0:0:0:
224,160,64505,1,8,0:0:0:0:
224,160,64805,1,0,0:0:0:0:
224,160,65105,1,8,0:0:0:0:
224,160,65555,1,8,0:0:0:0:
224,160,65705,1,0,0:0:0:0:
224,160,66005,1,0,0:0:0:0:
224,160,66305,1,8,0:0:0:0:
224,160,66605,1,0,0:0:0:0:
224,160,66755,1,0,0:0:0:0:
224,160,66905,1,8,0:0:0:0:
224,160,67205,1,0,0:0:0:0:
224,160,67505,1,8,0:0:0:0:
224,160,68105,1,8,0:0:0:0:
224,160,68405,1,0,0:0:0:0:
224,160,68705,1,8,0:0:0:0:
224,160,69005,1,0,0:0:0:0:
224,160,69155,1,0,0:0:0:0:
224,160,69305,1,8,0:0:0:0:
224,160,69605,1,0,0:0:0:0:
224,160,69905,1,8,0:0:0:0:
224,160,70355,1,8,0:0:0:0:
224,160,70655,1,8,0:0:0:0:
224,160,70805,1,0,0:0:0:0:
224,160,71105,1,8,0:0:0:0:
224,160,71405,1,0,0:0:0:0:
224,160,71555,1,0,0:0:0:0:
224,160,71705,1,8,0:0:0:0:
224,160,72005,1,0,0:0:0:0:
224,160,72305,1,8,0:0:0:0:
224,160,72905,1,8,0:0:0:0:
224,160,73205,1,0,0:0:0:0:
224,160,73505,1,8,0:0:0:0:
224,160,73805,1,0,0:0:0:0:
224,160,73955,1,0,0:0:0:0:
224,160,74105,1,8,0:0:0:0:
224,160,74405,1,0,0:0:0:0:
224,160,74705,1,8,0:0:0:0:
224,160,75155,1,8,0:0:0:0:
224,160,75305,1,0,0:0:0:0:
224,160,75605,1,0,0:0:0:0:
224,160,75905,1,8,0:0:0:0:
224,160,76205,1,0,0:0:0:0:
224,160,76355,1,0,0:0:0:0:
224,160,76505,1,8,0:0:0:0:
224,160,76805,1,0,0:0:0:0:
224,160,77105,1,8,0:0:0:0:
224,160,77555,1,8,0:0:0:0:
224,160,77705,1,8,0:0:0:0:
224,160,78005,1,0,0:0:0:0:
224,160,78305,1,8,0:0:0:0:
224,160,78605,1,0,0:0:0:0:
224,160,78755,1,0,0:0:0:0:
224,160,78905,1,8,0:0:0:0:
224,160,79205,1,0,0:0:0:0:
224,160,79505,1,8,0:0:0:0:
224,160,79955,1,8,0:0:0:0:
224,160,80405,1,0,0:0:0:0:
224,160,80705,1,8,0:0:0:0:
224,160,81005,1,0,0:0:0:0:
224,160,81155,1,0,0:0:0:0:
224,160,81305,1,8,0:0:0:0:
224,160,81605,1,0,0:0:0:0:
224,160,81905,1,8,0:0:0:0:
224,160,82505,1,8,0:0:0:0:
224,160,82805,1,0,0:0:0:0:
224,160,83105,1,8,0:0:0:0:
224,160,83555,1,0,0:0:0:0:
224,160,83705,1,8,0:0:0:0:
224,160,84005,1,0,0:0:0:0:
224,160,84305,1,8,0:0:0:0:
224,160,84605,1,0,0:0:0:0:
224,160,84755,1,8,0:0:0:0:
224,160,84905,1,0,0:0:0:0:
224,160,85205,1,0,0:0:0:0:
224,160,85505,1,8,0:0:0:0:
224,160,85805,1,8,0:0:0:0:
224,160,85955,1,8,0:0:0:0:
224,160,86105,1,8,0:0:0:0:
228,160,86255,1,8,0:0:0:0:
224,160,86405,1,8,0:0:0:0:
224,160,86630,1,8,0:0:0:0:
224,160,86855,1,8,0:0:0:0:
224,160,87080,1,0,0:0:0:0:
224,160,87305,1,8,0:0:0:0:
224,160,87380,1,8,0:0:0:0:
224,160,87455,1,8,0:0:0:0:
224,160,87605,1,0,0:0:0:0:
224,160,87905,1,8,0:0:0:0:
224,160,88355,1,0,0:0:0:0:
224,160,88505,1,8,0:0:0:0:
224,160,88805,1,0,0:0:0:0:
224,160,89105,1,8,0:0:0:0:
224,160,89405,1,0,0:0:0:0:
224,160,89555,1,8,0:0:0:0:
224,160,89705,1,8,0:0:0:0:
224,160,90005,1,0,0:0:0:0:
224,160,90305,1,8,0:0:0:0:
224,160,90605,1,8,0:0:0:0:
224,160,90755,1,8,0:0:0:0:
224,160,90905,1,8,0:0:0:0:
228,160,91055,1,8,0:0:0:0:
224,160,91205,1,0,0:0:0:0:
224,160,91505,1,8,0:0:0:0:
224,160,91805,1,0,0:0:0:0:
224,160,91955,1,8,0:0:0:0:
224,160,92105,1,0,0:0:0:0:
224,160,92180,1,0,0:0:0:0:
224,160,92255,1,0,0:0:0:0:
224,160,92405,1,8,0:0:0:0:
224,160,93605,1,8,0:0:0:0:
224,160,94805,1,0,0:0:0:0:
224,160,96005,1,0,0:0:0:0:
224,160,97205,1,8,0:0:0:0:
224,160,99305,1,8,0:0:0:0:
224,160,99605,1,8,0:0:0:0:
224,160,99905,1,0,0:0:0:0:
224,160,100805,1,8,0:0:0:0:
224,192,102005,1,0,0:0:0:0:
224,192,102305,1,8,0:0:0:0:
224,192,102605,1,0,0:0:0:0:
224,192,102755,1,0,0:0:0:0:
224,192,102905,1,8,0:0:0:0:
224,192,103205,1,0,0:0:0:0:
224,192,103505,1,8,0:0:0:0:
224,192,103655,1,8,0:0:0:0:
224,192,103805,1,0,0:0:0:0:
224,192,103955,1,0,0:0:0:0:
224,192,104105,1,8,0:0:0:0:
224,192,104405,1,0,0:0:0:0:
224,192,104705,1,8,0:0:0:0:
224,192,104855,1,0,0:0:0:0:
224,192,105155,1,0,0:0:0:0:
224,192,105305,1,8,0:0:0:0:
224,192,105605,1,0,0:0:0:0:
224,192,105905,1,8,0:0:0:0:
224,192,106205,1,8,0:0:0:0:
224,192,106355,1,8,0:0:0:0:
224,192,106505,1,0,0:0:0:0:
224,192,106805,1,0,0:0:0:0:
224,192,107105,1,8,0:0:0:0:
224,192,107405,1,0,0:0:0:0:
224,192,107555,1,0,0:0:0:0:
224,192,107705,1,8,0:0:0:0:
224,192,108005,1,0,0:0:0:0:
224,192,108305,1,8,0:0:0:0:
224,192,108605,1,0,0:0:0:0:
224,192,108755,1,0,0:0:0:0:
224,192,108905,1,8,0:0:0:0:
224,192,109055,1,8,0:0:0:0:
224,192,109205,1,0,0:0:0:0:
224,192,109505,1,8,0:0:0:0:
224,192,109655,1,0,0:0:0:0:
224,192,109955,1,0,0:0:0:0:
224,192,110105,1,8,0:0:0:0:
224,192,110405,1,0,0:0:0:0:
224,192,110705,1,8,0:0:0:0:
224,192,110855,1,8,0:0:0:0:
224,192,111005,1,0,0:0:0:0:
128,160,111605,1,0,0:0:0:0:
128,160,111905,1,8,0:0:0:0:
128,160,112205,1,0,0:0:0:0:
120,156,112280,1,0,0:0:0:0:
128,160,112355,1,0,0:0:0:0:
128,160,112505,1,8,0:0:0:0:
128,160,112805,1,0,0:0:0:0:
128,160,112955,1,0,0:0:0:0:
128,160,113105,1,8,0:0:0:0:
128,160,113255,1,8,0:0:0:0:
128,160,113555,1,0,0:0:0:0:
128,160,113705,1,8,0:0:0:0:
128,160,114005,1,8,0:0:0:0:
128,160,114080,1,8,0:0:0:0:
128,160,114155,1,8,0:0:0:0:
128,160,114305,1,0,0:0:0:0:
128,160,114605,1,8,0:0:0:0:
128,160,114755,1,8,0:0:0:0:
128,160,114905,1,0,0:0:0:0:
128,160,115205,1,0,0:0:0:0:
128,160,115505,1,8,0:0:0:0:
128,160,115730,1,8,0:0:0:0:
128,160,115955,1,8,0:0:0:0:
128,160,116105,1,12,0:0:0:0:
128,160,116405,1,0,0:0:0:0:
128,160,116705,1,8,0:0:0:0:
128,160,117155,1,0,0:0:0:0:
128,160,117305,1,8,0:0:0:0:
128,160,117605,1,0,0:0:0:0:
128,160,117755,1,0,0:0:0:0:
128,160,117905,1,8,0:0:0:0:
128,160,118130,1,8,0:0:0:0:
128,160,118355,1,8,0:0:0:0:
128,160,118505,1,8,0:0:0:0:
128,160,118805,1,0,0:0:0:0:
128,160,118955,1,0,0:0:0:0:
128,160,119105,1,8,0:0:0:0:
128,160,119255,1,8,0:0:0:0:
128,160,119405,1,0,0:0:0:0:
128,160,119705,1,8,0:0:0:0:
128,160,120005,1,8,0:0:0:0:
128,160,120305,1,8,0:0:0:0:
128,160,120455,1,8,0:0:0:0:
128,160,120605,1,0,0:0:0:0:
128,160,121205,1,0,0:0:0:0:
128,160,121505,1,8,0:0:0:0:
128,160,121805,1,0,0:0:0:0:
128,160,121880,1,0,0:0:0:0:
128,160,121955,1,0,0:0:0:0:
128,160,122105,1,8,0:0:0:0:
128,160,122405,1,0,0:0:0:0:
128,160,122555,1,0,0:0:0:0:
128,160,122705,1,8,0:0:0:0:
128,160,122930,1,8,0:0:0:0:
128,160,123155,1,8,0:0:0:0:
128,160,123305,1,8,0:0:0:0:
128,160,123605,1,0,0:0:0:0:
128,160,123905,1,8,0:0:0:0:
128,160,124055,1,8,0:0:0:0:
128,160,124205,1,0,0:0:0:0:
128,160,124355,1,0,0:0:0:0:
128,160,124505,1,8,0:0:0:0:
128,160,124805,1,0,0:0:0:0:
128,160,124880,1,0,0:0:0:0:
128,160,124955,1,0,0:0:0:0:
128,160,125105,1,8,0:0:0:0:
128,160,125255,1,8,0:0:0:0:
128,160,125705,1,8,0:0:0:0:
128,160,126005,1,0,0:0:0:0:
128,160,126305,1,0,0:0:0:0:
128,160,126455,1,8,0:0:0:0:
128,160,126605,1,8,0:0:0:0:
128,160,126755,1,0,0:0:0:0:
128,164,126830,1,0,0:0:0:0:
128,160,126905,1,0,0:0:0:0:
128,160,127205,1,0,0:0:0:0:
128,160,127355,1,0,0:0:0:0:
128,160,127505,1,8,0:0:0:0:
128,160,127730,1,8,0:0:0:0:
128,160,127955,1,8,0:0:0:0:
128,160,128105,1,8,0:0:0:0:
128,160,128405,1,0,0:0:0:0:
128,160,128705,1,8,0:0:0:0:
128,160,128855,1,8,0:0:0:0:
128,160,129005,1,0,0:0:0:0:
128,160,129080,1,0,0:0:0:0:
128,160,129155,1,0,0:0:0:0:
128,160,129305,1,8,0:0:0:0:
128,160,129605,1,8,0:0:0:0:
128,160,129755,1,0,0:0:0:0:
128,160,129905,1,8,0:0:0:0:
128,160,130055,1,8,0:0:0:0:
128,160,130505,1,8,0:0:0:0:
128,160,130805,1,0,0:0:0:0:
128,160,131105,1,8,0:0:0:0:
128,160,131255,1,0,0:0:0:0:
128,160,131330,1,0,0:0:0:0:
128,160,131405,1,0,0:0:0:0:
128,160,131555,1,0,0:0:0:0:
128,160,131705,1,8,0:0:0:0:
128,160,132005,1,0,0:0:0:0:
128,160,132155,1,0,0:0:0:0:
128,160,132305,1,8,0:0:0:0:
128,160,132455,1,8,0:0:0:0:
128,160,132605,1,0,0:0:0:0:
128,160,132905,1,12,0:0:0:0:
128,160,133205,1,0,0:0:0:0:
128,160,133505,1,8,0:0:0:0:
128,160,133730,1,8,0:0:0:0:
128,160,133955,1,8,0:0:0:0:
128,160,134105,1,8,0:0:0:0:
128,160,134405,1,8,0:0:0:0:
128,160,134630,1,8,0:0:0:0:
128,160,134855,1,8,0:0:0:0:
128,160,135455,1,8,0:0:0:0:
128,160,135605,1,0,0:0:0:0:
128,160,135755,1,0,0:0:0:0:
128,160,135905,1,8,0:0:0:0:
128,160,136205,1,0,0:0:0:0:
128,160,136505,1,8,0:0:0:0:
128,160,136655,1,8,0:0:0:0:
128,160,136805,1,0,0:0:0:0:
128,160,137105,1,8,0:0:0:0:
128,160,137180,1,8,0:0:0:0:
128,160,137255,1,8,0:0:0:0:
128,160,137405,1,0,0:0:0:0:
128,160,137705,1,0,0:0:0:0:
128,160,137780,1,0,0:0:0:0:
128,160,137855,1,0,0:0:0:0:
128,160,138005,1,8,0:0:0:0:
128,160,138455,1,0,0:0:0:0:
128,160,138605,1,8,0:0:0:0:
128,160,138830,1,8,0:0:0:0:
128,160,139055,1,8,0:0:0:0:
128,160,139205,1,0,0:0:0:0:
128,160,139280,1,0,0:0:0:0:
128,160,139355,1,0,0:0:0:0:
128,160,139430,1,0,0:0:0:0:
128,160,139505,1,0,0:0:0:0:
128,160,139805,2,0,B|140:160,16,8.75
160,160,140405,1,0,0:0:0:0:
128,160,140705,1,8,0:0:0:0:
128,160,140855,1,0,0:0:0:0:
128,160,141005,1,0,0:0:0:0:
128,160,141080,1,0,0:0:0:0:
128,160,141155,1,0,0:0:0:0:
128,160,141305,1,8,0:0:0:0:
128,160,141605,1,0,0:0:0:0:
128,160,141755,1,0,0:0:0:0:
128,160,141905,1,8,0:0:0:0:
128,160,142130,1,8,0:0:0:0:
128,160,142505,1,8,0:0:0:0:
128,160,142805,1,0,0:0:0:0:
128,160,143105,1,8,0:0:0:0:
128,160,143255,1,8,0:0:0:0:
128,160,143405,1,0,0:0:0:0:
128,160,143555,1,0,0:0:0:0:
128,160,143705,1,8,0:0:0:0:
128,160,144005,1,0,0:0:0:0:
128,160,144155,1,0,0:0:0:0:
128,160,144305,1,8,0:0:0:0:
128,160,144455,1,8,0:0:0:0:
128,160,144605,1,0,0:0:0:0:
128,160,144905,1,8,0:0:0:0:
124,152,145055,1,0,0:0:0:0:
124,152,145130,1,0,0:0:0:0:
128,160,145205,1,0,0:0:0:0:
128,160,145355,1,0,0:0:0:0:
128,160,145505,1,8,0:0:0:0:
128,160,145955,1,0,0:0:0:0:
128,160,146105,1,8,0:0:0:0:
128,160,146405,1,0,0:0:0:0:
128,160,146705,1,8,0:0:0:0:
128,160,146930,1,8,0:0:0:0:
128,160,147155,1,8,0:0:0:0:
128,160,147305,1,8,0:0:0:0:
128,160,147605,1,0,0:0:0:0:
128,160,147905,1,8,0:0:0:0:
128,160,148055,1,8,0:0:0:0:
128,160,148205,1,0,0:0:0:0:
128,160,148355,1,0,0:0:0:0:
128,160,148505,1,8,0:0:0:0:
128,160,148805,1,0,0:0:0:0:
128,160,148955,1,0,0:0:0:0:
128,160,149105,1,8,0:0:0:0:
128,160,149255,1,8,0:0:0:0:
128,160,149405,1,0,0:0:0:0:
128,160,150005,1,0,0:0:0:0:
128,160,150305,1,8,0:0:0:0:
128,160,150455,1,8,0:0:0:0:
128,160,150605,1,0,0:0:0:0:
128,160,150680,1,0,0:0:0:0:
128,160,150755,1,0,0:0:0:0:
128,160,150905,1,8,0:0:0:0:
128,160,151205,1,0,0:0:0:0:
128,160,151355,1,0,0:0:0:0:
128,160,151505,1,8,0:0:0:0:
128,160,151730,1,8,0:0:0:0:
128,160,151955,1,8,0:0:0:0:
128,160,152105,1,8,0:0:0:0:
128,160,152405,1,0,0:0:0:0:
128,160,152705,1,8,0:0:0:0:
128,160,152855,1,8,0:0:0:0:
128,160,153005,1,0,0:0:0:0:
128,160,153080,1,0,0:0:0:0:
128,160,153155,1,0,0:0:0:0:
128,160,153305,1,8,0:0:0:0:
128,160,153605,1,0,0:0:0:0:
128,160,153755,1,0,0:0:0:0:
128,160,153905,1,8,0:0:0:0:
128,160,154055,1,8,0:0:0:0:
128,160,154505,1,8,0:0:0:0:
128,160,154655,1,8,0:0:0:0:
128,160,154805,1,0,0:0:0:0:
128,160,155105,1,8,0:0:0:0:
128,160,155405,1,0,0:0:0:0:
128,160,155555,1,0,0:0:0:0:
128,160,155705,1,8,0:0:0:0:
128,160,156005,1,0,0:0:0:0:
128,160,156305,1,8,0:0:0:0:
128,160,156455,1,8,0:0:0:0:
128,160,156605,1,0,0:0:0:0:
128,160,156755,1,0,0:0:0:0:
128,160,156905,1,8,0:0:0:0:
128,160,157205,1,0,0:0:0:0:
128,160,157355,1,0,0:0:0:0:
128,160,157430,1,0,0:0:0:0:
128,160,157505,1,0,0:0:0:0:
128,160,157805,1,0,0:0:0:0:
128,160,157955,1,8,0:0:0:0:
128,160,158105,1,0,0:0:0:0:
128,160,158405,1,0,0:0:0:0:
128,160,158555,1,0,0:0:0:0:
128,160,158705,1,8,0:0:0:0:
128,160,158930,1,8,0:0:0:0:
128,160,159155,1,8,0:0:0:0:
128,160,159305,1,0,0:0:0:0:
256,192,159605,12,0,164030,0:0:0:0:
