osu file format v14

[General]
AudioFilename: Lawn Wake II.mp3
AudioLeadIn: 0
PreviewTime: 35014
Countdown: 0
SampleSet: Normal
StackLeniency: 0.7
Mode: 1
LetterboxInBreaks: 0
WidescreenStoryboard: 1

[Editor]
Bookmarks: 8802,17529,21908,26266,30635,34994,41544,43726,52453,61180,69908,74271,78635,85180,87362,96090,104817,113544,122271,139726,144090,157180,165908
DistanceSpacing: 1
BeatDivisor: 8
GridSize: 32
TimelineZoom: 1.300006

[Metadata]
Title:Lawn Wake II
TitleUnicode:Lawn Wake II
Artist:The Flashbulb
ArtistUnicode:The Flashbulb
Creator:tasuke912
Version:Muzukashii
Source:osu!
Tags:Greenshell featured artist electronic instrumental fa breakcore red extensions of me benn jordan
BeatmapID:2101036
BeatmapSetID:364724

[Difficulty]
HPDrainRate:5
CircleSize:2
OverallDifficulty:5
ApproachRate:5
SliderMultiplier:1.4
SliderTickRate:1

[Events]
//Background and Video events
0,0,"bg.jpg",0,30
//Break Periods
//Storyboard Layer 0 (Background)
//Storyboard Layer 1 (Fail)
//Storyboard Layer 2 (Pass)
//Storyboard Layer 3 (Foreground)
//Storyboard Layer 4 (Overlay)
//Storyboard Sound Samples

[TimingPoints]
105,272.727272727273,4,1,0,50,1,0
173,-100,4,1,0,50,0,0
17559,-100,4,1,0,55,0,0
35014,-100,4,1,0,65,0,1
87377,-100,4,1,0,55,0,0
96105,-100,4,1,0,60,0,0
104832,-100,4,1,0,65,0,1
113559,-100,4,1,0,55,0,0
122286,-100,4,1,0,60,0,0
131014,-100,4,1,0,65,0,1
157195,-100,4,1,0,65,0,0
165923,-100,4,1,0,65,0,1
171365,272.727272727273,4,1,0,65,1,1
172438,272.727272727273,4,1,0,65,1,1
173481,272.727272727273,4,1,0,65,1,1
180026,-100,4,1,0,65,0,0

[HitObjects]
256,192,105,5,4,0:0:0:0:
256,192,923,1,2,0:0:0:0:
256,192,2286,1,2,0:0:0:0:
256,192,3105,1,2,0:0:0:0:
256,192,4468,1,0,0:0:0:0:
256,192,4605,1,0,0:0:0:0:
256,192,4741,1,0,0:0:0:0:
256,192,5014,1,2,0:0:0:0:
256,192,5286,1,2,0:0:0:0:
256,192,5559,1,0,0:0:0:0:
256,192,6105,1,2,0:0:0:0:
256,192,6650,1,0,0:0:0:0:
256,192,6786,1,0,0:0:0:0:
256,192,6923,1,0,0:0:0:0:
256,192,7195,1,2,0:0:0:0:
256,192,7468,1,0,0:0:0:0:
256,192,7741,1,2,0:0:0:0:
256,192,8286,1,2,0:0:0:0:
256,192,8559,1,2,0:0:0:0:
256,192,8832,1,4,0:0:0:0:
256,192,9377,1,0,0:0:0:0:
256,192,9650,1,2,0:0:0:0:
256,192,9923,1,0,0:0:0:0:
256,192,10059,1,0,0:0:0:0:
256,192,10195,1,0,0:0:0:0:
256,192,10468,1,2,0:0:0:0:
256,192,10741,1,2,0:0:0:0:
256,192,11014,1,0,0:0:0:0:
256,192,11559,1,2,0:0:0:0:
256,192,11832,1,0,0:0:0:0:
256,192,12105,1,2,0:0:0:0:
256,192,12241,1,2,0:0:0:0:
256,192,12377,1,2,0:0:0:0:
256,192,12650,1,2,0:0:0:0:
256,192,13195,1,0,0:0:0:0:
256,192,13468,1,2,0:0:0:0:
256,192,13741,1,0,0:0:0:0:
256,192,13877,1,0,0:0:0:0:
256,192,14014,1,2,0:0:0:0:
256,192,14286,1,0,0:0:0:0:
256,192,14377,1,0,0:0:0:0:
256,192,14468,1,0,0:0:0:0:
256,192,14559,1,2,0:0:0:0:
256,192,14832,1,0,0:0:0:0:
256,192,15105,1,2,0:0:0:0:
256,192,15377,1,0,0:0:0:0:
256,192,15445,1,0,0:0:0:0:
256,192,15514,1,0,0:0:0:0:
256,192,15650,1,2,0:0:0:0:
256,192,15786,1,2,0:0:0:0:
256,192,15923,1,0,0:0:0:0:
256,192,16195,1,2,0:0:0:0:
256,192,16332,1,2,0:0:0:0:
256,192,16468,1,0,0:0:0:0:
256,192,16536,1,0,0:0:0:0:
256,192,16605,1,0,0:0:0:0:
256,192,16741,1,2,0:0:0:0:
256,192,17014,1,0,0:0:0:0:
256,192,17150,1,0,0:0:0:0:
256,192,17286,1,2,0:0:0:0:
256,192,17559,1,4,0:0:0:0:
256,192,18105,1,0,0:0:0:0:
256,192,18377,1,2,0:0:0:0:
256,192,18650,1,0,0:0:0:0:
256,192,18923,1,0,0:0:0:0:
256,192,19059,1,2,0:0:0:0:
256,192,19195,1,0,0:0:0:0:
256,192,19468,1,2,0:0:0:0:
256,192,19741,1,0,0:0:0:0:
256,192,20014,1,2,0:0:0:0:
256,192,20150,1,2,0:0:0:0:
256,192,20286,1,0,0:0:0:0:
256,192,20559,1,2,0:0:0:0:
256,192,20832,1,0,0:0:0:0:
256,192,20968,1,2,0:0:0:0:
256,192,21105,1,0,0:0:0:0:
256,192,21241,1,2,0:0:0:0:
256,192,21377,1,2,0:0:0:0:
256,192,21650,1,2,0:0:0:0:
256,192,21786,1,2,0:0:0:0:
256,192,21923,1,0,0:0:0:0:
256,192,22195,1,2,0:0:0:0:
256,192,22332,1,0,0:0:0:0:
256,192,22468,1,2,0:0:0:0:
256,192,22741,1,2,0:0:0:0:
256,192,22877,1,2,0:0:0:0:
256,192,23014,1,0,0:0:0:0:
256,192,23286,1,0,0:0:0:0:
256,192,23423,1,2,0:0:0:0:
256,192,23559,1,0,0:0:0:0:
256,192,23695,1,0,0:0:0:0:
256,192,23832,1,2,0:0:0:0:
256,192,24105,1,0,0:0:0:0:
256,192,24377,1,2,0:0:0:0:
256,192,24514,1,2,0:0:0:0:
256,192,24650,1,0,0:0:0:0:
256,192,24741,1,0,0:0:0:0:
256,192,24832,1,0,0:0:0:0:
256,192,24923,1,2,0:0:0:0:
256,192,25195,1,0,0:0:0:0:
256,192,25468,1,2,0:0:0:0:
256,192,25605,1,2,0:0:0:0:
256,192,25741,1,0,0:0:0:0:
256,192,26014,1,2,0:0:0:0:
256,192,26286,1,4,0:0:0:0:
256,192,26832,1,0,0:0:0:0:
256,192,27105,1,2,0:0:0:0:
256,192,27377,1,0,0:0:0:0:
256,192,27514,1,2,0:0:0:0:
256,192,27650,1,0,0:0:0:0:
256,192,27786,1,0,0:0:0:0:
256,192,27923,1,2,0:0:0:0:
256,192,28195,1,0,0:0:0:0:
256,192,28332,1,2,0:0:0:0:
256,192,28468,1,0,0:0:0:0:
256,192,28741,1,2,0:0:0:0:
256,192,28877,1,2,0:0:0:0:
256,192,29014,1,0,0:0:0:0:
256,192,29286,1,2,0:0:0:0:
256,192,29559,1,0,0:0:0:0:
256,192,29695,1,2,0:0:0:0:
256,192,29832,1,0,0:0:0:0:
256,192,29968,1,2,0:0:0:0:
256,192,30105,1,2,0:0:0:0:
256,192,30377,1,2,0:0:0:0:
256,192,30514,1,2,0:0:0:0:
256,192,30650,1,0,0:0:0:0:
256,192,30923,1,2,0:0:0:0:
256,192,31059,1,0,0:0:0:0:
256,192,31195,1,2,0:0:0:0:
256,192,31468,1,2,0:0:0:0:
256,192,31605,1,2,0:0:0:0:
256,192,31741,1,0,0:0:0:0:
256,192,32014,1,0,0:0:0:0:
256,192,32150,1,2,0:0:0:0:
256,192,32286,1,0,0:0:0:0:
256,192,32559,1,2,0:0:0:0:
256,192,32832,1,0,0:0:0:0:
256,192,33105,1,2,0:0:0:0:
256,192,33241,1,2,0:0:0:0:
256,192,33377,1,0,0:0:0:0:
256,192,33514,1,0,0:0:0:0:
256,192,33650,1,2,0:0:0:0:
64,160,33923,2,0,P|184:94|202:312,1,420
256,192,35014,5,4,0:0:0:0:
256,192,35286,1,2,0:0:0:0:
256,192,35695,1,0,0:0:0:0:
256,192,35832,1,2,0:0:0:0:
256,192,36105,1,0,0:0:0:0:
256,192,36173,1,0,0:0:0:0:
256,192,36241,1,0,0:0:0:0:
256,192,36377,1,2,0:0:0:0:
256,192,36650,1,2,0:0:0:0:
256,192,36855,1,2,0:0:0:0:
256,192,37059,1,2,0:0:0:0:
256,192,37195,1,0,0:0:0:0:
256,192,37468,1,2,0:0:0:0:
256,192,37605,1,2,0:0:0:0:
256,192,37673,1,2,0:0:0:0:
256,192,37741,1,2,0:0:0:0:
256,192,37877,1,0,0:0:0:0:
256,192,38014,1,2,0:0:0:0:
256,192,38286,1,0,0:0:0:0:
256,192,38559,1,0,0:0:0:0:
256,192,38695,1,0,0:0:0:0:
256,192,38832,1,2,0:0:0:0:
256,192,38968,1,0,0:0:0:0:
256,192,39105,1,0,0:0:0:0:
256,192,39377,1,0,0:0:0:0:
256,192,39514,1,0,0:0:0:0:
256,192,39582,1,0,0:0:0:0:
256,192,39650,1,0,0:0:0:0:
256,192,39786,1,2,0:0:0:0:
256,192,39923,1,2,0:0:0:0:
256,192,40195,1,0,0:0:0:0:
256,192,40468,1,0,0:0:0:0:
256,192,40536,1,0,0:0:0:0:
256,192,40605,1,0,0:0:0:0:
256,192,40741,1,2,0:0:0:0:
256,192,41014,1,0,0:0:0:0:
256,192,41150,1,2,0:0:0:0:
256,192,41286,1,2,0:0:0:0:
256,192,41559,1,0,0:0:0:0:
256,192,41695,1,2,0:0:0:0:
256,192,41764,1,2,0:0:0:0:
256,192,41832,1,2,0:0:0:0:
256,192,41968,1,2,0:0:0:0:
256,192,42105,1,2,0:0:0:0:
256,192,42377,1,0,0:0:0:0:
256,192,42650,1,0,0:0:0:0:
256,192,42923,1,0,0:0:0:0:
256,192,42991,1,0,0:0:0:0:
256,192,43059,1,0,0:0:0:0:
256,192,43195,1,2,0:0:0:0:
256,192,43332,1,0,0:0:0:0:
256,192,43468,1,2,0:0:0:0:
256,192,43741,1,4,0:0:0:0:
256,192,44014,1,2,0:0:0:0:
256,192,44423,1,0,0:0:0:0:
256,192,44559,1,2,0:0:0:0:
256,192,44832,1,0,0:0:0:0:
256,192,44968,1,0,0:0:0:0:
256,192,45105,1,2,0:0:0:0:
256,192,45241,1,2,0:0:0:0:
256,192,45377,1,0,0:0:0:0:
256,192,45514,1,0,0:0:0:0:
256,192,45650,1,2,0:0:0:0:
256,192,45923,1,0,0:0:0:0:
256,192,46195,1,2,0:0:0:0:
256,192,46332,1,2,0:0:0:0:
256,192,46400,1,2,0:0:0:0:
256,192,46468,1,2,0:0:0:0:
256,192,46605,1,0,0:0:0:0:
256,192,46741,1,2,0:0:0:0:
256,192,47014,1,0,0:0:0:0:
256,192,47150,1,0,0:0:0:0:
256,192,47286,1,2,0:0:0:0:
256,192,47423,1,2,0:0:0:0:
256,192,47559,1,2,0:0:0:0:
256,192,47627,1,2,0:0:0:0:
256,192,47695,1,2,0:0:0:0:
256,192,47832,1,0,0:0:0:0:
256,192,47968,1,0,0:0:0:0:
256,192,48105,1,2,0:0:0:0:
256,192,48309,1,2,0:0:0:0:
256,192,48514,1,2,0:0:0:0:
256,192,48650,1,0,0:0:0:0:
256,192,48718,1,0,0:0:0:0:
256,192,48786,1,0,0:0:0:0:
256,192,48923,1,2,0:0:0:0:
256,192,49195,1,0,0:0:0:0:
256,192,49332,1,0,0:0:0:0:
256,192,49468,1,2,0:0:0:0:
256,192,49605,1,2,0:0:0:0:
256,192,49673,1,2,0:0:0:0:
256,192,49741,1,2,0:0:0:0:
256,192,49877,1,0,0:0:0:0:
256,192,50014,1,2,0:0:0:0:
256,192,50286,1,0,0:0:0:0:
256,192,50559,1,2,0:0:0:0:
256,192,50695,1,2,0:0:0:0:
256,192,50832,1,2,0:0:0:0:
256,192,50900,1,2,0:0:0:0:
256,192,50968,1,2,0:0:0:0:
256,192,51105,1,0,0:0:0:0:
256,192,51377,1,0,0:0:0:0:
256,192,51582,1,0,0:0:0:0:
256,192,51786,1,2,0:0:0:0:
256,192,51991,1,2,0:0:0:0:
256,192,52468,1,4,0:0:0:0:
256,192,52605,1,0,0:0:0:0:
256,192,52741,1,2,0:0:0:0:
256,192,52877,1,2,0:0:0:0:
256,192,52945,1,2,0:0:0:0:
256,192,53014,1,2,0:0:0:0:
256,192,53286,1,2,0:0:0:0:
256,192,53423,1,2,0:0:0:0:
256,192,53559,1,0,0:0:0:0:
256,192,53832,1,0,0:0:0:0:
256,192,54105,1,2,0:0:0:0:
256,192,54377,1,2,0:0:0:0:
256,192,54514,1,2,0:0:0:0:
256,192,54650,1,0,0:0:0:0:
256,192,54786,1,0,0:0:0:0:
256,192,54923,1,2,0:0:0:0:
256,192,55195,1,2,0:0:0:0:
256,192,55264,1,2,0:0:0:0:
256,192,55332,1,2,0:0:0:0:
256,192,55468,1,0,0:0:0:0:
256,192,55605,1,2,0:0:0:0:
256,192,55741,1,0,0:0:0:0:
256,192,56014,1,2,0:0:0:0:
256,192,56150,1,2,0:0:0:0:
256,192,56286,1,0,0:0:0:0:
256,192,56423,1,2,0:0:0:0:
256,192,56559,1,2,0:0:0:0:
256,192,56832,1,0,0:0:0:0:
256,192,57014,1,2,0:0:0:0:
256,192,57105,1,0,0:0:0:0:
256,192,57286,1,2,0:0:0:0:
256,192,57377,1,0,0:0:0:0:
256,192,57514,1,0,0:0:0:0:
256,192,57650,1,2,0:0:0:0:
256,192,57786,1,2,0:0:0:0:
256,192,57923,1,0,0:0:0:0:
256,192,57991,1,0,0:0:0:0:
256,192,58059,1,0,0:0:0:0:
256,192,58195,1,2,0:0:0:0:
256,192,58332,1,2,0:0:0:0:
256,192,58468,1,0,0:0:0:0:
256,192,58741,1,2,0:0:0:0:
162,105,59014,2,2,P|285:104|112:209,1,560
256,192,60377,12,0,60923,0:0:0:0:
256,192,61195,5,4,0:0:0:0:
256,192,61468,1,2,0:0:0:0:
256,192,61877,1,0,0:0:0:0:
256,192,62014,1,2,0:0:0:0:
256,192,62286,1,0,0:0:0:0:
256,192,62423,1,0,0:0:0:0:
256,192,62559,1,2,0:0:0:0:
256,192,62695,1,2,0:0:0:0:
256,192,62832,1,0,0:0:0:0:
256,192,62900,1,0,0:0:0:0:
256,192,62968,1,0,0:0:0:0:
256,192,63105,1,2,0:0:0:0:
256,192,63377,1,0,0:0:0:0:
256,192,63650,1,0,0:0:0:0:
256,192,63786,1,0,0:0:0:0:
256,192,63923,1,2,0:0:0:0:
256,192,64059,1,2,0:0:0:0:
256,192,64195,1,0,0:0:0:0:
256,192,64468,1,0,0:0:0:0:
256,192,64605,1,0,0:0:0:0:
256,192,64741,1,2,0:0:0:0:
256,192,64877,1,2,0:0:0:0:
256,192,64945,1,2,0:0:0:0:
256,192,65014,1,2,0:0:0:0:
256,192,65150,1,0,0:0:0:0:
256,192,65286,1,2,0:0:0:0:
256,192,65423,1,2,0:0:0:0:
256,192,65559,1,0,0:0:0:0:
256,192,65764,1,0,0:0:0:0:
256,192,65968,1,0,0:0:0:0:
256,192,66036,1,0,0:0:0:0:
256,192,66105,1,0,0:0:0:0:
256,192,66377,1,2,0:0:0:0:
256,192,66650,1,0,0:0:0:0:
256,192,66923,1,0,0:0:0:0:
256,192,67195,1,2,0:0:0:0:
256,192,67332,1,0,0:0:0:0:
256,192,67468,1,2,0:0:0:0:
256,192,67741,1,0,0:0:0:0:
256,192,68014,1,2,0:0:0:0:
256,192,68150,1,2,0:0:0:0:
256,192,68286,1,0,0:0:0:0:
256,192,68355,1,0,0:0:0:0:
256,192,68423,1,0,0:0:0:0:
256,192,68559,1,2,0:0:0:0:
256,192,68832,1,0,0:0:0:0:
256,192,69105,1,2,0:0:0:0:
256,192,69173,1,2,0:0:0:0:
256,192,69241,1,2,0:0:0:0:
256,192,69377,1,0,0:0:0:0:
256,192,69514,1,2,0:0:0:0:
256,192,69650,1,0,0:0:0:0:
256,192,69718,1,0,0:0:0:0:
256,192,69923,1,4,0:0:0:0:
256,192,70195,1,2,0:0:0:0:
256,192,70605,1,0,0:0:0:0:
256,192,70741,1,2,0:0:0:0:
256,192,71014,1,0,0:0:0:0:
256,192,71150,1,0,0:0:0:0:
256,192,71286,1,2,0:0:0:0:
256,192,71423,1,2,0:0:0:0:
256,192,71559,1,0,0:0:0:0:
256,192,71627,1,0,0:0:0:0:
256,192,71695,1,0,0:0:0:0:
256,192,71832,1,0,0:0:0:0:
256,192,71968,1,2,0:0:0:0:
256,192,72105,1,0,0:0:0:0:
256,192,72377,1,2,0:0:0:0:
256,192,72650,1,2,0:0:0:0:
256,192,72718,1,2,0:0:0:0:
256,192,72786,1,2,0:0:0:0:
256,192,72923,1,0,0:0:0:0:
256,192,73059,1,2,0:0:0:0:
256,192,73195,1,0,0:0:0:0:
256,192,73468,1,2,0:0:0:0:
256,192,73741,1,0,0:0:0:0:
256,192,73877,1,2,0:0:0:0:
256,192,74014,1,2,0:0:0:0:
256,192,74150,1,2,0:0:0:0:
256,192,74286,1,0,0:0:0:0:
256,192,74491,1,0,0:0:0:0:
256,192,74695,1,2,0:0:0:0:
256,192,74832,1,0,0:0:0:0:
256,192,74900,1,0,0:0:0:0:
256,192,74968,1,0,0:0:0:0:
256,192,75105,1,2,0:0:0:0:
256,192,75377,1,0,0:0:0:0:
256,192,75514,1,0,0:0:0:0:
256,192,75650,1,2,0:0:0:0:
256,192,75786,1,2,0:0:0:0:
256,192,75855,1,2,0:0:0:0:
256,192,75923,1,2,0:0:0:0:
256,192,76059,1,0,0:0:0:0:
256,192,76195,1,2,0:0:0:0:
256,192,76332,1,2,0:0:0:0:
256,192,76468,1,0,0:0:0:0:
256,192,76741,1,2,0:0:0:0:
256,192,76877,1,2,0:0:0:0:
256,192,77014,1,2,0:0:0:0:
256,192,77082,1,2,0:0:0:0:
256,192,77150,1,2,0:0:0:0:
256,192,77286,1,0,0:0:0:0:
256,192,77559,1,0,0:0:0:0:
256,192,77764,1,0,0:0:0:0:
256,192,77968,1,2,0:0:0:0:
256,192,78173,1,2,0:0:0:0:
256,192,78650,5,4,0:0:0:0:
256,192,78923,1,2,0:0:0:0:
256,192,79059,1,2,0:0:0:0:
256,192,79127,1,2,0:0:0:0:
256,192,79195,1,2,0:0:0:0:
256,192,79332,1,0,0:0:0:0:
256,192,79468,1,2,0:0:0:0:
256,192,79741,1,0,0:0:0:0:
256,192,79809,1,0,0:0:0:0:
256,192,79877,1,0,0:0:0:0:
256,192,80014,1,2,0:0:0:0:
256,192,80286,1,2,0:0:0:0:
256,192,80491,1,2,0:0:0:0:
256,192,80695,1,2,0:0:0:0:
256,192,80832,1,0,0:0:0:0:
256,192,81105,1,2,0:0:0:0:
256,192,81241,1,2,0:0:0:0:
256,192,81377,1,0,0:0:0:0:
256,192,81445,1,0,0:0:0:0:
256,192,81514,1,0,0:0:0:0:
256,192,81650,1,2,0:0:0:0:
256,192,81923,1,0,0:0:0:0:
256,192,82059,1,2,0:0:0:0:
256,192,82127,1,2,0:0:0:0:
256,192,82195,1,2,0:0:0:0:
256,192,82468,1,0,0:0:0:0:
256,192,82536,1,0,0:0:0:0:
256,192,82605,1,0,0:0:0:0:
256,192,82741,1,6,0:0:0:0:
256,192,83014,1,0,0:0:0:0:
256,192,83150,1,0,0:0:0:0:
256,192,83218,1,0,0:0:0:0:
256,192,83286,1,0,0:0:0:0:
256,192,83423,1,2,0:0:0:0:
256,192,83559,1,2,0:0:0:0:
256,192,83695,1,2,0:0:0:0:
256,192,83832,1,0,0:0:0:0:
256,192,84105,1,0,0:0:0:0:
256,192,84377,1,2,0:0:0:0:
256,192,84650,1,0,0:0:0:0:
256,192,84786,1,2,0:0:0:0:
256,192,84923,1,2,0:0:0:0:
256,192,85195,1,0,0:0:0:0:
256,192,85332,1,2,0:0:0:0:
256,192,85400,1,2,0:0:0:0:
256,192,85468,1,2,0:0:0:0:
256,192,85605,1,0,0:0:0:0:
256,192,85741,1,2,0:0:0:0:
256,192,85877,1,2,0:0:0:0:
256,192,86014,1,0,0:0:0:0:
256,192,86286,1,0,0:0:0:0:
256,192,86559,1,0,0:0:0:0:
256,192,86627,1,0,0:0:0:0:
256,192,86695,1,0,0:0:0:0:
256,192,86832,1,2,0:0:0:0:
256,192,86968,1,2,0:0:0:0:
256,192,87105,1,6,0:0:0:0:
256,192,87377,5,0,0:0:0:0:
256,192,87650,1,4,0:0:0:0:
256,192,87923,1,0,0:0:0:0:
256,192,88059,1,0,0:0:0:0:
256,192,88468,1,0,0:0:0:0:
256,192,88605,1,0,0:0:0:0:
256,192,88877,1,0,0:0:0:0:
256,192,88945,1,0,0:0:0:0:
256,192,89014,1,0,0:0:0:0:
256,192,89286,1,0,0:0:0:0:
256,192,89559,1,0,0:0:0:0:
256,192,89695,1,0,0:0:0:0:
256,192,89832,1,0,0:0:0:0:
256,192,90105,1,0,0:0:0:0:
256,192,90377,1,0,0:0:0:0:
256,192,90445,1,0,0:0:0:0:
256,192,90514,1,0,0:0:0:0:
256,192,90582,1,0,0:0:0:0:
256,192,90650,1,0,0:0:0:0:
256,192,90923,1,0,0:0:0:0:
256,192,91195,1,2,0:0:0:0:
256,192,91332,1,2,0:0:0:0:
256,192,91468,1,2,0:0:0:0:
256,192,91741,1,4,0:0:0:0:
256,192,92014,1,0,0:0:0:0:
256,192,92286,1,0,0:0:0:0:
256,192,92491,1,0,0:0:0:0:
256,192,92695,1,0,0:0:0:0:
256,192,92832,1,4,0:0:0:0:
256,192,93241,1,4,0:0:0:0:
256,192,93650,1,4,0:0:0:0:
256,192,93923,1,0,0:0:0:0:
256,192,94059,1,0,0:0:0:0:
256,192,94195,1,0,0:0:0:0:
256,192,94332,1,0,0:0:0:0:
256,192,94468,1,2,0:0:0:0:
256,192,94605,1,2,0:0:0:0:
256,192,94741,1,2,0:0:0:0:
256,192,94877,1,0,0:0:0:0:
256,192,95014,1,0,0:0:0:0:
256,192,95286,1,0,0:0:0:0:
256,192,95423,1,0,0:0:0:0:
256,192,95491,1,0,0:0:0:0:
256,192,95559,1,0,0:0:0:0:
256,192,95695,1,2,0:0:0:0:
256,192,95764,1,2,0:0:0:0:
256,192,95832,1,2,0:0:0:0:
256,192,96105,1,4,0:0:0:0:
256,192,96377,1,4,0:0:0:0:
256,192,96650,1,2,0:0:0:0:
256,192,96923,1,2,0:0:0:0:
256,192,97195,1,0,0:0:0:0:
256,192,97264,1,2,0:0:0:0:
256,192,97468,1,0,0:0:0:0:
256,192,97741,1,2,0:0:0:0:
256,192,97877,1,2,0:0:0:0:
256,192,98014,1,0,0:0:0:0:
256,192,98286,1,0,0:0:0:0:
256,192,98559,1,0,0:0:0:0:
256,192,98695,1,0,0:0:0:0:
256,192,98832,1,2,0:0:0:0:
256,192,99105,1,2,0:0:0:0:
256,192,99377,1,0,0:0:0:0:
256,192,99650,1,0,0:0:0:0:
256,192,99923,1,0,0:0:0:0:
256,192,100195,1,2,0:0:0:0:
256,192,100468,1,4,0:0:0:0:
256,192,100605,1,0,0:0:0:0:
256,192,100741,1,2,0:0:0:0:
256,192,101014,1,0,0:0:0:0:
256,192,101150,1,2,0:0:0:0:
256,192,101286,1,2,0:0:0:0:
256,192,101423,1,2,0:0:0:0:
256,192,101559,1,0,0:0:0:0:
256,192,101695,1,2,0:0:0:0:
256,192,101764,1,2,0:0:0:0:
256,192,101832,1,2,0:0:0:0:
256,192,102105,1,2,0:0:0:0:
256,192,102241,1,0,0:0:0:0:
256,192,102377,1,0,0:0:0:0:
256,192,102650,1,0,0:0:0:0:
256,192,102923,1,0,0:0:0:0:
256,192,103195,1,0,0:0:0:0:
256,192,103332,1,2,0:0:0:0:
256,192,103468,1,0,0:0:0:0:
256,192,103605,1,2,0:0:0:0:
256,192,103741,1,0,0:0:0:0:
256,192,104014,1,0,0:0:0:0:
256,192,104286,1,2,0:0:0:0:
256,192,104832,5,4,0:0:0:0:
256,192,105105,1,2,0:0:0:0:
256,192,105241,1,0,0:0:0:0:
256,192,105514,1,2,0:0:0:0:
256,192,105650,1,0,0:0:0:0:
256,192,105923,1,0,0:0:0:0:
256,192,106059,1,0,0:0:0:0:
256,192,106195,1,2,0:0:0:0:
256,192,106332,1,2,0:0:0:0:
256,192,106468,1,0,0:0:0:0:
256,192,106536,1,0,0:0:0:0:
256,192,106605,1,0,0:0:0:0:
256,192,106741,1,2,0:0:0:0:
256,192,106877,1,2,0:0:0:0:
256,192,107014,1,0,0:0:0:0:
256,192,107286,1,2,0:0:0:0:
256,192,107559,1,2,0:0:0:0:
256,192,107627,1,2,0:0:0:0:
256,192,107695,1,2,0:0:0:0:
256,192,107832,1,0,0:0:0:0:
256,192,107968,1,2,0:0:0:0:
256,192,108105,1,0,0:0:0:0:
256,192,108377,1,2,0:0:0:0:
256,192,108650,1,2,0:0:0:0:
256,192,108718,1,2,0:0:0:0:
256,192,108786,1,2,0:0:0:0:
256,192,108923,1,2,0:0:0:0:
256,192,109059,1,2,0:0:0:0:
256,192,109195,1,0,0:0:0:0:
256,192,109400,1,0,0:0:0:0:
256,192,109605,1,0,0:0:0:0:
256,192,109741,1,2,0:0:0:0:
256,192,109809,1,2,0:0:0:0:
256,192,109877,1,2,0:0:0:0:
256,192,110014,1,0,0:0:0:0:
256,192,110150,1,2,0:0:0:0:
256,192,110286,1,0,0:0:0:0:
256,192,110423,1,0,0:0:0:0:
256,192,110559,1,2,0:0:0:0:
256,192,110832,1,2,0:0:0:0:
256,192,110968,1,0,0:0:0:0:
256,192,111036,1,0,0:0:0:0:
256,192,111105,1,0,0:0:0:0:
256,192,111241,1,2,0:0:0:0:
256,192,111377,1,0,0:0:0:0:
256,192,111650,1,2,0:0:0:0:
256,192,111786,1,2,0:0:0:0:
256,192,111923,1,2,0:0:0:0:
256,192,111991,1,2,0:0:0:0:
256,192,112059,1,2,0:0:0:0:
256,192,112195,1,0,0:0:0:0:
256,192,112332,1,2,0:0:0:0:
256,192,112468,1,0,0:0:0:0:
256,192,112673,1,0,0:0:0:0:
256,192,112877,1,2,0:0:0:0:
256,192,113082,1,2,0:0:0:0:
256,192,113286,1,2,0:0:0:0:
256,192,113355,1,2,0:0:0:0:
256,192,113423,1,2,0:0:0:0:
256,192,113559,1,0,0:0:0:0:
256,192,114105,1,2,0:0:0:0:
256,192,114241,1,2,0:0:0:0:
256,192,114377,1,2,0:0:0:0:
256,192,114650,1,0,0:0:0:0:
256,192,115195,1,0,0:0:0:0:
256,192,115332,1,0,0:0:0:0:
256,192,115468,1,2,0:0:0:0:
256,192,115741,1,0,0:0:0:0:
256,192,116014,1,0,0:0:0:0:
256,192,116150,1,2,0:0:0:0:
256,192,116423,1,0,0:0:0:0:
256,192,116559,1,0,0:0:0:0:
256,192,116695,1,2,0:0:0:0:
256,192,116832,1,0,0:0:0:0:
256,192,117105,1,0,0:0:0:0:
256,192,117377,1,2,0:0:0:0:
256,192,117514,1,2,0:0:0:0:
256,192,117650,1,2,0:0:0:0:
256,192,117923,1,2,0:0:0:0:
256,192,118195,1,2,0:0:0:0:
256,192,118468,1,2,0:0:0:0:
256,192,118605,1,0,0:0:0:0:
256,192,118877,1,0,0:0:0:0:
256,192,119014,1,2,0:0:0:0:
256,192,119286,1,2,0:0:0:0:
256,192,119423,1,0,0:0:0:0:
256,192,119559,1,2,0:0:0:0:
256,192,119832,1,0,0:0:0:0:
256,192,119968,1,2,0:0:0:0:
256,192,120105,1,0,0:0:0:0:
256,192,120377,1,0,0:0:0:0:
256,192,120514,1,2,0:0:0:0:
256,192,120786,1,2,0:0:0:0:
256,192,121059,1,0,0:0:0:0:
256,192,121195,1,2,0:0:0:0:
256,192,121468,1,2,0:0:0:0:
256,192,121605,1,0,0:0:0:0:
256,192,121741,1,2,0:0:0:0:
256,192,121877,1,2,0:0:0:0:
256,192,122014,1,0,0:0:0:0:
256,192,122150,1,2,0:0:0:0:
256,192,122286,1,4,0:0:0:0:
256,192,122559,1,2,0:0:0:0:
256,192,122695,1,2,0:0:0:0:
256,192,122764,1,2,0:0:0:0:
256,192,122832,1,2,0:0:0:0:
256,192,122968,1,0,0:0:0:0:
256,192,123105,1,2,0:0:0:0:
256,192,123377,1,0,0:0:0:0:
256,192,123445,1,0,0:0:0:0:
256,192,123514,1,0,0:0:0:0:
256,192,123650,1,2,0:0:0:0:
256,192,123923,1,2,0:0:0:0:
256,192,124127,1,2,0:0:0:0:
256,192,124332,1,2,0:0:0:0:
256,192,124468,1,0,0:0:0:0:
256,192,124741,1,2,0:0:0:0:
256,192,124877,1,2,0:0:0:0:
256,192,124945,1,2,0:0:0:0:
256,192,125014,1,2,0:0:0:0:
256,192,125150,1,0,0:0:0:0:
256,192,125286,1,0,0:0:0:0:
256,192,125423,1,2,0:0:0:0:
256,192,125559,1,0,0:0:0:0:
256,192,125832,1,2,0:0:0:0:
256,192,125968,1,0,0:0:0:0:
256,192,126105,1,2,0:0:0:0:
256,192,126173,1,2,0:0:0:0:
256,192,126241,1,2,0:0:0:0:
256,192,126377,1,2,0:0:0:0:
256,192,126650,1,2,0:0:0:0:
256,192,126923,1,0,0:0:0:0:
256,192,127059,1,2,0:0:0:0:
256,192,127195,1,2,0:0:0:0:
256,192,127332,1,2,0:0:0:0:
256,192,127468,1,0,0:0:0:0:
256,192,127741,1,0,0:0:0:0:
256,192,127877,1,0,0:0:0:0:
256,192,128014,1,2,0:0:0:0:
256,192,128150,1,2,0:0:0:0:
256,192,128218,1,2,0:0:0:0:
256,192,128286,1,2,0:0:0:0:
256,192,128423,1,0,0:0:0:0:
256,192,128559,1,2,0:0:0:0:
256,192,128695,1,2,0:0:0:0:
256,192,128832,1,0,0:0:0:0:
256,192,129105,1,0,0:0:0:0:
256,192,129241,1,2,0:0:0:0:
256,192,129377,1,0,0:0:0:0:
256,192,129514,1,2,0:0:0:0:
256,192,129582,1,2,0:0:0:0:
256,192,129650,1,2,0:0:0:0:
256,192,129786,1,2,0:0:0:0:
256,192,129923,1,0,0:0:0:0:
256,192,130195,1,2,0:0:0:0:
256,192,130332,1,0,0:0:0:0:
256,192,130468,1,2,0:0:0:0:
256,192,130605,1,0,0:0:0:0:
256,192,130741,1,2,0:0:0:0:
256,192,131014,5,4,0:0:0:0:
256,192,131286,1,2,0:0:0:0:
256,192,131695,1,0,0:0:0:0:
256,192,131832,1,2,0:0:0:0:
256,192,132105,1,0,0:0:0:0:
256,192,132241,1,0,0:0:0:0:
256,192,132377,1,2,0:0:0:0:
256,192,132514,1,2,0:0:0:0:
256,192,132650,1,0,0:0:0:0:
256,192,132718,1,0,0:0:0:0:
256,192,132786,1,0,0:0:0:0:
256,192,132923,1,0,0:0:0:0:
256,192,133059,1,2,0:0:0:0:
256,192,133195,1,0,0:0:0:0:
256,192,133468,1,0,0:0:0:0:
256,192,133605,1,0,0:0:0:0:
256,192,133741,1,2,0:0:0:0:
256,192,133877,1,2,0:0:0:0:
256,192,134014,1,0,0:0:0:0:
256,192,134286,1,0,0:0:0:0:
256,192,134423,1,0,0:0:0:0:
256,192,134559,1,2,0:0:0:0:
256,192,134695,1,2,0:0:0:0:
256,192,134832,1,0,0:0:0:0:
256,192,134968,1,2,0:0:0:0:
256,192,135105,1,2,0:0:0:0:
256,192,135173,1,2,0:0:0:0:
256,192,135241,1,2,0:0:0:0:
256,192,135377,1,0,0:0:0:0:
256,192,135582,1,0,0:0:0:0:
256,192,135923,1,0,0:0:0:0:
256,192,135991,1,0,0:0:0:0:
256,192,136059,1,0,0:0:0:0:
256,192,136195,1,2,0:0:0:0:
256,192,136468,1,0,0:0:0:0:
256,192,136741,1,0,0:0:0:0:
256,192,137014,1,2,0:0:0:0:
256,192,137286,1,2,0:0:0:0:
256,192,137423,1,2,0:0:0:0:
256,192,137559,1,4,0:0:0:0:
256,192,137695,1,2,0:0:0:0:
256,192,138105,1,0,0:0:0:0:
256,192,138173,1,0,0:0:0:0:
256,192,138241,1,0,0:0:0:0:
256,192,138377,1,6,0:0:0:0:
256,192,138650,1,0,0:0:0:0:
256,192,138923,1,2,0:0:0:0:
256,192,139059,1,2,0:0:0:0:
256,192,139195,1,0,0:0:0:0:
256,192,139332,1,2,0:0:0:0:
256,192,139400,1,2,0:0:0:0:
256,192,139468,1,2,0:0:0:0:
256,192,139741,1,0,0:0:0:0:
256,192,139818,1,0,0:0:0:0:
256,192,139896,1,0,0:0:0:0:
256,192,140052,1,0,0:0:0:0:
256,192,140130,1,0,0:0:0:0:
256,192,140208,1,0,0:0:0:0:
256,192,140364,1,2,0:0:0:0:
256,192,140967,1,0,0:0:0:0:
256,192,141045,1,0,0:0:0:0:
256,192,141123,1,0,0:0:0:0:
256,192,141279,1,0,0:0:0:0:
256,192,141435,1,2,0:0:0:0:
256,192,141922,1,0,0:0:0:0:
256,192,141999,1,0,0:0:0:0:
256,192,142077,1,0,0:0:0:0:
256,192,142233,1,0,0:0:0:0:
256,192,142311,1,0,0:0:0:0:
256,192,142389,1,0,0:0:0:0:
256,192,142545,1,2,0:0:0:0:
256,192,143150,1,0,0:0:0:0:
256,192,143228,1,0,0:0:0:0:
256,192,143306,1,0,0:0:0:0:
256,192,143462,1,0,0:0:0:0:
256,192,143618,1,2,0:0:0:0:
256,192,144104,1,0,0:0:0:0:
256,192,144181,1,0,0:0:0:0:
256,192,144259,1,0,0:0:0:0:
256,192,144415,1,0,0:0:0:0:
256,192,144493,1,0,0:0:0:0:
256,192,144571,1,0,0:0:0:0:
256,192,144727,1,2,0:0:0:0:
256,192,145332,1,0,0:0:0:0:
256,192,145410,1,0,0:0:0:0:
256,192,145488,1,0,0:0:0:0:
256,192,145644,1,0,0:0:0:0:
256,192,145800,1,2,0:0:0:0:
256,192,146286,1,0,0:0:0:0:
256,192,146363,1,0,0:0:0:0:
256,192,146441,1,0,0:0:0:0:
256,192,146597,1,0,0:0:0:0:
256,192,146675,1,0,0:0:0:0:
256,192,146753,1,0,0:0:0:0:
256,192,146909,1,2,0:0:0:0:
256,192,147514,1,0,0:0:0:0:
256,192,147592,1,0,0:0:0:0:
256,192,147670,1,0,0:0:0:0:
256,192,147826,1,0,0:0:0:0:
256,192,147982,1,2,0:0:0:0:
256,192,148468,1,0,0:0:0:0:
256,192,148536,1,0,0:0:0:0:
256,192,148605,1,0,0:0:0:0:
256,192,148741,1,2,0:0:0:0:
256,192,148877,1,0,0:0:0:0:
256,192,149082,1,2,0:0:0:0:
256,192,149696,1,0,0:0:0:0:
256,192,149764,1,0,0:0:0:0:
256,192,149832,1,0,0:0:0:0:
256,192,149968,1,0,0:0:0:0:
256,192,150105,1,2,0:0:0:0:
256,192,150650,1,0,0:0:0:0:
256,192,150718,1,0,0:0:0:0:
256,192,150786,1,0,0:0:0:0:
256,192,150923,1,2,0:0:0:0:
256,192,151059,1,0,0:0:0:0:
256,192,151264,1,2,0:0:0:0:
256,192,151877,1,0,0:0:0:0:
256,192,151945,1,0,0:0:0:0:
256,192,152014,1,0,0:0:0:0:
256,192,152150,1,2,0:0:0:0:
256,192,152286,1,0,0:0:0:0:
256,192,152832,1,0,0:0:0:0:
256,192,152900,1,0,0:0:0:0:
256,192,152968,1,0,0:0:0:0:
256,192,153105,1,0,0:0:0:0:
256,192,153173,1,0,0:0:0:0:
256,192,153241,1,0,0:0:0:0:
256,192,153445,1,2,0:0:0:0:
256,192,153650,1,2,0:0:0:0:
256,192,155014,1,0,0:0:0:0:
256,192,155082,1,0,0:0:0:0:
256,192,155150,1,0,0:0:0:0:
256,192,155286,1,2,0:0:0:0:
256,192,155423,1,0,0:0:0:0:
256,192,155627,1,2,0:0:0:0:
256,192,155832,1,6,0:0:0:0:
256,192,156241,1,0,0:0:0:0:
256,192,156309,1,0,0:0:0:0:
256,192,156377,1,0,0:0:0:0:
256,192,156514,1,0,0:0:0:0:
256,192,156650,1,2,0:0:0:0:
256,192,156923,1,2,0:0:0:0:
256,192,156991,1,2,0:0:0:0:
256,192,157059,1,2,0:0:0:0:
256,192,157195,1,0,0:0:0:0:
256,192,157468,1,2,0:0:0:0:
256,192,157741,1,0,0:0:0:0:
256,192,158014,1,2,0:0:0:0:
256,192,158286,1,0,0:0:0:0:
256,192,158559,1,2,0:0:0:0:
256,192,158832,1,0,0:0:0:0:
256,192,159105,1,2,0:0:0:0:
256,192,159377,1,0,0:0:0:0:
256,192,159650,1,2,0:0:0:0:
256,192,159923,1,0,0:0:0:0:
256,192,160195,1,2,0:0:0:0:
256,192,160468,1,0,0:0:0:0:
256,192,160741,1,2,0:0:0:0:
256,192,161014,1,0,0:0:0:0:
256,192,161286,1,2,0:0:0:0:
256,192,161559,1,0,0:0:0:0:
256,192,161832,1,2,0:0:0:0:
256,192,162105,1,0,0:0:0:0:
256,192,162377,1,2,0:0:0:0:
256,192,162650,1,0,0:0:0:0:
256,192,162923,1,2,0:0:0:0:
256,192,163195,1,0,0:0:0:0:
256,192,163468,1,2,0:0:0:0:
256,192,163741,1,0,0:0:0:0:
256,192,164014,1,2,0:0:0:0:
256,192,164286,1,0,0:0:0:0:
256,192,164559,1,2,0:0:0:0:
256,192,164832,1,0,0:0:0:0:
256,192,165105,1,2,0:0:0:0:
256,192,165377,1,0,0:0:0:0:
256,192,165650,1,2,0:0:0:0:
256,192,165923,1,4,0:0:0:0:
256,192,166195,1,2,0:0:0:0:
256,192,166332,1,2,0:0:0:0:
256,192,166400,1,2,0:0:0:0:
256,192,166468,1,2,0:0:0:0:
256,192,166605,1,0,0:0:0:0:
256,192,166741,1,2,0:0:0:0:
256,192,167014,1,0,0:0:0:0:
256,192,167150,1,2,0:0:0:0:
256,192,167423,1,0,0:0:0:0:
256,192,167559,1,2,0:0:0:0:
256,192,167627,1,2,0:0:0:0:
256,192,167695,1,2,0:0:0:0:
256,192,167832,1,0,0:0:0:0:
256,192,167968,1,2,0:0:0:0:
256,192,168105,1,0,0:0:0:0:
256,192,168241,1,2,0:0:0:0:
256,192,168377,1,2,0:0:0:0:
256,192,168514,1,0,0:0:0:0:
256,192,168650,1,2,0:0:0:0:
256,192,168718,1,2,0:0:0:0:
256,192,168786,1,2,0:0:0:0:
256,192,168923,1,0,0:0:0:0:
256,192,169195,1,0,0:0:0:0:
256,192,169264,1,0,0:0:0:0:
256,192,169332,1,0,0:0:0:0:
256,192,169468,1,2,0:0:0:0:
256,192,169741,1,2,0:0:0:0:
256,192,169809,1,2,0:0:0:0:
256,192,169877,1,2,0:0:0:0:
256,192,170014,1,0,0:0:0:0:
256,192,170150,1,0,0:0:0:0:
256,192,170286,1,0,0:0:0:0:
256,192,170559,1,2,0:0:0:0:
256,192,170627,1,2,0:0:0:0:
256,192,170695,1,2,0:0:0:0:
256,192,170832,1,0,0:0:0:0:
256,192,170968,1,0,0:0:0:0:
256,192,171105,1,2,0:0:0:0:
256,192,171241,1,2,0:0:0:0:
256,192,171365,1,0,0:0:0:0:
256,192,171637,1,2,0:0:0:0:
256,192,171774,1,2,0:0:0:0:
256,192,171910,1,0,0:0:0:0:
256,192,171978,1,0,0:0:0:0:
256,192,172046,1,0,0:0:0:0:
256,192,172183,1,2,0:0:0:0:
256,192,172319,1,2,0:0:0:0:
256,192,172438,1,0,0:0:0:0:
256,192,172710,1,2,0:0:0:0:
256,192,172778,1,2,0:0:0:0:
256,192,172847,1,2,0:0:0:0:
256,192,172983,1,0,0:0:0:0:
256,192,173051,1,0,0:0:0:0:
256,192,173119,1,0,0:0:0:0:
256,192,173256,1,2,0:0:0:0:
256,192,173392,1,2,0:0:0:0:
256,192,173481,1,0,0:0:0:0:
256,192,173890,1,2,0:0:0:0:
256,192,174026,1,0,0:0:0:0:
256,192,174299,1,2,0:0:0:0:
256,192,174571,1,0,0:0:0:0:
256,192,174708,1,2,0:0:0:0:
256,192,174981,1,0,0:0:0:0:
256,192,175117,1,2,0:0:0:0:
256,192,175390,1,0,0:0:0:0:
256,192,175526,1,0,0:0:0:0:
256,192,175662,1,2,0:0:0:0:
256,192,175799,1,2,0:0:0:0:
256,192,175935,1,0,0:0:0:0:
256,192,176071,1,2,0:0:0:0:
256,192,176208,1,2,0:0:0:0:
256,192,176344,1,2,0:0:0:0:
256,192,176481,1,2,0:0:0:0:
256,192,176617,1,0,0:0:0:0:
256,192,176685,1,0,0:0:0:0:
256,192,176753,1,0,0:0:0:0:
256,192,177026,1,2,0:0:0:0:
256,192,177162,1,2,0:0:0:0:
256,192,177299,1,0,0:0:0:0:
256,192,177571,1,2,0:0:0:0:
256,192,177708,1,2,0:0:0:0:
256,192,177776,1,2,0:0:0:0:
256,192,177844,1,2,0:0:0:0:
256,192,177981,1,0,0:0:0:0:
256,192,178117,1,2,0:0:0:0:
256,192,178390,1,2,0:0:0:0:
256,192,178662,1,4,0:0:0:0:
256,192,178935,1,4,0:0:0:0:
256,192,179140,1,4,0:0:0:0:
256,192,179344,1,4,0:0:0:0:
256,192,179549,1,4,0:0:0:0:
256,192,179753,1,2,0:0:0:0:
256,192,179821,1,2,0:0:0:0:
256,192,179890,1,2,0:0:0:0:
256,192,180026,1,4,0:0:0:0:
