osu file format v14

[General]
AudioFilename: Lawn Wake II.mp3
AudioLeadIn: 0
PreviewTime: 35014
Countdown: 0
SampleSet: Normal
StackLeniency: 0.7
Mode: 1
LetterboxInBreaks: 0
WidescreenStoryboard: 1

[Editor]
Bookmarks: 8802,17529,21908,26266,30635,34994,41544,43726,52453,61180,69908,74271,78635,85180,87362,96090,104817,113544,122271,139726,144090,157180,165908
DistanceSpacing: 1
BeatDivisor: 1
GridSize: 32
TimelineZoom: 0.8000019

[Metadata]
Title:Lawn Wake II
TitleUnicode:Lawn Wake II
Artist:The Flashbulb
ArtistUnicode:The Flashbulb
Creator:tasuke912
Version:Kantan
Source:osu!
Tags:Greenshell featured artist electronic instrumental fa breakcore red extensions of me benn jordan
BeatmapID:2026069
BeatmapSetID:364724

[Difficulty]
HPDrainRate:7
CircleSize:2
OverallDifficulty:3
ApproachRate:5
SliderMultiplier:1.4
SliderTickRate:1

[Events]
//Background and Video events
0,0,"bg.jpg",0,30
//Break Periods
//Storyboard Layer 0 (Background)
//Storyboard Layer 1 (Fail)
//Storyboard Layer 2 (Pass)
//Storyboard Layer 3 (Foreground)
//Storyboard Layer 4 (Overlay)
//Storyboard Sound Samples

[TimingPoints]
105,272.727272727273,4,1,0,50,1,0
173,-100,4,1,0,50,0,0
17559,-100,4,1,0,55,0,0
35014,-100,4,1,0,65,0,1
87377,-100,4,1,0,55,0,0
96105,-100,4,1,0,60,0,0
104832,-100,4,1,0,65,0,1
113559,-100,4,1,0,55,0,0
122286,-100,4,1,0,60,0,0
131014,-100,4,1,0,65,0,1
157195,-100,4,1,0,65,0,0
165923,-100,4,1,0,65,0,1
171365,272.727272727273,4,1,0,65,1,1
172438,272.727272727273,4,1,0,65,1,1
173481,272.727272727273,4,1,0,65,1,1
180026,-100,4,1,0,65,0,0

[HitObjects]
256,192,105,5,4,0:0:0:0:
256,192,4468,1,0,0:0:0:0:
256,192,5014,1,2,0:0:0:0:
256,192,5559,1,0,0:0:0:0:
256,192,5832,1,0,0:0:0:0:
256,192,6105,1,2,0:0:0:0:
256,192,6650,1,0,0:0:0:0:
256,192,7195,1,2,0:0:0:0:
256,192,7741,1,2,0:0:0:0:
256,192,8014,1,0,0:0:0:0:
256,192,8286,1,2,0:0:0:0:
256,192,8832,1,4,0:0:0:0:
256,192,9377,1,0,0:0:0:0:
256,192,9650,1,2,0:0:0:0:
256,192,9923,1,0,0:0:0:0:
256,192,10468,1,2,0:0:0:0:
256,192,11014,1,0,0:0:0:0:
256,192,11559,1,2,0:0:0:0:
256,192,11832,1,2,0:0:0:0:
256,192,12105,1,0,0:0:0:0:
256,192,12650,1,2,0:0:0:0:
256,192,13195,1,0,0:0:0:0:
256,192,13741,1,2,0:0:0:0:
256,192,14286,1,0,0:0:0:0:
256,192,14559,1,0,0:0:0:0:
256,192,14832,1,2,0:0:0:0:
256,192,15377,1,0,0:0:0:0:
256,192,15923,1,2,0:0:0:0:
256,192,16195,1,0,0:0:0:0:
256,192,16468,1,2,0:0:0:0:
256,192,17559,1,4,0:0:0:0:
256,192,18105,1,2,0:0:0:0:
256,192,18650,1,0,0:0:0:0:
256,192,18923,1,0,0:0:0:0:
256,192,19195,1,2,0:0:0:0:
256,192,19741,1,0,0:0:0:0:
256,192,20286,1,2,0:0:0:0:
256,192,20832,1,2,0:0:0:0:
256,192,21105,1,0,0:0:0:0:
256,192,21377,1,2,0:0:0:0:
256,192,21923,1,0,0:0:0:0:
256,192,22468,1,2,0:0:0:0:
256,192,23014,1,0,0:0:0:0:
256,192,23286,1,0,0:0:0:0:
256,192,23559,1,2,0:0:0:0:
256,192,24105,1,0,0:0:0:0:
256,192,24650,1,2,0:0:0:0:
256,192,25195,1,0,0:0:0:0:
256,192,26286,5,4,0:0:0:0:
256,192,26832,1,2,0:0:0:0:
256,192,27377,1,0,0:0:0:0:
256,192,27650,1,2,0:0:0:0:
256,192,27922,1,2,0:0:0:0:
256,192,28468,1,0,0:0:0:0:
256,192,29013,1,2,0:0:0:0:
256,192,29559,1,2,0:0:0:0:
256,192,29832,1,0,0:0:0:0:
256,192,30104,1,2,0:0:0:0:
256,192,30650,1,0,0:0:0:0:
256,192,31195,1,2,0:0:0:0:
256,192,31741,1,0,0:0:0:0:
256,192,32013,1,2,0:0:0:0:
256,192,32286,1,2,0:0:0:0:
256,192,32832,1,0,0:0:0:0:
256,192,33377,1,2,0:0:0:0:
256,192,33922,1,0,0:0:0:0:
256,192,35014,1,4,0:0:0:0:
256,192,35559,1,0,0:0:0:0:
256,192,35832,1,2,0:0:0:0:
256,192,36105,1,0,0:0:0:0:
256,192,36650,1,2,0:0:0:0:
256,192,37195,1,0,0:0:0:0:
256,192,37468,1,2,0:0:0:0:
256,192,38014,1,2,0:0:0:0:
256,192,38286,1,0,0:0:0:0:
256,192,38832,1,2,0:0:0:0:
256,192,39105,1,2,0:0:0:0:
256,192,39377,1,0,0:0:0:0:
256,192,39923,1,2,0:0:0:0:
256,192,40468,1,0,0:0:0:0:
256,192,40741,1,0,0:0:0:0:
256,192,41014,1,2,0:0:0:0:
256,192,41559,1,0,0:0:0:0:
256,192,42105,1,2,0:0:0:0:
256,192,42377,1,0,0:0:0:0:
256,192,42650,1,2,0:0:0:0:
256,192,43741,1,4,0:0:0:0:
256,192,44286,1,2,0:0:0:0:
256,192,44832,1,2,0:0:0:0:
256,192,45377,1,0,0:0:0:0:
256,192,45650,1,2,0:0:0:0:
256,192,45923,1,0,0:0:0:0:
256,192,46468,1,2,0:0:0:0:
256,192,47014,1,2,0:0:0:0:
256,192,47286,1,2,0:0:0:0:
256,192,47559,1,0,0:0:0:0:
256,192,48105,1,0,0:0:0:0:
256,192,48650,1,0,0:0:0:0:
256,192,48923,1,2,0:0:0:0:
256,192,49195,1,0,0:0:0:0:
256,192,49741,1,2,0:0:0:0:
256,192,50286,1,0,0:0:0:0:
256,192,50832,1,2,0:0:0:0:
256,192,51105,1,0,0:0:0:0:
256,192,51377,1,2,0:0:0:0:
256,192,52468,1,4,0:0:0:0:
256,192,52741,1,2,0:0:0:0:
256,192,53286,1,2,0:0:0:0:
256,192,53559,1,0,0:0:0:0:
256,192,54105,1,2,0:0:0:0:
256,192,54650,1,0,0:0:0:0:
256,192,55195,1,2,0:0:0:0:
256,192,55468,1,2,0:0:0:0:
256,192,55741,1,0,0:0:0:0:
256,192,56286,1,2,0:0:0:0:
256,192,56832,1,2,0:0:0:0:
256,192,57105,1,2,0:0:0:0:
256,192,57377,1,0,0:0:0:0:
256,192,57650,1,2,0:0:0:0:
256,192,57923,1,2,0:0:0:0:
256,192,58468,1,2,0:0:0:0:
256,192,59014,12,0,60650,0:0:0:0:
256,192,61195,5,4,0:0:0:0:
256,192,61741,1,2,0:0:0:0:
256,192,62286,1,0,0:0:0:0:
256,192,62559,1,2,0:0:0:0:
256,192,63105,1,2,0:0:0:0:
256,192,63377,1,0,0:0:0:0:
256,192,63923,1,2,0:0:0:0:
256,192,64468,1,0,0:0:0:0:
256,192,64741,1,2,0:0:0:0:
256,192,65014,1,2,0:0:0:0:
256,192,65559,1,0,0:0:0:0:
256,192,66105,1,2,0:0:0:0:
256,192,66377,1,2,0:0:0:0:
256,192,66650,1,0,0:0:0:0:
256,192,67195,1,2,0:0:0:0:
256,192,67741,1,0,0:0:0:0:
256,192,68286,1,2,0:0:0:0:
256,192,68559,1,0,0:0:0:0:
256,192,68832,1,2,0:0:0:0:
256,192,69923,1,4,0:0:0:0:
256,192,70468,1,2,0:0:0:0:
256,192,70741,1,0,0:0:0:0:
256,192,71014,1,0,0:0:0:0:
256,192,71559,1,2,0:0:0:0:
256,192,71832,1,2,0:0:0:0:
256,192,72105,1,0,0:0:0:0:
256,192,72650,1,2,0:0:0:0:
256,192,73195,1,0,0:0:0:0:
256,192,73468,1,0,0:0:0:0:
256,192,73741,1,2,0:0:0:0:
256,192,74286,1,0,0:0:0:0:
256,192,74832,1,0,0:0:0:0:
256,192,75105,1,2,0:0:0:0:
256,192,75377,1,0,0:0:0:0:
256,192,75923,1,2,0:0:0:0:
256,192,76195,1,2,0:0:0:0:
256,192,76468,1,0,0:0:0:0:
256,192,77014,1,2,0:0:0:0:
256,192,77559,1,0,0:0:0:0:
256,192,78650,1,4,0:0:0:0:
256,192,79195,1,0,0:0:0:0:
256,192,79468,1,2,0:0:0:0:
256,192,79741,1,0,0:0:0:0:
256,192,80286,1,2,0:0:0:0:
256,192,80559,1,2,0:0:0:0:
256,192,80832,1,0,0:0:0:0:
256,192,81377,1,2,0:0:0:0:
256,192,81923,1,0,0:0:0:0:
256,192,82468,1,2,0:0:0:0:
256,192,82741,1,2,0:0:0:0:
256,192,83014,1,0,0:0:0:0:
256,192,83559,1,2,0:0:0:0:
256,192,84105,1,0,0:0:0:0:
256,192,84377,1,0,0:0:0:0:
256,192,84650,1,2,0:0:0:0:
256,192,84923,1,2,0:0:0:0:
256,192,85195,1,0,0:0:0:0:
256,192,85741,1,2,0:0:0:0:
256,192,86014,1,0,0:0:0:0:
256,192,86286,1,2,0:0:0:0:
256,192,86832,1,2,0:0:0:0:
256,192,87105,1,2,0:0:0:0:
256,192,87377,5,4,0:0:0:0:
256,192,88468,1,0,0:0:0:0:
256,192,89014,1,0,0:0:0:0:
256,192,89559,1,0,0:0:0:0:
256,192,90650,1,0,0:0:0:0:
256,192,91195,1,2,0:0:0:0:
256,192,91741,1,4,0:0:0:0:
256,192,92832,1,0,0:0:0:0:
256,192,93241,1,0,0:0:0:0:
256,192,93650,1,0,0:0:0:0:
256,192,93923,1,0,0:0:0:0:
256,192,94468,1,2,0:0:0:0:
256,192,95014,1,0,0:0:0:0:
256,192,95559,1,0,0:0:0:0:
256,192,95832,1,2,0:0:0:0:
256,192,96105,1,4,0:0:0:0:
256,192,96377,1,4,0:0:0:0:
256,192,97195,1,0,0:0:0:0:
256,192,97741,1,2,0:0:0:0:
256,192,98286,1,0,0:0:0:0:
256,192,98832,1,0,0:0:0:0:
256,192,99377,1,0,0:0:0:0:
256,192,99650,1,0,0:0:0:0:
256,192,99923,1,0,0:0:0:0:
256,192,100468,5,4,0:0:0:0:
256,192,101014,1,2,0:0:0:0:
256,192,101559,1,2,0:0:0:0:
256,192,101832,1,2,0:0:0:0:
256,192,102105,1,2,0:0:0:0:
256,192,102650,1,0,0:0:0:0:
256,192,103195,1,2,0:0:0:0:
256,192,103741,1,0,0:0:0:0:
256,192,104832,1,4,0:0:0:0:
256,192,105241,1,0,0:0:0:0:
256,192,105650,1,0,0:0:0:0:
256,192,105923,1,0,0:0:0:0:
256,192,106468,1,2,0:0:0:0:
256,192,107014,1,0,0:0:0:0:
256,192,107559,1,2,0:0:0:0:
256,192,108105,1,0,0:0:0:0:
256,192,108377,1,0,0:0:0:0:
256,192,108650,1,2,0:0:0:0:
256,192,109195,1,0,0:0:0:0:
256,192,109741,1,2,0:0:0:0:
256,192,110014,1,0,0:0:0:0:
256,192,110286,1,2,0:0:0:0:
256,192,110832,1,2,0:0:0:0:
256,192,111105,1,2,0:0:0:0:
256,192,111377,1,0,0:0:0:0:
256,192,111923,1,2,0:0:0:0:
256,192,112468,1,0,0:0:0:0:
256,192,113559,5,2,0:0:0:0:
256,192,114650,1,2,0:0:0:0:
256,192,115741,1,2,0:0:0:0:
256,192,116832,1,2,0:0:0:0:
256,192,117105,1,2,0:0:0:0:
256,192,117377,1,2,0:0:0:0:
256,192,117923,1,2,0:0:0:0:
256,192,119014,1,2,0:0:0:0:
256,192,120105,1,2,0:0:0:0:
256,192,121195,1,2,0:0:0:0:
256,192,121741,1,2,0:0:0:0:
256,192,122014,1,2,0:0:0:0:
256,192,122286,1,4,0:0:0:0:
256,192,122832,1,0,0:0:0:0:
256,192,123105,1,2,0:0:0:0:
256,192,123377,1,0,0:0:0:0:
256,192,123923,1,2,0:0:0:0:
256,192,124468,1,0,0:0:0:0:
256,192,125014,1,2,0:0:0:0:
256,192,125286,1,0,0:0:0:0:
256,192,125559,1,2,0:0:0:0:
256,192,126105,1,2,0:0:0:0:
256,192,126650,1,0,0:0:0:0:
256,192,127195,1,2,0:0:0:0:
256,192,127741,1,0,0:0:0:0:
256,192,128014,1,0,0:0:0:0:
256,192,128286,1,2,0:0:0:0:
256,192,128832,1,0,0:0:0:0:
256,192,129377,1,2,0:0:0:0:
256,192,129923,1,2,0:0:0:0:
256,192,131014,5,4,0:0:0:0:
256,192,131559,1,0,0:0:0:0:
256,192,131832,1,2,0:0:0:0:
256,192,132105,1,0,0:0:0:0:
256,192,132650,1,2,0:0:0:0:
256,192,133195,1,0,0:0:0:0:
256,192,133741,1,2,0:0:0:0:
256,192,134014,1,0,0:0:0:0:
256,192,134286,1,2,0:0:0:0:
256,192,134832,1,2,0:0:0:0:
256,192,135105,1,2,0:0:0:0:
256,192,135377,1,0,0:0:0:0:
256,192,135923,1,0,0:0:0:0:
256,192,136195,1,2,0:0:0:0:
256,192,136468,1,0,0:0:0:0:
256,192,137014,1,2,0:0:0:0:
256,192,137559,1,4,0:0:0:0:
256,192,138377,1,2,0:0:0:0:
256,192,138650,1,0,0:0:0:0:
256,192,139195,1,2,0:0:0:0:
256,192,139741,1,0,0:0:0:0:
256,192,140052,1,0,0:0:0:0:
256,192,140364,1,2,0:0:0:0:
256,192,140968,1,0,0:0:0:0:
256,192,141435,1,2,0:0:0:0:
256,192,141922,1,0,0:0:0:0:
256,192,142234,1,0,0:0:0:0:
256,192,142546,1,2,0:0:0:0:
256,192,143150,1,0,0:0:0:0:
256,192,143617,1,2,0:0:0:0:
256,192,144104,1,0,0:0:0:0:
256,192,144416,1,0,0:0:0:0:
256,192,144728,1,2,0:0:0:0:
256,192,145331,1,0,0:0:0:0:
256,192,145799,1,2,0:0:0:0:
256,192,146286,1,0,0:0:0:0:
256,192,146598,1,0,0:0:0:0:
256,192,146909,1,2,0:0:0:0:
256,192,147513,1,2,0:0:0:0:
256,192,148468,1,0,0:0:0:0:
256,192,149082,1,2,0:0:0:0:
256,192,149695,1,0,0:0:0:0:
256,192,150104,1,2,0:0:0:0:
256,192,150650,1,0,0:0:0:0:
256,192,151264,1,2,0:0:0:0:
256,192,151877,1,0,0:0:0:0:
256,192,152286,1,2,0:0:0:0:
256,192,152832,1,0,0:0:0:0:
256,192,153105,1,0,0:0:0:0:
256,192,153445,1,2,0:0:0:0:
256,192,155014,1,0,0:0:0:0:
256,192,155286,1,2,0:0:0:0:
256,192,155627,1,2,0:0:0:0:
256,192,156241,1,0,0:0:0:0:
256,192,156650,1,6,0:0:0:0:
256,192,157195,5,0,0:0:0:0:
256,192,157468,1,2,0:0:0:0:
256,192,158014,1,2,0:0:0:0:
256,192,158559,1,2,0:0:0:0:
256,192,159105,1,2,0:0:0:0:
256,192,159650,1,2,0:0:0:0:
256,192,160195,1,2,0:0:0:0:
256,192,160741,1,2,0:0:0:0:
256,192,161286,1,2,0:0:0:0:
256,192,161832,1,2,0:0:0:0:
256,192,162377,1,2,0:0:0:0:
256,192,162923,1,2,0:0:0:0:
256,192,163468,1,2,0:0:0:0:
256,192,164014,1,2,0:0:0:0:
256,192,164559,1,2,0:0:0:0:
256,192,165105,1,2,0:0:0:0:
256,192,165650,1,2,0:0:0:0:
256,192,165923,1,4,0:0:0:0:
256,192,166468,1,0,0:0:0:0:
256,192,166741,1,2,0:0:0:0:
256,192,167014,1,0,0:0:0:0:
256,192,167559,1,2,0:0:0:0:
256,192,167832,1,2,0:0:0:0:
256,192,168105,1,0,0:0:0:0:
256,192,168650,1,2,0:0:0:0:
256,192,169195,1,0,0:0:0:0:
256,192,169468,1,0,0:0:0:0:
256,192,169741,1,2,0:0:0:0:
256,192,170014,1,2,0:0:0:0:
256,192,170286,1,0,0:0:0:0:
256,192,171105,1,2,0:0:0:0:
256,192,171365,1,0,0:0:0:0:
256,192,172183,1,2,0:0:0:0:
256,192,172438,1,0,0:0:0:0:
256,192,173256,1,2,0:0:0:0:
256,192,173481,1,0,0:0:0:0:
256,192,174299,1,2,0:0:0:0:
256,192,174708,1,4,0:0:0:0:
256,192,175117,1,4,0:0:0:0:
256,192,175390,1,0,0:0:0:0:
256,192,175935,1,2,0:0:0:0:
256,192,176481,1,2,0:0:0:0:
256,192,176753,1,2,0:0:0:0:
256,192,177026,1,0,0:0:0:0:
256,192,177571,1,2,0:0:0:0:
256,192,178117,1,2,0:0:0:0:
256,192,178662,1,4,0:0:0:0:
256,192,178935,1,0,0:0:0:0:
256,192,179140,1,0,0:0:0:0:
256,192,179344,1,0,0:0:0:0:
256,192,179549,1,0,0:0:0:0:
256,192,180026,1,6,0:0:0:0:
