osu file format v14

[General]
AudioFilename: audio.mp3
AudioLeadIn: 0
PreviewTime: 140598
Countdown: 1
SampleSet: Soft
StackLeniency: 0.7
Mode: 0
LetterboxInBreaks: 0
WidescreenStoryboard: 0

[Editor]
DistanceSpacing: 2
BeatDivisor: 8
GridSize: 16
TimelineZoom: 1.7

[Metadata]
Title:Lawn Wake I
TitleUnicode:Lawn Wake I
Artist:The Flashbulb
ArtistUnicode:The Flashbulb
Creator:Pata-Kun
Version:Handmower
Source:
Tags:The Flashbulb Lawn Wake I Red Extensions Of Me
BeatmapID:1162657
BeatmapSetID:549016

[Difficulty]
HPDrainRate:7
CircleSize:5
OverallDifficulty:8
ApproachRate:9.5
SliderMultiplier:1.4
SliderTickRate:1

[Events]
//Background and Video events
0,0,"Lawn Wake I - bg.jpg",0,0
//Break Periods
//Storyboard Layer 0 (Background)
//Storyboard Layer 1 (Fail)
//Storyboard Layer 2 (Pass)
//Storyboard Layer 3 (Foreground)
//Storyboard Sound Samples

[TimingPoints]
15575,279.06976744186,4,2,0,66,1,0

[Colours]
Combo1 : 234,14,14
Combo2 : 0,0,0
Combo3 : 32,2,2
Combo4 : 96,6,6

[HitObjects]
256,32,5284,6,0,B|80:32|48:64|80:96|432:96|464:128|432:160|80:160|48:192|80:224|432:224|464:256|432:288|80:288|48:320|80:352|256:352,2,805
256,192,8633,12,0,15470,0:0:0:0:
256,192,15574,6,0,L|320:160,1,70
368,96,15854,2,0,L|384:80,1,17.5
400,96,15923,2,0,L|416:112,1,17.5
400,128,15993,2,0,L|384:144,1,17.5
368,128,16063,2,0,L|352:112,1,17.5
336,112,16133,2,0,P|304:96|272:112,1,70
208,112,16412,1,0,0:0:0:0:
160,176,16551,1,0,0:0:0:0:
160,208,16621,1,0,0:0:0:0:
128,208,16691,2,0,P|112:240|128:272,1,70
160,320,16970,2,0,L|176:336,1,17.5
224,304,17109,2,0,L|304:256,1,87.5
384,336,17388,1,0,0:0:0:0:
448,288,17528,2,0,L|512:176,1,122.5
448,144,17807,6,0,L|384:112,1,70
336,176,18086,1,0,0:0:0:0:
304,208,18156,1,0,0:0:0:0:
336,240,18226,1,0,0:0:0:0:
304,272,18295,1,0,0:0:0:0:
272,304,18365,2,0,P|240:320|208:304,1,70
176,240,18644,1,0,0:0:0:0:
208,176,18784,1,0,0:0:0:0:
176,144,18854,1,0,0:0:0:0:
144,112,18923,1,0,0:0:0:0:
208,64,19063,1,0,0:0:0:0:
272,32,19202,1,0,0:0:0:0:
320,96,19342,2,0,L|384:64,1,70
448,112,19621,1,0,0:0:0:0:
400,176,19761,2,0,L|432:240,1,70
304,320,20040,6,0,L|240:288,1,70
176,320,20319,2,0,L|160:336,1,17.5
144,320,20388,2,0,L|160:304,1,17.5
144,288,20458,2,0,L|128:304,1,17.5
112,288,20528,2,0,L|128:272,1,17.5
112,256,20598,2,0,P|144:240|176:208,1,70
224,160,20877,1,0,0:0:0:0:
160,112,21016,1,0,0:0:0:0:
128,144,21086,1,0,0:0:0:0:
96,112,21156,2,0,P|96:80|128:48,1,70
192,32,21435,2,0,L|208:48,1,17.5
240,80,21574,2,0,L|304:48,1,70
416,144,21854,1,0,0:0:0:0:
368,208,21993,2,0,L|432:336,1,140
144,352,22412,6,0,P|112:352|64:336,1,70
0,272,22691,1,0,0:0:0:0:
368,256,22830,2,0,P|400:256|448:240,1,70
512,176,23109,1,0,0:0:0:0:
144,160,23249,2,0,P|112:160|64:144,1,70
0,80,23528,2,0,P|32:64|64:32,1,70
192,0,23807,2,0,P|224:32|256:32,1,70
176,160,24086,1,0,0:0:0:0:
320,160,24226,2,0,L|400:64,1,122.5
432,96,24505,6,0,L|464:160,1,70
432,304,24784,2,0,L|448:320,1,17.5
416,288,24854,2,0,L|400:272,1,17.5
432,288,24923,2,0,L|448:272,1,17.5
416,304,24993,2,0,L|400:320,1,17.5
368,336,25063,2,0,P|336:320|304:336,1,70
160,336,25342,1,0,0:0:0:0:
48,240,25481,1,0,0:0:0:0:
112,208,25551,1,0,0:0:0:0:
144,144,25621,2,0,L|176:80,1,70
304,128,25900,1,0,0:0:0:0:
432,48,26040,2,0,L|496:80,1,70
368,160,26319,1,0,0:0:0:0:
240,224,26458,2,0,L|128:288,1,122.5
160,304,26737,6,0,L|224:336,1,70
