osu file format v14

[General]
AudioFilename: audio.mp3
AudioLeadIn: 0
PreviewTime: 50680
Countdown: 0
SampleSet: None
StackLeniency: 0.2
Mode: 0
LetterboxInBreaks: 0
WidescreenStoryboard: 1

[Editor]
Bookmarks: 50680,84483,92934,105504,118286,152089,177441
DistanceSpacing: 1
BeatDivisor: 4
GridSize: 4
TimelineZoom: 1.6

[Metadata]
Title:Hymn To The Unobtainable
TitleUnicode:Hymn To The Unobtainable
Artist:The Flashbulb
ArtistUnicode:The Flashbulb
Creator:Mismagius
Version:Manul's Hard
Source:
Tags:nothing is real ambient benn jordan idm experimental yellowmanul
BeatmapID:1393112
BeatmapSetID:539042

[Difficulty]
HPDrainRate:4
CircleSize:4
OverallDifficulty:6.5
ApproachRate:8
SliderMultiplier:1.6
SliderTickRate:1

[Events]
//Background and Video events
0,0,"wallhaven-81840.jpg",0,0
//Break Periods
//Storyboard Layer 0 (Background)
//Storyboard Layer 1 (Fail)
//Storyboard Layer 2 (Pass)
//Storyboard Layer 3 (Foreground)
//Storyboard Sound Samples

[TimingPoints]
16878,422.535211267606,5,3,1,40,1,0
18990,-100,5,3,1,25,0,0
19096,-100,5,3,1,40,0,0
20892,-100,5,3,1,25,0,0
21525,-100,5,3,1,40,0,0
23216,-100,5,3,1,25,0,0
23638,-100,5,3,1,40,0,0
27441,-100,5,3,1,25,0,0
27547,-100,5,3,1,40,0,0
29342,-100,5,3,1,25,0,0
29554,-100,5,3,1,40,0,0
33779,-100,5,3,1,15,0,0
33990,-100,5,3,1,25,0,0
34624,-100,5,3,1,40,0,0
35892,-100,5,3,1,25,0,0
36314,-100,5,3,1,40,0,0
37793,-100,5,3,1,25,0,0
38004,-100,5,3,1,40,0,0
42547,-100,5,3,1,25,0,0
42758,-100,5,3,1,40,0,0
44342,-100,5,3,1,25,0,0
44659,-100,5,3,1,15,0,0
44976,-100,5,3,1,40,0,0
46244,-100,5,3,1,25,0,0
46455,-100,5,3,1,40,0,0
52793,-100,5,3,1,25,0,0
52899,-100,5,3,1,40,0,0
54694,-100,5,3,1,25,0,0
54906,-100,5,3,1,40,0,0
57018,-100,5,3,1,25,0,0
57124,-100,5,3,1,40,0,0
58920,-100,5,3,1,25,0,0
59765,-100,5,3,1,15,0,0
59976,-100,5,3,1,25,0,0
60187,-100,5,3,1,40,0,0
61244,-100,5,3,1,15,0,0
61455,-100,5,3,1,40,0,0
63145,-100,5,3,1,15,0,0
63356,-100,5,3,1,25,0,0
63990,-100,5,3,1,40,0,0
65469,-100,5,3,1,25,0,0
66103,-100,5,3,1,15,0,0
66525,-100,5,3,1,25,0,0
66737,-100,5,3,1,40,0,0
67582,-100,5,3,1,25,0,0
68004,-100,5,3,1,40,0,0
68427,-100,5,3,1,15,0,0
68638,-100,5,3,1,40,0,0
69694,-100,5,3,1,25,0,0
70328,-100,5,3,1,40,0,0
71596,-100,5,3,1,25,0,0
72441,-100,5,3,1,40,0,0
73920,-100,5,3,1,25,0,0
74342,-100,5,3,1,40,0,0
75821,-100,5,3,1,25,0,0
75927,-100,5,3,1,40,0,0
76032,-100,5,3,1,15,0,0
76244,-100,5,3,1,40,0,0
76666,-100,5,3,1,15,0,0
77089,-100,5,3,1,40,0,0
77300,-100,5,3,1,25,0,0
77511,-100,5,3,1,40,0,0
78145,-100,5,3,1,15,0,0
78779,-100,5,3,1,40,0,0
80258,-100,5,3,1,15,0,0
80680,-100,5,3,1,40,0,0
82370,-100,5,3,1,25,0,0
83004,-100,5,3,1,40,0,0
84483,-100,5,3,1,25,0,0
84589,-100,5,3,1,40,0,0
86596,-100,5,3,1,25,0,0
86701,-100,5,3,1,40,0,0
88497,-100,5,3,1,15,0,0
88708,-100,5,3,1,25,0,0
88814,-100,5,3,1,40,0,0
90821,-100,5,3,1,15,0,0
90927,-100,5,3,1,40,0,0
92723,-100,5,3,1,25,0,0
92828,-100,5,3,1,40,0,0
92934,-100,5,3,1,25,0,0
93039,-100,5,3,1,40,0,0
93568,-100,5,3,1,25,0,0
93779,-100,5,3,1,40,0,0
95047,-100,5,3,1,15,0,0
95152,-100,5,3,1,40,0,0
95680,-100,5,3,1,25,0,0
95892,-100,5,3,1,40,0,0
97159,-100,5,3,1,15,0,0
97265,-100,5,3,1,40,0,0
99272,-100,5,3,1,15,0,0
99378,-100,5,3,1,40,0,0
99906,-100,5,3,1,25,0,0
100117,-100,5,3,1,40,0,0
101385,-100,5,3,1,15,0,0
101596,-100,5,3,1,40,0,0
102230,-100,5,3,1,25,0,0
102335,-100,5,3,1,40,0,0
103497,-100,5,3,1,25,0,0
103603,-100,5,3,1,40,0,0
105610,-100,5,3,1,25,0,0
105716,-100,5,3,1,40,0,0
106772,-100,5,3,1,25,0,0
107300,-100,5,3,1,40,0,0
107723,-100,5,3,1,25,0,0
107828,-100,5,3,1,40,0,0
109624,-100,5,3,1,25,0,0
109730,-100,5,3,1,40,0,0
109835,-100,5,3,1,25,0,0
109941,-100,5,3,1,40,0,0
110469,-100,5,3,1,15,0,0
110680,-100,5,3,1,40,0,0
111948,-100,5,3,1,15,0,0
112265,-100,5,3,1,25,0,0
112582,-100,5,3,1,15,0,0
112793,-100,5,3,1,40,0,0
116173,-100,5,3,1,25,0,0
116385,-100,5,3,1,40,0,0
116490,-100,5,3,1,25,0,0
116701,-100,5,3,1,40,0,0
117230,-100,5,3,1,15,0,0
117441,-100,5,3,1,25,0,0
118180,-100,5,3,1,40,0,0
118286,-100,5,3,1,25,0,0
118603,-100,5,3,1,15,0,0
118814,-100,5,3,1,40,0,0
119554,-100,5,3,1,15,0,0
119659,-100,5,3,1,40,0,0
120399,-100,5,3,1,25,0,0
120504,-100,5,3,1,40,0,0
121666,-100,5,3,1,25,0,0
122511,-100,5,3,1,15,0,0
122617,-100,5,3,1,40,0,0
123779,-100,5,3,1,25,0,0
123885,-100,5,3,1,40,0,0
124201,-100,5,3,1,25,0,0
124413,-100,5,3,1,40,0,0
124624,-100,5,3,1,25,0,0
124941,-100,5,3,1,40,0,0
126525,-100,5,3,1,15,0,0
126737,-100,5,3,1,25,0,0
126842,-100,5,3,1,40,0,0
127370,-100,5,3,1,15,0,0
127793,-100,5,3,1,40,0,0
128004,-100,5,3,1,25,0,0
128427,-100,5,3,1,40,0,0
130117,-100,5,3,1,15,0,0
130328,-100,5,3,1,40,0,0
130539,-100,5,3,1,25,0,0
130751,-100,5,3,1,40,0,0
130962,-100,5,3,1,15,0,0
131068,-100,5,3,1,40,0,0
132230,-100,5,3,1,15,0,0
132652,-100,5,3,1,25,0,0
133180,-100,5,3,1,40,0,0
135504,-100,5,3,1,15,0,0
135716,-100,5,3,1,25,0,0
136455,-100,5,3,1,15,0,0
137089,-100,5,3,1,40,0,0
137300,-100,5,3,1,15,0,0
137406,-100,5,3,1,40,0,0
139413,-100,5,3,1,25,0,0
139518,-100,5,3,1,40,0,0
141103,-100,5,3,1,25,0,0
141525,-100,5,3,1,15,0,0
141631,-100,5,3,1,40,0,0
142793,-100,5,3,1,15,0,0
142899,-100,5,3,1,40,0,0
143427,-100,5,3,1,25,0,0
143532,-100,5,3,1,40,0,0
143638,-100,5,3,1,15,0,0
143849,-100,5,3,1,40,0,0
144272,-100,5,3,1,15,0,0
144694,-100,5,3,1,40,0,0
144906,-100,5,3,1,25,0,0
145011,-100,5,3,1,40,0,0
145751,-100,5,3,1,15,0,0
145856,-100,5,3,1,40,0,0
147018,-100,5,3,1,25,0,0
147124,-100,5,3,1,40,0,0
147652,-100,5,3,1,25,0,0
147863,-100,5,3,1,15,0,0
147969,-100,5,3,1,40,0,0
149131,-100,5,3,1,15,0,0
149342,-100,5,3,1,25,0,0
149765,-100,5,3,1,40,0,0
150082,-100,5,3,1,15,0,0
150821,-100,5,3,1,40,0,0
152089,-133.333333333333,5,2,1,20,0,0

[Colours]
Combo1 : 171,205,192
Combo2 : 224,220,163
Combo3 : 213,151,151
Combo4 : 190,179,221

[HitObjects]
256,192,12652,12,0,14765,0:0:0:0:
160,96,15610,5,0,0:0:0:0:
80,160,15821,1,2,0:0:0:0:
128,252,16032,2,0,L|108:296,3,40
180,320,16455,2,0,P|220:312|232:312,3,40
280,268,16877,6,0,P|256:196|300:108,1,160,4|0,0:1|0:0,0:0:0:0:
384,88,17511,1,4,0:0:0:0:
476,140,17723,2,0,L|468:232,1,80,4|0,0:0|0:0,0:0:0:0:
396,292,18145,1,4,0:0:0:0:
188,272,18568,2,0,P|232:280|268:308,1,80,4|2,0:0|0:0,0:0:0:0:
120,340,18990,6,0,P|92:272|132:196,1,160,4|0,0:1|0:0,0:0:0:0:
224,156,19624,1,2,0:0:0:0:
136,100,19835,1,4,0:0:0:0:
312,208,20258,2,0,L|432:200,1,120,2|2,0:0|0:0,0:0:0:0:
460,272,20680,2,0,L|348:280,1,80,0|4,0:0|0:2,0:0:0:0:
240,320,21103,6,0,P|220:264|236:160,1,160,4|0,0:1|0:0,0:0:0:0:
332,128,21737,1,2,0:0:0:0:
244,76,21948,2,0,L|192:72,1,40
140,40,22159,1,0,0:0:0:0:
88,132,22370,2,0,P|96:172|92:216,1,80,4|2,0:0|0:0,0:0:0:0:
60,308,22793,2,0,L|152:300,1,80,4|4,0:0|0:0,0:0:0:0:
244,204,23216,6,0,P|312:196|396:264,1,160,4|0,0:1|0:0,0:0:0:0:
332,332,23849,1,2,0:0:0:0:
436,340,24061,1,4,0:0:0:0:
460,132,24483,2,0,P|456:156|448:184,1,40,2|0,0:0|0:0,0:0:0:0:
388,200,24694,1,12,0:0:0:0:
360,100,24906,2,0,L|337:66,3,40,6|6|4|0,0:0|0:0|0:1|0:0,0:0:0:0:
268,88,25328,6,0,P|284:148|268:248,1,160,4|0,0:1|0:0,0:0:0:0:
168,256,25962,1,4,0:1:0:0:
108,172,26173,1,2,0:0:0:0:
232,340,26596,2,0,L|328:332,1,80,2|2,0:0|0:0,0:0:0:0:
380,256,27018,2,0,L|284:248,1,80,4|2,0:0|0:0,0:0:0:0:
264,108,27441,6,0,L|424:96,1,160,4|0,0:1|0:0,0:0:0:0:
368,184,28075,2,0,P|311:230|281:242,1,80,2|4,0:0|0:0,0:0:0:0:
208,200,28497,2,0,L|224:244,1,40,2|2,0:0|0:0,0:0:0:0:
176,292,28708,2,0,P|148:284|128:272,3,40,2|0|4|0,0:0|0:0|0:0|0:0,0:0:0:0:
84,232,29131,2,0,L|96:152,1,80,4|4,0:0|0:2,0:0:0:0:
212,80,29554,6,0,P|268:84|388:44,1,160,4|0,3:1|0:0,0:0:0:0:
432,136,30187,1,2,0:0:0:0:
396,236,30399,2,0,P|414:244|429:258,2,40,4|0|4,0:0|0:0|0:0,0:0:0:0:
324,312,30821,1,2,0:0:0:0:
236,260,31032,1,4,0:0:0:0:
292,172,31244,2,0,P|248:156|196:164,1,80,8|2,0:0|0:0,0:0:0:0:
156,196,31561,1,0,0:0:0:0:
156,196,31666,6,0,P|136:240|176:340,1,160,4|0,0:1|0:0,0:0:0:0:
276,356,32300,1,2,0:0:0:0:
320,264,32511,1,4,0:0:0:0:
408,316,32723,1,0,0:0:0:0:
456,224,32934,2,0,L|464:136,1,80,12|6,0:0|0:0,0:0:0:0:
420,48,33356,2,0,L|376:68,1,40,12|4,0:0|0:0,0:0:0:0:
312,72,33568,2,0,L|268:60,1,40,6|6,0:0|0:0,0:0:0:0:
236,124,33779,6,0,L|320:148,1,80,4|0,0:2|0:0,0:0:0:0:
348,208,34096,2,0,P|360:252|356:296,1,80,4|0,0:1|0:0,0:0:0:0:
304,336,34413,1,4,0:1:0:0:
200,320,34624,2,0,P|148:328|64:312,1,120,2|0,0:0|0:0,0:0:0:0:
44,256,35047,2,0,L|56:168,1,80,2|4,0:0|0:0,0:0:0:0:
144,116,35469,2,0,L|156:204,1,80,4|2,0:0|0:0,0:0:0:0:
280,112,35892,6,0,P|300:160|272:276,1,160,4|0,0:1|0:0,0:0:0:0:
176,264,36525,1,2,0:0:0:0:
224,356,36737,1,4,0:0:0:0:
412,264,37159,2,0,L|424:136,1,120,2|2,0:0|0:0,0:0:0:0:
356,112,37582,2,0,L|348:208,1,80,4|4,0:0|0:2,0:0:0:0:
316,332,38004,6,0,P|232:320|156:320,1,160,4|0,0:1|0:0,0:0:0:0:
88,244,38638,1,2,0:0:0:0:
120,144,38849,1,4,0:0:0:0:
224,124,39061,2,0,L|212:40,2,80,0|2|0,0:0|0:0|0:0,0:0:0:0:
328,116,39694,2,0,L|308:208,1,80,4|2,0:0|0:0,0:0:0:0:
404,304,40117,6,0,L|445:126,1,160,4|0,0:1|0:0,0:0:0:0:
416,48,40751,1,2,0:0:0:0:
312,60,40962,1,4,0:0:0:0:
272,264,41385,2,0,L|233:271,1,40,2|0,0:0|0:0,0:0:0:0:
168,304,41596,1,8,0:0:0:0:
96,232,41807,2,0,P|77:234|58:240,2,40,8|4|4,0:0|0:0|0:1,0:0:0:0:
124,96,42230,6,0,L|228:84,1,80,4|0,0:1|0:0,0:0:0:0:
272,108,42547,2,0,P|276:152|272:196,1,80,4|0,0:1|0:0,0:0:0:0:
248,256,42863,1,4,0:0:0:0:
332,320,43075,2,0,P|396:312|424:300,1,80,4|0,0:0|0:0,0:0:0:0:
472,224,43497,2,0,L|452:136,1,80,2|0,0:0|0:0,0:0:0:0:
400,96,43814,1,2,0:0:0:0:
400,96,43920,2,0,L|416:60,2,40,4|0|2,0:0|0:0|0:0,0:0:0:0:
296,116,44342,6,0,P|300:155|297:195,1,80,4|0,0:1|0:0,0:0:0:0:
284,268,44659,2,0,P|240:268|184:288,1,80,4|0,0:2|0:0,0:0:0:0:
136,256,44976,1,0,0:0:0:0:
192,168,45187,1,4,0:0:0:0:
132,84,45399,1,0,0:0:0:0:
236,84,45610,2,0,P|260:80|364:76,1,120,2|2,0:0|0:0,0:0:0:0:
420,108,46032,2,0,P|424:88|426:68,2,40,12|10|4,0:0|0:0|0:2,0:0:0:0:
448,252,46455,6,0,P|368:252|304:204,1,160,4|0,0:1|0:0,0:0:0:0:
220,144,47089,1,2,0:0:0:0:
284,64,47300,2,0,P|282:44|276:25,2,40,4|0|0,0:0|0:0|0:0,0:0:0:0:
388,88,47723,1,14,0:0:0:0:
444,176,47934,1,2,0:0:0:0:
424,280,48145,1,4,0:0:0:0:
332,328,48356,2,0,L|340:288,1,40,4|4,0:0|0:0,0:0:0:0:
308,224,48568,6,0,P|220:224|164:276,1,160,4|4,0:1|0:0,0:0:0:0:
80,324,49201,1,2,0:0:0:0:
48,228,49413,2,0,L|60:140,1,80,4|12,0:0|0:0,0:0:0:0:
124,68,49835,2,0,P|76:48|40:52,2,80,12|0|4,0:0|0:0|0:0,0:0:0:0:
192,148,50469,1,12,0:0:0:0:
260,68,50680,6,0,L|348:72,1,80,4|0,0:1|0:0,0:0:0:0:
411,103,50997,1,2,0:0:0:0:
411,103,51103,2,0,L|467:107,2,40,0|4|0,0:0|0:0|0:0,0:0:0:0:
396,204,51525,2,0,L|296:200,1,80,8|0,0:0|0:0,0:0:0:0:
248,220,51842,1,0,0:0:0:0:
248,220,51948,2,0,P|250:240|247:260,2,40,6|4|0,0:0|0:0|0:0,0:0:0:0:
144,240,52370,1,4,0:0:0:0:
188,144,52582,1,6,0:0:0:0:
247,259,52793,6,0,P|295:247|399:295,1,160,4|0,0:1|0:0,0:0:0:0:
456,220,53427,1,2,0:0:0:0:
412,124,53638,2,0,L|280:112,1,120,4|0,0:0|0:0,0:0:0:0:
244,168,54061,2,0,P|260:208|252:288,1,120,6|2,0:0|0:0,0:0:0:0:
208,340,54483,2,0,L|128:328,1,80,4|4,0:0|0:2,0:0:0:0:
253,283,54906,6,0,P|293:263|421:295,1,160,4|0,0:1|0:0,0:0:0:0:
476,332,55539,1,2,0:0:0:0:
452,228,55751,2,0,P|460:208|464:184,3,40,0|0|0|4,0:0|0:0|0:0|0:0,0:0:0:0:
392,176,56173,2,0,P|384:156|380:132,3,40,2|0|0|2,0:0|0:0|0:0|0:0,0:0:0:0:
423,76,56596,2,0,P|375:64|331:80,1,80,4|2,0:0|0:0,0:0:0:0:
220,140,57018,6,0,L|100:128,1,120,4|2,0:1|0:0,0:0:0:0:
88,200,57441,2,0,L|176:208,1,80,2|4,0:0|0:0,0:0:0:0:
204,304,57863,1,4,0:0:0:0:
288,116,58286,2,0,L|328:108,2,40,2|2|0,0:0|0:0|0:0,0:0:0:0:
316,188,58603,2,0,L|360:194,2,40,2|0|2,0:0|0:0|0:0,0:0:0:0:
288,256,58920,1,4,0:1:0:0:
291,259,59131,6,0,P|199:259|139:299,1,160,4|0,0:2|0:0,0:0:0:0:
48,244,59765,1,4,0:2:0:0:
84,148,59976,2,0,L|184:140,1,80,4|0,0:1|0:0,0:0:0:0:
196,76,60293,1,0,0:0:0:0:
196,76,60399,2,0,L|296:68,1,80,2|0,0:0|0:0,0:0:0:0:
376,48,60821,2,0,P|396:88|396:132,1,80,4|2,0:0|0:0,0:0:0:0:
300,228,61244,6,0,L|388:224,1,80,4|2,0:2|0:0,0:0:0:0:
436,312,61666,2,0,P|464:280|468:272,2,40,0|6|0,0:0|0:0|0:0,0:0:0:0:
332,328,62089,1,0,0:0:0:0:
232,304,62300,2,0,P|204:300|180:300,1,40,6|0,0:0|0:0,0:0:0:0:
156,236,62511,2,0,P|192:220|236:208,1,80,6|0,0:0|0:0,0:0:0:0:
312,144,62934,2,0,L|308:52,1,80,4|4,0:0|0:2,0:0:0:0:
165,77,63356,6,0,P|178:147|153:237,1,160,4|0,0:1|0:0,0:0:0:0:
64,312,63990,1,2,0:0:0:0:
164,344,64201,2,0,L|152:296,2,40,4|0|0,0:0|0:0|0:0,0:0:0:0:
260,300,64624,2,0,P|268:252|260:204,1,80,2|4,0:0|0:0,0:0:0:0:
236,120,65047,1,4,0:0:0:0:
132,120,65258,2,0,P|128:148|128:176,1,40,2|8,0:0|0:0,0:0:0:0:
64,196,65469,6,0,P|132:232|204:176,1,160,4|0,0:1|0:0,0:0:0:0:
288,144,66103,1,4,0:2:0:0:
372,208,66314,2,0,L|360:296,1,80,4|0,0:1|0:0,0:0:0:0:
228,340,66737,2,0,L|136:332,1,80,4|2,0:0|0:0,0:0:0:0:
128,232,67159,2,0,P|121:212|119:193,2,40,4|0|2,0:0|0:0|0:0,0:0:0:0:
200,156,67582,6,0,L|296:148,1,80,4|0,0:1|0:0,0:0:0:0:
344,116,67899,1,4,0:1:0:0:
344,116,68004,2,0,L|360:80,2,40
376,264,68427,1,4,0:2:0:0:
376,264,68849,2,0,L|288:260,1,80,4|4,0:0|0:0,0:0:0:0:
236,300,69166,1,2,0:0:0:0:
236,300,69272,2,0,L|148:296,1,80,0|2,0:0|0:0,0:0:0:0:
120,200,69694,5,4,3:1:0:0:
120,200,70117,2,0,L|204:196,1,80,0|2,0:0|0:0,0:0:0:0:
252,108,70539,1,4,0:0:0:0:
252,108,70962,2,0,P|280:136|296:180,1,80,2|4,0:0|0:0,0:0:0:0:
359,211,71279,1,2,0:0:0:0:
359,211,71385,2,0,L|451:219,1,80,4|4,0:0|0:2,0:0:0:0:
452,320,71807,6,0,L|292:305,1,160,4|0,0:1|0:0,0:0:0:0:
196,344,72441,1,2,0:0:0:0:
200,240,72652,2,0,L|156:224,1,40,4|0,0:0|0:0,0:0:0:0:
192,160,72863,2,0,L|236:144,1,40
216,74,73075,2,0,L|192:38,2,40,12|0|0,0:0|0:0|0:0,0:0:0:0:
289,80,73392,2,0,P|313:96|325:116,1,40,2|4,0:0|0:0,0:0:0:0:
356,200,73708,1,2,0:0:0:0:
252,300,73920,6,0,P|168:304|112:248,1,160,4|0,0:1|0:0,0:0:0:0:
72,160,74554,1,2,0:0:0:0:
160,104,74765,2,0,L|172:64,2,40,4|0|0,0:0|0:0|0:0,0:0:0:0:
208,160,75082,2,0,L|238:131,2,40,0|2|0,0:0|0:0|0:0,0:0:0:0:
216,232,75399,1,10,0:0:0:0:
116,208,75610,2,0,L|92:256,2,40,4|0|4,0:0|0:0|0:2,0:0:0:0:
208,160,76032,6,0,P|252:152|336:144,1,120,4|2,0:2|0:0,0:0:0:0:
380,196,76455,1,0,0:0:0:0:
416,100,76666,1,4,0:2:0:0:
488,176,76878,1,4,0:2:0:0:
284,236,77300,2,0,L|368:232,1,80,4|0,0:2|0:0,0:0:0:0:
452,288,77723,2,0,P|464:312|468:336,2,40,4|0|2,0:0|0:0|0:0,0:0:0:0:
356,332,78145,6,0,P|300:304|228:308,1,120,4|4,0:2|0:2,0:0:0:0:
168,324,78568,2,0,P|168:284|192:244,1,80,0|2,0:0|0:0,0:0:0:0:
220,152,78990,1,4,0:0:0:0:
120,180,79201,2,0,L|72:172,1,40,2|2,0:0|0:0,0:0:0:0:
40,112,79413,2,0,P|60:104|92:100,3,40,2|0|4|2,0:0|0:0|0:0|0:0,0:0:0:0:
152,104,79835,2,0,L|164:60,2,40,14|6|4,0:0|0:0|0:2,0:0:0:0:
256,204,80258,6,0,L|420:196,1,160,4|0,0:1|0:0,0:0:0:0:
380,100,80892,1,2,0:0:0:0:
276,116,81103,2,0,P|244:108|232:100,1,40,4|0,0:0|0:0,0:0:0:0:
172,76,81314,2,0,P|152:78|134:87,1,40
92,148,81525,2,0,L|168:176,1,80,2|4,0:0|0:0,0:0:0:0:
195,247,81842,1,2,0:0:0:0:
195,247,81948,2,0,L|179:291,2,40,0|0|4,0:0|0:0|0:0,0:0:0:0:
268,172,82370,6,0,L|364:168,1,80,4|0,0:2|0:0,0:0:0:0:
400,260,82793,1,0,0:0:0:0:
324,332,83004,1,2,0:0:0:0:
228,292,83216,2,0,L|132:288,1,80,4|0,0:0|0:0,0:0:0:0:
60,236,83638,2,0,P|48:276|68:352,2,120,2|2|2,0:0|0:0|0:0,0:0:0:0:
96,140,84483,6,0,P|136:164|260:140,1,160,4|0,0:2|0:0,0:0:0:0:
416,60,85328,1,2,0:0:0:0:
360,260,85751,1,0,0:0:0:0:
288,64,86173,2,0,L|200:60,1,80,0|2,0:0|0:0,0:0:0:0:
316,156,86596,6,0,L|148:148,1,160,4|0,0:2|0:0,0:0:0:0:
52,140,87230,1,2,0:0:0:0:
88,236,87441,1,0,0:0:0:0:
252,316,87863,2,0,P|304:304|380:312,1,120,2|2,0:0|0:0,0:0:0:0:
412,252,88286,2,0,L|404:164,1,80,4|4,0:0|0:2,0:0:0:0:
312,60,88708,6,0,L|325:232,1,160,4|0,0:1|0:0,0:0:0:0:
224,192,89342,1,2,0:0:0:0:
164,276,89554,2,0,P|192:292|212:296,2,40,4|0|0,0:0|0:0|0:0,0:0:0:0:
116,184,89976,2,0,L|104:100,1,80,2|0,0:0|0:0,0:0:0:0:
208,128,90399,2,0,L|196:48,1,80,4|2,0:0|0:0,0:0:0:0:
304,144,90821,6,0,P|336:212|304:304,1,160,4|0,0:2|0:0,0:0:0:0:
224,340,91455,1,2,0:0:0:0:
172,248,91666,1,4,0:0:0:0:
296,80,92089,2,0,L|344:68,2,40,2|0|8,0:0|0:0|0:0,0:0:0:0:
360,160,92511,2,0,L|416:148,2,40,8|0|4,0:0|0:0|0:1,0:0:0:0:
332,260,92934,6,0,P|253:263|189:217,1,160,4|0,0:2|0:0,0:0:0:0:
100,272,93568,1,4,0:2:0:0:
104,168,93779,1,4,0:0:0:0:
232,328,94201,2,0,L|328:324,1,80,2|0,0:0|0:0,0:0:0:0:
380,244,94624,2,0,L|284:248,1,80,4|2,0:0|0:0,0:0:0:0:
412,156,95047,6,0,L|252:162,1,160,4|0,0:2|0:0,0:0:0:0:
148,152,95680,1,4,0:2:0:0:
196,60,95892,1,0,0:0:0:0:
96,88,96103,2,0,P|76:116|68:140,1,40,2|0,0:0|0:0,0:0:0:0:
48,188,96314,2,0,L|48:232,2,40,2|0|4,0:0|0:0|0:0,0:0:0:0:
132,252,96737,1,0,0:0:0:0:
135,255,96948,1,4,0:2:0:0:
256,324,97159,6,0,P|292:292|310:159,1,160,4|0,0:2|0:0,0:0:0:0:
244,112,97793,1,2,0:0:0:0:
348,92,98004,2,0,P|344:72|332:44,2,40
444,128,98427,2,0,L|436:208,1,80,2|0,0:0|0:0,0:0:0:0:
416,308,98849,2,0,L|324:300,1,80,4|2,0:0|0:0,0:0:0:0:
280,256,99166,1,0,0:0:0:0:
280,256,99272,6,0,L|112:244,1,160,4|0,0:2|0:0,0:0:0:0:
60,160,99906,1,4,0:2:0:0:
136,88,100117,1,0,0:0:0:0:
316,192,100539,2,0,L|328:112,1,80,2|8,0:0|0:0,0:0:0:0:
404,44,100962,2,0,P|408:20|420:-8,2,40,8|0|6,0:0|0:0|0:0,0:0:0:0:
428,88,101279,1,2,0:0:0:0:
456,136,101385,6,0,L|444:216,1,80,4|0,0:2|0:0,0:0:0:0:
436,288,101701,2,0,P|392:268|376:212,1,80,2|2,0:0|0:0,0:0:0:0:
304,252,102018,1,0,0:0:0:0:
200,148,102230,2,0,P|264:128|352:160,1,160,4|2,0:2|0:0,0:0:0:0:
304,252,102863,2,0,L|256:236,2,40,0|2|4,0:0|0:0|0:0,0:0:0:0:
344,348,103286,1,0,0:0:0:0:
200,340,103497,6,0,P|152:344|60:280,1,160,4|0,0:2|0:0,0:0:0:0:
36,184,104131,1,2,0:0:0:0:
96,100,104342,1,0,0:0:0:0:
272,216,104765,2,0,P|264:196|260:172,3,40,2|0|0|2,0:0|0:0|0:0|0:0,0:0:0:0:
320,132,105187,2,0,P|328:149|333:168,2,40,4|4|4,0:0|0:0|0:2,0:0:0:0:
200,272,105610,6,0,L|172:112,1,160,4|0,0:2|0:0,0:0:0:0:
84,56,106244,1,2,0:0:0:0:
36,148,106455,2,0,L|49:196,1,40,4|0,0:0|0:0,0:0:0:0:
104,228,106666,2,0,P|68:256|28:256,2,80
184,296,107300,2,0,P|192:336|192:352,2,40
176,152,107723,6,0,P|228:172|324:124,1,160,4|0,0:2|0:0,0:0:0:0:
396,64,108356,1,2,0:0:0:0:
428,164,108568,1,4,0:0:0:0:
308,332,108990,2,0,L|312:288,3,40,2|0|8|8,0:0|0:0|0:0|0:0,0:0:0:0:
276,228,109413,2,0,L|280:184,3,40,12|0|4|0,0:0|0:0|0:1|0:0,0:0:0:0:
232,132,109835,6,0,L|140:136,1,80,4|0,0:2|0:0,0:0:0:0:
100,184,110152,2,0,P|96:224|104:272,1,80,2|2,0:0|0:0,0:0:0:0:
152,312,110469,1,4,0:2:0:0:
256,292,110680,1,4,0:0:0:0:
292,87,111103,2,0,P|310:81|330:77,3,40,2|2|0|0,0:0|0:0|0:0|0:0,0:0:0:0:
396,108,111525,2,0,P|414:114|434:118,3,40,4|0|2|0,0:0|0:0|0:0|0:0,0:0:0:0:
436,204,111948,6,0,P|400:192|328:184,1,80,4|0,0:2|0:0,0:0:0:0:
288,204,112265,2,0,P|300:264|300:356,1,120,4|4,0:2|0:1,0:0:0:0:
200,340,112793,2,0,P|156:336|144:332,3,40,4|0|2|0,0:0|0:0|0:0|0:0,0:0:0:0:
104,284,113216,2,0,P|124:272|140:264,3,40,2|2|0|2,0:0|0:0|0:0|0:0,0:0:0:0:
160,192,113638,2,0,P|196:216|204:224,2,40,4|0|4,0:0|0:0|0:1,0:0:0:0:
256,96,114061,6,0,P|324:68|432:88,1,160,4|0,0:1|0:0,0:0:0:0:
368,172,114694,1,0,0:0:0:0:
436,252,114906,2,0,P|451:239|464:223,2,40
372,332,115328,2,0,L|272:328,1,80,4|2,0:0|0:0,0:0:0:0:
188,332,115751,1,0,0:0:0:0:
196,228,115962,2,0,L|184:188,1,40,2|2,0:0|0:0,0:0:0:0:
116,168,116173,6,0,L|196:148,1,80,4|0,0:2|0:0,0:0:0:0:
200,76,116490,2,0,L|120:96,1,80,4|0,0:2|0:0,0:0:0:0:
72,44,116807,1,0,0:0:0:0:
40,144,117018,1,4,0:0:0:0:
88,236,117230,1,4,0:2:0:0:
188,208,117441,2,0,P|232:196|332:240,1,160,2|2,0:0|0:0,0:0:0:0:
152,348,118286,6,0,P|200:352|236:348,1,80,4|0,0:2|0:0,0:0:0:0:
284,300,118603,1,4,0:1:0:0:
284,300,118708,2,0,P|320:292|368:296,1,80
468,292,119131,1,2,0:0:0:0:
420,200,119342,2,0,P|428:182|433:162,2,40,4|2|4,0:0|0:0|0:2,0:0:0:0:
316,180,119765,1,0,0:0:0:0:
224,136,119976,1,4,0:0:0:0:
120,140,120187,1,2,0:0:0:0:
88,280,120399,6,0,P|148:272|240:316,1,160,4|0,0:2|0:0,0:0:0:0:
336,340,121032,1,2,0:0:0:0:
404,260,121244,2,0,P|408:212|368:128,1,120,4|0,0:0|0:0,0:0:0:0:
324,104,121666,2,0,L|176:96,1,120,4|4,0:2|0:0,0:0:0:0:
180,168,122089,2,0,L|276:175,1,80,12|4,0:0|0:2,0:0:0:0:
140,252,122511,6,0,P|108:224|116:100,1,160,4|0,0:2|0:0,0:0:0:0:
172,36,123145,1,2,0:0:0:0:
260,92,123356,2,0,P|264:76|268:52,2,40,4|0|0,0:0|0:0|0:0,0:0:0:0:
364,112,123779,2,0,L|348:200,1,80,4|0,0:2|0:0,0:0:0:0:
375,263,124096,1,0,0:0:0:0:
375,263,124201,2,0,L|359:351,1,80,4|0,0:2|0:0,0:0:0:0:
212,340,124624,6,0,L|226:261,1,80,4|0,0:2|0:0,0:0:0:0:
208,192,124941,1,2,0:0:0:0:
208,192,125046,2,0,L|222:113,1,80,2|4,0:0|0:0,0:0:0:0:
140,52,125469,1,4,0:0:0:0:
68,128,125680,1,0,0:0:0:0:
88,232,125892,2,0,P|56:248|36:252,2,40,2|2|0,0:0|0:0|0:0,0:0:0:0:
112,332,126314,2,0,P|156:320|200:320,1,80,4|4,0:0|0:1,0:0:0:0:
316,248,126737,6,0,P|340:172|312:80,1,160,4|0,0:2|0:0,0:0:0:0:
224,60,127370,1,4,0:2:0:0:
196,160,127582,2,0,L|116:152,1,80,4|4,0:2|0:0,0:0:0:0:
64,204,127899,1,0,0:0:0:0:
64,204,128004,2,0,P|56:248|60:296,1,80,4|0,0:2|0:0,0:0:0:0:
156,320,128427,2,0,P|164:276|160:228,1,80,4|0,0:2|0:0,0:0:0:0:
292,304,128849,6,0,L|376:300,1,80,4|2,0:0|0:0,0:0:0:0:
444,224,129272,2,0,P|464:248|476:268,2,40,4|0|2,0:0|0:0|0:0,0:0:0:0:
340,212,129694,1,4,0:0:0:0:
416,140,129906,2,0,L|469:135,1,40
476,64,130117,2,0,L|336:76,1,120,4|0,0:2|0:0,0:0:0:0:
292,104,130539,2,0,P|300:148|292:212,1,80,4|2,0:2|0:0,0:0:0:0:
156,220,130962,6,0,P|132:148|160:60,1,160,4|0,0:2|0:0,0:0:0:0:
252,32,131596,1,2,0:0:0:0:
352,64,131807,2,0,P|344:92|340:116,2,40,4|0|0,0:0|0:0|0:0,0:0:0:0:
448,108,132230,2,0,L|440:212,1,80,4|0,0:2|0:0,0:0:0:0:
380,272,132652,2,0,P|328:264|292:264,1,80,4|0,0:2|0:0,0:0:0:0:
244,308,132969,1,0,0:0:0:0:
244,308,133075,6,0,P|256:236|208:156,1,160,4|0,0:2|0:0,0:0:0:0:
112,152,133708,1,2,0:0:0:0:
136,252,133920,1,4,0:0:0:0:
332,188,134342,1,4,0:2:0:0:
164,64,134765,1,4,0:1:0:0:
356,148,135187,5,0,0:0:0:0:
352,252,135399,2,0,L|304:248,1,40,0|4,0:0|0:2,0:0:0:0:
252,288,135610,2,0,L|268:332,2,40
180,216,136032,2,0,P|208:196|260:184,1,80,4|0,0:2|0:0,0:0:0:0:
292,88,136455,1,4,0:2:0:0:
88,48,136878,1,4,0:2:0:0:
188,68,137089,1,2,0:0:0:0:
292,88,137300,6,0,P|344:76|460:100,1,160,4|0,0:2|0:0,0:0:0:0:
460,196,137934,1,2,0:0:0:0:
400,284,138145,1,4,0:0:0:0:
232,160,138568,2,0,P|216:144|200:108,3,40,2|2|4|2,0:0|0:0|0:0|0:0,0:0:0:0:
140,104,138990,2,0,P|164:72|184:60,2,40,12|4|4,0:0|0:0|0:1,0:0:0:0:
184,240,139413,6,0,P|256:260|320:208,1,160,4|0,0:2|0:0,0:0:0:0:
400,144,140047,1,2,0:0:0:0:
412,248,140258,2,0,L|456:256,1,40
428,324,140469,2,0,L|468:332,1,40
356,356,140680,2,0,L|304:344,3,40,2|0|2|0,0:0|0:0|0:0|0:0,0:0:0:0:
248,328,141103,1,4,0:2:0:0:
256,224,141314,1,2,0:0:0:0:
168,280,141525,6,0,P|136:288|36:220,1,160,4|0,0:2|0:0,0:0:0:0:
32,152,142054,1,0,0:0:0:0:
32,152,142159,2,0,L|120:144,1,80,2|0,0:0|0:0,0:0:0:0:
172,60,142582,1,0,0:0:0:0:
212,156,142793,2,0,P|240:152|260:144,3,40,4|0|8|0,0:2|0:0|0:0|0:0,0:0:0:0:
292,208,143216,2,0,P|316:188|328:168,3,40,8|0|2|0,0:0|0:0|0:2|0:0,0:0:0:0:
368,128,143638,6,0,P|388:156|388:208,1,80,4|0,0:2|0:0,0:0:0:0:
412,304,144061,2,0,L|452:292,2,40,2|0|2,0:0|0:0|0:0,0:0:0:0:
316,344,144483,2,0,L|220:340,1,80,4|0,0:0|0:0,0:0:0:0:
172,304,144800,1,0,0:0:0:0:
172,304,144906,2,0,L|76:300,1,80,4|0,0:2|0:0,0:0:0:0:
52,204,145328,2,0,L|148:208,1,80,4|0,0:2|0:0,0:0:0:0:
204,192,145645,1,0,0:0:0:0:
204,192,145751,6,0,P|280:200|360:160,1,160,4|0,0:2|0:0,0:0:0:0:
392,68,146385,1,2,0:0:0:0:
288,60,146596,1,4,0:0:0:0:
392,68,146807,2,0,P|420:56|440:52,2,40,2|2|4,0:0|0:0|0:2,0:0:0:0:
432,164,147230,2,0,P|460:175|477:186,1,40,0|2,0:0|0:0,0:0:0:0:
428,240,147441,2,0,P|446:263|455:281,2,40,0|2|4,0:0|0:0|0:0,0:0:0:0:
292,328,147863,6,0,L|281:165,1,160,4|4,0:2|0:0,0:0:0:0:
336,80,148497,1,2,0:0:0:0:
232,76,148708,2,0,L|196:56,3,40,4|0|0|0,0:0|0:0|0:0|0:0,0:0:0:0:
144,108,149131,2,0,L|178:127,3,40,4|0|0|0,0:2|0:0|0:0|0:0,0:0:0:0:
136,188,149554,2,0,P|172:200|224:188,1,80,4|0,0:2|0:0,0:0:0:0:
324,100,149976,6,0,P|364:148|352:256,1,160,4|0,0:2|0:0,0:0:0:0:
268,292,150610,1,4,0:2:0:0:
164,288,150821,2,0,P|136:292|120:292,2,40
184,184,151244,2,0,P|192:128|176:64,2,120,2|2|2,0:0|0:0|0:0,0:0:0:0:
280,232,152089,6,0,L|400:224,1,120.000004577637,6|0,0:2|0:0,0:0:0:0:
272,324,152934,2,0,L|152:332,1,120.000004577637,8|0,0:0|0:0,0:0:0:0:
76,196,153779,1,0,0:0:0:0:
120,48,154201,2,0,P|164:72|216:136,1,120.000004577637,2|0,0:0|0:0,0:0:0:0:
356,64,155047,1,8,0:0:0:0:
348,220,155469,6,0,L|364:352,2,120.000004577637,0|0|2,0:0|0:0|0:0,0:0:0:0:
200,168,156737,1,0,0:0:0:0:
64,240,157159,2,0,P|96:284|164:320,1,120.000004577637,8|0,0:0|0:0,0:0:0:0:
300,268,158004,1,0,0:0:0:0:
436,192,158427,2,0,P|404:148|336:112,1,120.000004577637,2|0,0:0|0:0,0:0:0:0:
300,268,159272,1,8,0:0:0:0:
228,236,159483,1,2,0:3:0:0:
156,268,159694,2,0,P|148:244|148:228,2,30.0000011444092,0|2|0,3:0|3:0|3:0,0:0:0:0:
84,300,160117,2,0,L|72:241,1,60.0000022888184,4|8,3:0|0:0,0:0:0:0:
120,144,160539,6,0,P|152:128|240:132,1,120.000004577637,2|0,0:0|0:0,0:0:0:0:
364,216,161385,1,8,0:0:0:0:
216,264,161807,1,0,0:0:0:0:
364,216,162230,1,0,0:0:0:0:
236,304,162652,2,0,P|236:252|212:184,1,120.000004577637,2|0,0:0|0:0,0:0:0:0:
68,136,163497,1,8,0:0:0:0:
214,188,163920,1,2,0:2:0:0:
68,136,164342,1,2,0:2:0:0:
284,116,164765,6,0,P|332:100|408:108,1,120.000004577637,2|0,0:0|0:0,0:0:0:0:
416,260,165610,2,0,P|368:276|292:268,1,120.000004577637,8|0,0:0|0:0,0:0:0:0:
168,188,166455,1,2,0:2:0:0:
168,188,166878,2,0,P|204:168|284:164,1,120.000004577637,2|0,0:0|0:0,0:0:0:0:
252,316,167723,2,0,L|128:308,1,120.000004577637,8|8,0:0|0:0,0:0:0:0:
40,168,168568,2,0,L|48:128,1,30.0000011444092,0|2,3:0|3:0,0:0:0:0:
144,108,168885,1,2,3:0:0:0:
156,132,168990,6,0,L|280:128,1,120.000004577637,2|0,0:0|0:0,0:0:0:0:
388,236,169835,2,0,L|264:240,1,120.000004577637,8|0,0:0|0:0,0:0:0:0:
112,244,170680,1,2,0:2:0:0:
240,336,171103,2,0,P|280:320|364:324,1,120.000004577637,2|0,0:0|0:0,0:0:0:0:
396,172,171948,1,8,0:0:0:0:
356,320,172370,1,2,0:2:0:0:
396,172,172793,1,2,0:2:0:0:
296,52,173216,6,0,P|244:80|176:80,1,120.000004577637,2|0,0:0|0:0,0:0:0:0:
80,196,174061,2,0,P|76:256|108:316,1,120.000004577637,8|0,0:0|0:0,0:0:0:0:
256,332,174906,1,2,0:2:0:0:
200,188,175328,1,2,0:0:0:0:
352,228,175751,2,0,L|476:224,1,120.000004577637,0|8,0:0|0:0,0:0:0:0:
396,88,176596,1,0,0:0:0:0:
268,176,177018,2,0,P|264:152|264:140,3,30.0000011444092,0|2|0|2,3:0|3:0|3:0|3:0,0:0:0:0:
288,96,177441,5,4,2:0:0:0:
256,192,177547,12,2,179131,0:2:0:0:
