osu file format v14

[General]
AudioFilename: audio.mp3
AudioLeadIn: 0
PreviewTime: 50680
Countdown: 0
SampleSet: None
StackLeniency: 0.5
Mode: 0
LetterboxInBreaks: 0
WidescreenStoryboard: 1

[Editor]
Bookmarks: 50680,84483,92934,118286,152089,177441
DistanceSpacing: 1
BeatDivisor: 4
GridSize: 4
TimelineZoom: 1.2

[Metadata]
Title:Hymn To The Unobtainable
TitleUnicode:Hymn To The Unobtainable
Artist:The Flashbulb
ArtistUnicode:The Flashbulb
Creator:Mismagius
Version:Light Insane
Source:
Tags:nothing is real ambient benn jordan idm experimental yellowmanul
BeatmapID:1487644
BeatmapSetID:539042

[Difficulty]
HPDrainRate:5
CircleSize:4.5
OverallDifficulty:7
ApproachRate:8.2
SliderMultiplier:1.8
SliderTickRate:1

[Events]
//Background and Video events
0,0,"wallhaven-81840.jpg",0,0
//Break Periods
//Storyboard Layer 0 (Background)
//Storyboard Layer 1 (Fail)
//Storyboard Layer 2 (Pass)
//Storyboard Layer 3 (Foreground)
//Storyboard Sound Samples

[TimingPoints]
16878,422.535211267606,5,3,1,40,1,0
18990,-100,5,3,1,25,0,0
19096,-100,5,3,1,40,0,0
20892,-100,5,3,1,25,0,0
21525,-100,5,3,1,40,0,0
23216,-100,5,3,1,25,0,0
23638,-100,5,3,1,40,0,0
27441,-100,5,3,1,25,0,0
27547,-100,5,3,1,40,0,0
29342,-100,5,3,1,25,0,0
29554,-100,5,3,1,40,0,0
33779,-100,5,3,1,15,0,0
33990,-100,5,3,1,25,0,0
34624,-100,5,3,1,40,0,0
35892,-100,5,3,1,25,0,0
36314,-100,5,3,1,40,0,0
37793,-100,5,3,1,25,0,0
38004,-100,5,3,1,40,0,0
39061,-100,5,3,1,25,0,0
39483,-100,5,3,1,40,0,0
42547,-100,5,3,1,25,0,0
42758,-100,5,3,1,40,0,0
44342,-100,5,3,1,25,0,0
44659,-100,5,3,1,15,0,0
44976,-100,5,3,1,40,0,0
46244,-100,5,3,1,25,0,0
46455,-100,5,3,1,40,0,0
52793,-100,5,3,1,25,0,0
52899,-100,5,3,1,40,0,0
54694,-100,5,3,1,25,0,0
54906,-100,5,3,1,40,0,0
57018,-100,5,3,1,25,0,0
57124,-100,5,3,1,40,0,0
58920,-100,5,3,1,25,0,0
58999,-100,5,3,1,15,0,0
59131,-100,5,3,1,25,0,0
59765,-100,5,3,1,15,0,0
59976,-100,5,3,1,25,0,0
60187,-100,5,3,1,40,0,0
61244,-100,5,3,1,15,0,0
61455,-100,5,3,1,40,0,0
63145,-100,5,3,1,15,0,0
63356,-100,5,3,1,25,0,0
63990,-100,5,3,1,40,0,0
65469,-100,5,3,1,25,0,0
66103,-100,5,3,1,15,0,0
66525,-100,5,3,1,25,0,0
66737,-100,5,3,1,40,0,0
67582,-100,5,3,1,25,0,0
68004,-100,5,3,1,40,0,0
68427,-100,5,3,1,15,0,0
68638,-100,5,3,1,40,0,0
69694,-100,5,3,1,25,0,0
70328,-100,5,3,1,40,0,0
71596,-100,5,3,1,25,0,0
72441,-100,5,3,1,40,0,0
73075,-100,5,3,1,25,0,0
73286,-100,5,3,1,40,0,0
73920,-100,5,3,1,25,0,0
74342,-100,5,3,1,40,0,0
75821,-100,5,3,1,25,0,0
75927,-100,5,3,1,40,0,0
76032,-100,5,3,1,15,0,0
76244,-100,5,3,1,40,0,0
76666,-100,5,3,1,15,0,0
77089,-100,5,3,1,40,0,0
77300,-100,5,3,1,25,0,0
77511,-100,5,3,1,40,0,0
78145,-100,5,3,1,15,0,0
78779,-100,5,3,1,40,0,0
80258,-100,5,3,1,15,0,0
80680,-100,5,3,1,40,0,0
82370,-100,5,3,1,25,0,0
83004,-100,5,3,1,40,0,0
84483,-100,5,3,1,25,0,0
84589,-100,5,3,1,40,0,0
86596,-100,5,3,1,25,0,0
86701,-100,5,3,1,40,0,0
88497,-100,5,3,1,15,0,0
88708,-100,5,3,1,25,0,0
88814,-100,5,3,1,40,0,0
90821,-100,5,3,1,15,0,0
90927,-100,5,3,1,40,0,0
92723,-100,5,3,1,25,0,0
92828,-100,5,3,1,40,0,0
92934,-100,5,3,1,25,0,0
93039,-100,5,3,1,40,0,0
93568,-100,5,3,1,25,0,0
93779,-100,5,3,1,40,0,0
95047,-100,5,3,1,15,0,0
95152,-100,5,3,1,40,0,0
95680,-100,5,3,1,25,0,0
95892,-100,5,3,1,40,0,0
97159,-100,5,3,1,15,0,0
97265,-100,5,3,1,40,0,0
99272,-100,5,3,1,15,0,0
99378,-100,5,3,1,40,0,0
99906,-100,5,3,1,25,0,0
100117,-100,5,3,1,40,0,0
101385,-100,5,3,1,15,0,0
101596,-100,5,3,1,40,0,0
102230,-100,5,3,1,25,0,0
102335,-100,5,3,1,40,0,0
103497,-100,5,3,1,25,0,0
103603,-100,5,3,1,40,0,0
105610,-100,5,3,1,25,0,0
105716,-100,5,3,1,40,0,0
106772,-100,5,3,1,25,0,0
107300,-100,5,3,1,40,0,0
107723,-100,5,3,1,25,0,0
107828,-100,5,3,1,40,0,0
109624,-100,5,3,1,25,0,0
109730,-100,5,3,1,40,0,0
109835,-100,5,3,1,25,0,0
109941,-100,5,3,1,40,0,0
110469,-100,5,3,1,15,0,0
110680,-100,5,3,1,40,0,0
111948,-100,5,3,1,15,0,0
112265,-100,5,3,1,25,0,0
112582,-100,5,3,1,15,0,0
112793,-100,5,3,1,40,0,0
116173,-100,5,3,1,25,0,0
116385,-100,5,3,1,40,0,0
116490,-100,5,3,1,25,0,0
116701,-100,5,3,1,40,0,0
117230,-100,5,3,1,15,0,0
117441,-100,5,3,1,25,0,0
118180,-100,5,3,1,40,0,0
118286,-100,5,3,1,25,0,0
118603,-100,5,3,1,15,0,0
118814,-100,5,3,1,40,0,0
119554,-100,5,3,1,15,0,0
119659,-100,5,3,1,40,0,0
120399,-100,5,3,1,25,0,0
120504,-100,5,3,1,40,0,0
121666,-100,5,3,1,25,0,0
122511,-100,5,3,1,15,0,0
122617,-100,5,3,1,40,0,0
123779,-100,5,3,1,25,0,0
123885,-100,5,3,1,40,0,0
124201,-100,5,3,1,25,0,0
124413,-100,5,3,1,40,0,0
124624,-100,5,3,1,25,0,0
124941,-100,5,3,1,40,0,0
126525,-100,5,3,1,15,0,0
126737,-100,5,3,1,25,0,0
126842,-100,5,3,1,40,0,0
127370,-100,5,3,1,15,0,0
127793,-100,5,3,1,40,0,0
128004,-100,5,3,1,25,0,0
128427,-100,5,3,1,40,0,0
130117,-100,5,3,1,15,0,0
130328,-100,5,3,1,40,0,0
130539,-100,5,3,1,25,0,0
130751,-100,5,3,1,40,0,0
130962,-100,5,3,1,15,0,0
131068,-100,5,3,1,40,0,0
132230,-100,5,3,1,15,0,0
132652,-100,5,3,1,25,0,0
133180,-100,5,3,1,40,0,0
135504,-100,5,3,1,15,0,0
135716,-100,5,3,1,25,0,0
136455,-100,5,3,1,15,0,0
137089,-100,5,3,1,40,0,0
137300,-100,5,3,1,15,0,0
137406,-100,5,3,1,40,0,0
139413,-100,5,3,1,25,0,0
139518,-100,5,3,1,40,0,0
141103,-100,5,3,1,25,0,0
141525,-100,5,3,1,15,0,0
141631,-100,5,3,1,40,0,0
142793,-100,5,3,1,15,0,0
142899,-100,5,3,1,40,0,0
143427,-100,5,3,1,25,0,0
143532,-100,5,3,1,40,0,0
143638,-100,5,3,1,15,0,0
143849,-100,5,3,1,40,0,0
144272,-100,5,3,1,15,0,0
144694,-100,5,3,1,40,0,0
144906,-100,5,3,1,25,0,0
145011,-100,5,3,1,40,0,0
145751,-100,5,3,1,15,0,0
145856,-100,5,3,1,40,0,0
147018,-100,5,3,1,25,0,0
147124,-100,5,3,1,40,0,0
147652,-100,5,3,1,25,0,0
147863,-100,5,3,1,15,0,0
147969,-100,5,3,1,40,0,0
149131,-100,5,3,1,15,0,0
149342,-100,5,3,1,25,0,0
149765,-100,5,3,1,40,0,0
150082,-100,5,3,1,15,0,0
150821,-100,5,3,1,40,0,0
152089,-133.333333333333,5,2,1,20,0,0

[Colours]
Combo1 : 171,205,192
Combo2 : 224,220,163
Combo3 : 213,151,151
Combo4 : 190,179,221

[HitObjects]
256,192,12652,12,0,15610,0:0:0:0:
404,64,15821,5,2,0:0:0:0:
444,144,16032,2,0,P|448:172|444:196,1,45,0|0,0:0|0:0,0:0:0:0:
432,232,16244,1,0,0:0:0:0:
392,256,16349,1,0,0:0:0:0:
348,256,16455,1,0,0:0:0:0:
308,236,16561,1,0,0:0:0:0:
284,200,16666,2,0,P|282:177|286:155,1,45,0|0,0:0|0:0,0:0:0:0:
312,120,16877,6,0,P|232:156|96:44,1,270,4|0,0:2|0:0,0:0:0:0:
12,88,17723,2,0,B|0:132|0:132|12:184,1,90,4|0,0:0|0:0,0:0:0:0:
36,212,18039,1,2,0:0:0:0:
36,212,18145,2,0,B|48:256|48:256|36:308,1,90,4|2,0:0|0:0,0:0:0:0:
108,356,18568,1,4,0:0:0:0:
188,316,18779,1,2,0:0:0:0:
264,364,18990,6,0,P|328:376|452:228,1,270,4|2,0:1|0:0,0:0:0:0:
408,160,19835,2,0,P|396:112|404:64,1,90,4|0,0:0|0:0,0:0:0:0:
428,36,20152,1,0,0:0:0:0:
428,36,20258,2,0,B|344:72|344:72|260:56,1,135,2|2,0:0|0:0,0:0:0:0:
256,52,20680,1,0,0:0:0:0:
284,168,20892,1,4,0:2:0:0:
248,28,21103,6,0,P|180:12|32:128,1,270,4|2,0:1|0:0,0:0:0:0:
48,212,21948,2,0,P|44:240|36:264,1,45,4|0,0:0|0:0,0:0:0:0:
136,348,22370,2,0,B|180:356|180:356|224:336,1,90,4|2,0:0|0:0,0:0:0:0:
285,273,22793,2,0,B|329:265|329:265|373:285,1,90,4|4,0:0|0:0,0:0:0:0:
432,348,23216,6,0,P|396:296|492:136,1,270,4|2,0:1|0:0,0:0:0:0:
508,48,24061,2,0,L|416:32,1,90,4|0,0:0|0:0,0:0:0:0:
380,52,24377,1,0,0:0:0:0:
380,52,24483,2,0,L|328:44,1,45,2|0,0:0|0:0,0:0:0:0:
292,36,24694,1,12,0:0:0:0:
252,116,24906,1,6,0:0:0:0:
212,136,25011,1,6,0:0:0:0:
168,140,25117,1,4,0:1:0:0:
124,128,25223,1,0,0:0:0:0:
96,92,25328,6,0,B|115:168|115:168|67:264|67:264|86:345,1,270,4|4,0:1|0:1,0:0:0:0:
172,376,26173,2,0,P|220:380|268:352,1,90,2|0,0:0|0:0,0:0:0:0:
284,328,26490,1,0,0:0:0:0:
284,328,26596,2,0,P|332:324|380:352,1,90,2|2,0:0|0:0,0:0:0:0:
448,384,27018,1,4,0:0:0:0:
496,308,27230,1,2,0:0:0:0:
416,264,27441,6,0,P|344:208|360:32,1,270,4|2,0:1|0:0,0:0:0:0:
436,12,28286,1,4,0:0:0:0:
260,64,28497,1,2,0:0:0:0:
216,56,28603,1,2,0:0:0:0:
172,48,28708,2,0,B|104:36|104:36|44:80,1,135,2|2,0:0|0:0,0:0:0:0:
20,108,29131,2,0,P|24:164|48:200,1,90,4|4,0:0|0:2,0:0:0:0:
124,224,29554,6,0,P|192:212|320:356,1,270,4|2,3:1|0:0,0:0:0:0:
404,376,30399,1,4,0:0:0:0:
416,332,30504,1,0,0:0:0:0:
412,288,30610,1,4,0:0:0:0:
396,244,30716,1,0,0:0:0:0:
372,208,30821,2,0,L|392:104,1,90,2|4,0:0|0:0,0:0:0:0:
408,32,31244,1,8,0:0:0:0:
324,64,31455,2,0,P|296:68|272:64,1,45,2|0,0:0|0:0,0:0:0:0:
240,48,31666,6,0,P|156:24|16:132,1,270,4|2,0:1|0:0,0:0:0:0:
16,216,32511,2,0,P|33:261|78:296,1,90,4|0,0:0|0:0,0:0:0:0:
104,312,32828,1,0,0:0:0:0:
104,312,32934,2,0,L|196:276,1,90,12|6,0:0|0:0,0:0:0:0:
268,240,33356,1,12,0:0:0:0:
312,232,33462,1,4,0:0:0:0:
356,244,33568,1,6,0:0:0:0:
392,272,33673,1,6,0:0:0:0:
412,312,33779,6,0,L|432:208,1,90,4|0,0:2|0:0,0:0:0:0:
408,184,34096,2,0,L|428:80,1,90,4|0,0:1|0:0,0:0:0:0:
432,52,34413,1,4,0:1:0:0:
432,52,34624,2,0,B|366:78|366:22|297:52,1,135,2|0,0:0|0:0,0:0:0:0:
260,72,35047,1,2,0:0:0:0:
188,20,35258,1,4,0:0:0:0:
188,20,35363,1,2,0:0:0:0:
188,20,35469,1,4,0:0:0:0:
164,108,35680,1,2,0:0:0:0:
88,60,35892,6,0,P|32:104|36:296,1,270,4|2,0:1|0:0,0:0:0:0:
96,348,36737,2,0,L|196:320,1,90,4|0,0:0|0:0,0:0:0:0:
212,292,37054,1,0,0:0:0:0:
212,292,37159,2,0,L|312:320,1,90,2|4,0:0|0:0,0:0:0:0:
340,332,37476,1,2,0:0:0:0:
340,332,37582,2,0,P|356:284|344:236,1,90,4|4,0:0|0:2,0:0:0:0:
304,168,38004,6,0,P|400:172|488:28,1,270,4|2,0:1|0:0,0:0:0:0:
404,8,38849,2,0,B|365:0|340:25|340:25|301:16|280:42,1,135,4|0,0:0|0:0,0:0:0:0:
256,80,39272,2,0,P|212:88|164:64,1,90,0|2,0:0|0:0,0:0:0:0:
108,4,39694,1,4,0:0:0:0:
48,72,39906,1,2,0:0:0:0:
116,132,40117,6,0,P|140:192|20:332,1,270,4|2,0:1|0:0,0:0:0:0:
144,368,40962,2,0,L|240:352,1,90,4|0,0:0|0:0,0:0:0:0:
272,344,41279,1,0,0:0:0:0:
312,336,41385,2,0,P|344:336|368:340,2,45,2|0|8,0:0|0:0|0:0,0:0:0:0:
272,252,41807,1,8,0:0:0:0:
256,208,41913,1,4,0:0:0:0:
260,164,42018,1,4,0:1:0:0:
280,124,42124,1,0,0:0:0:0:
316,100,42230,6,0,P|364:100|404:120,1,90,4|0,0:1|0:0,0:0:0:0:
436,148,42547,2,0,P|459:189|462:234,1,90,4|0,0:1|0:0,0:0:0:0:
456,276,42863,1,4,0:0:0:0:
380,328,43075,2,0,L|272:316,1,90,4|0,0:0|0:0,0:0:0:0:
248,328,43392,1,0,0:0:0:0:
248,328,43497,2,0,L|140:316,1,90,2|0,0:0|0:0,0:0:0:0:
112,312,43814,1,2,0:0:0:0:
112,312,43920,2,0,P|100:284|96:256,1,45,4|0,0:0|0:0,0:0:0:0:
96,224,44131,2,0,P|102:194|115:168,1,45,2|0,0:0|0:0,0:0:0:0:
136,144,44342,6,0,B|68:152|68:152|8:120,2,135,4|4|0,0:1|0:2|0:0,0:0:0:0:
224,116,45187,2,0,P|288:120|324:140,1,90,4|0,0:0|0:0,0:0:0:0:
344,164,45504,1,2,0:0:0:0:
344,164,45610,2,0,P|416:168|472:112,1,135,2|2,0:0|0:0,0:0:0:0:
472,88,46032,1,12,0:0:0:0:
456,44,46138,1,10,0:0:0:0:
420,16,46244,1,4,0:2:0:0:
344,164,46455,6,0,P|320:244|448:372,1,270,4|2,0:1|0:0,0:0:0:0:
500,308,47300,1,4,0:0:0:0:
508,264,47406,1,0,0:0:0:0:
496,220,47511,1,0,0:0:0:0:
468,184,47617,1,0,0:0:0:0:
424,172,47723,2,0,P|404:128|408:76,1,90,14|2,0:0|0:0,0:0:0:0:
328,12,48145,2,0,P|328:56|308:96,1,90,4|4,0:0|0:0,0:0:0:0:
236,152,48568,6,0,P|132:160|36:32,1,270,4|2,0:1|0:0,0:0:0:0:
120,8,49413,1,4,0:0:0:0:
184,72,49624,1,12,0:0:0:0:
184,72,49730,1,0,0:0:0:0:
184,72,49835,2,0,L|328:52,1,135,12|0,0:0|0:0,0:0:0:0:
349,21,50258,2,0,B|340:88|340:88|369:165,1,135,4|4,0:0|0:0,0:0:0:0:
380,192,50680,5,4,0:1:0:0:
416,276,50892,2,0,L|408:320,1,45,0|2,0:0|0:0,0:0:0:0:
328,356,51208,2,0,L|320:312,1,45,4|0,0:0|0:0,0:0:0:0:
240,272,51525,2,0,P|192:264|144:280,1,90,8|0,0:0|0:0,0:0:0:0:
116,304,51842,1,0,0:0:0:0:
104,260,51948,1,6,0:0:0:0:
92,216,52054,1,4,0:0:0:0:
80,172,52159,1,0,0:0:0:0:
60,84,52370,1,4,0:0:0:0:
148,112,52582,1,6,0:0:0:0:
124,24,52793,6,0,P|212:8|364:108,1,270,4|2,0:1|0:0,0:0:0:0:
388,184,53638,2,0,L|376:280,1,90,4|0,0:0|0:0,0:0:0:0:
368,316,53955,1,0,0:0:0:0:
368,316,54061,2,0,B|304:328|304:328|228:300,1,135,6|2,0:0|0:0,0:0:0:0:
200,284,54483,1,4,0:0:0:0:
152,360,54694,1,4,0:2:0:0:
68,324,54906,6,0,P|36:256|104:76,1,270,4|2,0:1|0:0,0:0:0:0:
176,40,55751,1,0,0:0:0:0:
220,52,55856,1,0,0:0:0:0:
248,88,55962,1,0,0:0:0:0:
252,132,56068,1,4,0:0:0:0:
240,176,56173,2,0,L|344:148,1,90,2|0,0:0|0:0,0:0:0:0:
372,140,56490,1,2,0:0:0:0:
372,140,56596,2,0,P|392:184|392:232,1,90,4|2,0:0|0:0,0:0:0:0:
324,284,57018,6,0,L|163:240,1,135,4|2,0:1|0:0,0:0:0:0:
148,240,57441,2,0,P|128:280|126:325,1,90,2|4,0:0|0:0,0:0:0:0:
212,352,57863,1,4,0:0:0:0:
300,376,58075,1,0,0:0:0:0:
384,344,58286,1,2,0:0:0:0:
404,304,58392,1,2,0:0:0:0:
408,260,58497,1,0,0:0:0:0:
396,216,58603,1,2,0:0:0:0:
368,180,58708,2,0,P|348:136|348:124,1,45,0|2,0:0|0:0,0:0:0:0:
344,96,58920,2,0,P|360:50|369:42,1,45,4|0,0:1|0:0,0:0:0:0:
392,24,59131,6,0,P|320:48|228:4,1,180,4|0,0:2|0:0,0:0:0:0:
188,88,59765,1,4,0:2:0:0:
188,88,59976,1,4,0:1:0:0:
104,56,60187,1,0,0:0:0:0:
104,56,60293,1,0,0:0:0:0:
104,56,60399,2,0,P|88:104|116:192,1,135,2|0,0:0|0:0,0:0:0:0:
140,216,60821,2,0,L|124:308,1,90,4|2,0:0|0:0,0:0:0:0:
176,380,61244,5,4,0:2:0:0:
248,328,61455,1,2,0:0:0:0:
292,316,61561,1,0,0:0:0:0:
336,320,61666,1,0,0:0:0:0:
376,340,61772,1,6,0:0:0:0:
404,376,61878,1,0,0:0:0:0:
476,320,62089,2,0,L|456:216,1,90,0|6,0:0|0:0,0:0:0:0:
436,192,62406,1,0,0:0:0:0:
436,192,62511,2,0,P|416:136|456:36,1,135,6|12,0:0|0:0,0:0:0:0:
460,28,62934,1,4,0:0:0:0:
372,8,63145,1,4,0:2:0:0:
320,84,63356,6,0,P|256:120|96:24,1,270,4|2,0:1|0:0,0:0:0:0:
24,84,64201,1,4,0:0:0:0:
16,128,64307,1,0,0:0:0:0:
20,172,64413,1,0,0:0:0:0:
36,212,64518,1,0,0:0:0:0:
68,244,64624,2,0,L|48:336,1,90,2|4,0:0|0:0,0:0:0:0:
124,384,65047,2,0,L|144:292,1,90,4|2,0:0|0:0,0:0:0:0:
152,252,65363,1,8,0:0:0:0:
152,252,65469,6,0,P|208:232|396:316,1,270,4|4,0:1|0:2,0:0:0:0:
440,384,66314,1,4,0:1:0:0:
508,324,66525,2,0,P|504:292|496:264,1,45,0|0,0:0|0:0,0:0:0:0:
464,252,66737,2,0,L|480:148,1,90,4|2,0:0|0:0,0:0:0:0:
492,76,67159,1,4,0:0:0:0:
492,76,67265,1,0,0:0:0:0:
492,76,67370,1,2,0:0:0:0:
420,20,67582,6,0,P|372:12|312:36,1,90,4|0,0:1|0:0,0:0:0:0:
300,52,67899,2,0,P|252:60|192:36,1,90,4|0,0:1|0:0,0:0:0:0:
172,28,68216,1,0,0:0:0:0:
100,84,68427,2,0,B|92:152|92:152|128:224,1,135,4|0,0:2|0:0,0:0:0:0:
148,248,68849,2,0,L|264:224,1,90,4|4,0:0|0:0,0:0:0:0:
280,216,69166,1,2,0:0:0:0:
280,216,69272,2,0,P|296:264|292:308,1,90,0|2,0:0|0:0,0:0:0:0:
352,372,69694,6,0,P|412:356|436:152,1,270,4|2,3:1|0:0,0:0:0:0:
380,220,70539,2,0,P|344:168|352:96,1,135,4|0,0:0|0:0,0:0:0:0:
376,60,70962,2,0,L|272:44,1,90,2|4,0:0|0:0,0:0:0:0:
248,72,71279,1,2,0:0:0:0:
248,72,71385,2,0,L|144:56,1,90,4|4,0:0|0:2,0:0:0:0:
72,44,71807,6,0,P|48:104|160:260,1,270,4|2,0:1|0:0,0:0:0:0:
232,216,72652,1,4,0:0:0:0:
276,204,72758,1,0,0:0:0:0:
320,212,72863,1,0,0:0:0:0:
356,236,72969,1,0,0:0:0:0:
376,276,73075,2,0,P|384:328|376:368,1,90,12|0,0:0|0:0,0:0:0:0:
336,384,73392,1,2,0:0:0:0:
336,384,73497,2,0,L|240:368,1,90,4|2,0:0|0:0,0:0:0:0:
160,356,73920,6,0,B|92:340|36:376|36:376|0:356|-16:296|16:236,1,270,4|2,0:1|0:0,0:0:0:0:
80,192,74765,1,4,0:0:0:0:
100,152,74870,1,0,0:0:0:0:
100,108,74976,1,0,0:0:0:0:
88,64,75082,1,0,0:0:0:0:
60,28,75187,2,0,P|32:16|8:12,2,45,2|0|10,0:0|0:0|0:0,0:0:0:0:
172,68,75610,2,0,L|216:60,1,45,4|0,0:0|0:0,0:0:0:0:
248,28,75821,2,0,L|292:36,1,45,4|0,0:2|0:0,0:0:0:0:
332,56,76032,6,0,P|356:104|352:152,1,90,4|2,0:2|0:0,0:0:0:0:
328,176,76349,2,0,P|329:220|351:259,1,90,2|0,0:0|0:0,0:0:0:0:
388,288,76666,1,4,0:2:0:0:
320,344,76878,1,4,0:2:0:0:
232,324,77089,1,0,0:0:0:0:
232,324,77194,1,0,0:0:0:0:
232,324,77300,2,0,B|180:320|180:320|140:336,1,90,4|0,0:2|0:0,0:0:0:0:
104,352,77617,1,0,0:0:0:0:
124,312,77723,1,4,0:0:0:0:
128,268,77828,1,0,0:0:0:0:
120,224,77934,1,2,0:0:0:0:
96,184,78039,1,0,0:0:0:0:
60,160,78145,6,0,P|128:160|180:112,2,135,4|4|2,0:2|0:2|0:0,0:0:0:0:
8,88,78990,1,4,0:0:0:0:
56,12,79201,1,2,0:0:0:0:
100,20,79307,1,2,0:0:0:0:
144,28,79413,2,0,L|240:16,1,90,2|4,0:0|0:0,0:0:0:0:
276,28,79730,1,2,0:0:0:0:
276,28,79835,2,0,L|340:19,2,45,14|6|4,0:0|0:0|0:2,0:0:0:0:
224,100,80258,6,0,P|216:172|376:256,1,270,4|2,0:1|0:0,0:0:0:0:
448,224,81103,1,4,0:0:0:0:
468,184,81208,1,0,0:0:0:0:
476,140,81314,1,0,0:0:0:0:
472,96,81420,1,0,0:0:0:0:
452,56,81525,2,0,L|352:32,1,90,2|4,0:0|0:0,0:0:0:0:
324,56,81842,1,2,0:0:0:0:
324,56,81948,2,0,L|224:32,1,90,0|4,0:0|0:0,0:0:0:0:
148,12,82370,6,0,P|100:40|92:232,1,270,4|2,0:2|0:0,0:0:0:0:
156,296,83216,1,4,0:0:0:0:
240,264,83427,1,0,0:0:0:0:
240,264,83532,1,0,0:0:0:0:
240,264,83638,2,0,B|308:256|308:256|384:276,2,135,2|2|2,0:0|0:0|0:0,0:0:0:0:
156,296,84483,6,0,B|140:252|152:208|201:166|252:176|252:176|224:140|220:96|236:48|280:24,2,360,4|2|0,0:2|0:0|0:0,0:0:0:0:
224,352,86385,1,2,0:0:0:0:
300,308,86596,2,0,B|344:280|416:292|448:360|448:360|484:328|468:248,1,270,4|2,0:2|0:0,0:0:0:0:
440,188,87441,1,0,0:0:0:0:
440,188,87863,2,0,B|376:200|376:200|308:164,1,135,2|2,0:0|0:0,0:0:0:0:
276,140,88286,1,4,0:0:0:0:
208,256,88497,1,4,0:2:0:0:
152,104,88708,6,0,P|72:88|136:184,1,270,4|2,0:1|0:0,0:0:0:0:
220,156,89554,2,0,P|276:144|348:168,1,135,4|0,0:0|0:0,0:0:0:0:
384,196,89976,2,0,P|416:164|424:104,1,90,2|0,0:0|0:0,0:0:0:0:
396,36,90399,1,4,0:0:0:0:
308,12,90610,1,2,0:0:0:0:
220,28,90821,6,0,P|136:80|112:248,1,270,4|2,0:2|0:0,0:0:0:0:
160,316,91666,2,0,L|256:300,1,90,4|0,0:0|0:0,0:0:0:0:
276,336,91983,1,0,0:0:0:0:
276,336,92089,2,0,L|328:344,1,45,2|0,0:0|0:0,0:0:0:0:
356,312,92300,2,0,L|408:304,1,45,8|8,0:0|0:0,0:0:0:0:
428,340,92511,1,8,0:0:0:0:
440,296,92617,1,0,0:0:0:0:
452,252,92723,1,4,0:1:0:0:
464,208,92828,1,0,0:0:0:0:
476,164,92934,6,0,B|496:100|468:32|400:8|400:8|388:8,1,180,4|0,0:2|0:0,0:0:0:0:
356,84,93568,1,4,0:2:0:0:
356,84,93779,2,0,B|288:72|288:72|228:108,1,135,4|0,0:0|0:0,0:0:0:0:
192,128,94201,1,2,0:0:0:0:
148,132,94307,1,0,0:0:0:0:
104,120,94413,1,0,0:0:0:0:
44,52,94624,2,0,P|16:92|24:156,1,90,4|2,0:0|0:0,0:0:0:0:
48,216,95047,6,0,B|92:236|100:280|80:312|80:312|72:328|72:352|88:368|112:372|132:360|132:360|160:344|200:356,1,270,4|4,0:2|0:2,0:0:0:0:
276,376,95892,1,0,0:0:0:0:
252,288,96103,1,2,0:0:0:0:
252,288,96208,1,0,0:0:0:0:
252,288,96314,2,0,L|272:176,1,90,2|4,0:0|0:0,0:0:0:0:
300,168,96631,1,2,0:0:0:0:
300,168,96737,2,0,B|348:164|348:164|396:180,1,90,0|4,0:0|0:2,0:0:0:0:
444,248,97159,6,0,P|488:204|388:56,1,270,4|0,0:2|0:0,0:0:0:0:
312,84,98004,1,0,0:0:0:0:
272,100,98110,1,0,0:0:0:0:
228,112,98216,2,0,P|204:112|184:108,2,45,0|0|2,0:0|0:0|0:0,0:0:0:0:
284,180,98638,1,0,0:0:0:0:
224,244,98849,2,0,L|132:264,1,90,4|2,0:0|0:0,0:0:0:0:
92,276,99166,1,0,0:0:0:0:
92,276,99272,6,0,B|104:212|64:152|64:152|104:108|104:108|80:72|76:0,1,270,4|4,0:2|0:2,0:0:0:0:
168,12,100117,2,0,L|276:24,1,90,0|0,0:0|0:0,0:0:0:0:
304,28,100434,1,0,0:0:0:0:
304,28,100539,2,0,P|312:60|308:80,1,45,2|0,0:0|0:0,0:0:0:0:
284,108,100751,2,0,P|276:140|280:160,1,45,8|8,0:0|0:0,0:0:0:0:
300,188,100962,1,8,0:0:0:0:
256,184,101068,1,0,0:0:0:0:
212,196,101173,1,6,0:0:0:0:
180,228,101279,1,6,0:0:0:0:
156,268,101385,6,0,L|60:256,1,90,4|0,0:2|0:0,0:0:0:0:
28,280,101701,2,0,L|124:292,1,90,2|2,0:0|0:0,0:0:0:0:
148,324,102018,1,0,0:0:0:0:
232,296,102230,2,0,P|280:288|360:340,1,135,4|0,0:2|0:0,0:0:0:0:
380,364,102652,1,2,0:0:0:0:
392,320,102758,1,0,0:0:0:0:
404,276,102863,1,0,0:0:0:0:
416,232,102969,1,2,0:0:0:0:
428,188,103075,2,0,B|441:144|441:144|419:104,1,90,4|0,0:0|0:0,0:0:0:0:
352,44,103497,6,0,B|224:-6|224:102|90:44,1,270,4|2,0:2|0:0,0:0:0:0:
24,104,104342,2,0,L|48:200,1,90,0|0,0:0|0:0,0:0:0:0:
68,280,104765,1,2,0:0:0:0:
112,292,104870,1,0,0:0:0:0:
156,284,104976,1,0,0:0:0:0:
192,256,105082,1,2,0:0:0:0:
212,216,105187,1,4,0:0:0:0:
228,260,105293,1,4,0:0:0:0:
244,304,105399,2,0,L|260:360,1,45,4|0,0:1|0:0,0:0:0:0:
320,380,105610,6,0,P|372:380|428:192,1,270,4|2,0:2|0:0,0:0:0:0:
380,140,106455,2,0,B|349:109|349:109|380:79|380:79|345:45|345:45|380:10,2,180,4|0|8,0:0|0:0|0:0,0:0:0:0:
416,168,107406,1,0,0:0:0:0:
440,204,107511,1,2,0:0:0:0:
444,248,107617,1,0,0:0:0:0:
432,292,107723,6,0,B|392:328|336:320|312:272|312:272|268:336|268:336|240:292,1,270,4|2,0:2|0:0,0:0:0:0:
200,212,108568,2,0,P|152:200|72:240,1,135,4|0,0:0|0:0,0:0:0:0:
64,192,108990,1,2,0:0:0:0:
56,148,109096,1,0,0:0:0:0:
48,104,109201,2,0,L|60:52,1,45,8|8,0:0|0:0,0:0:0:0:
80,20,109413,1,12,0:0:0:0:
124,12,109518,1,0,0:0:0:0:
168,24,109624,1,4,0:1:0:0:
200,56,109730,1,0,0:0:0:0:
216,96,109835,6,0,P|249:76|308:72,1,90,4|0,0:2|0:0,0:0:0:0:
344,80,110152,2,0,P|378:99|410:147,1,90,2|2,0:0|0:0,0:0:0:0:
420,184,110469,2,0,P|420:209|403:243,1,45,4|0,0:2|0:0,0:0:0:0:
396,268,110680,1,4,0:0:0:0:
312,236,110892,1,0,0:0:0:0:
264,312,111103,1,2,0:0:0:0:
220,324,111208,1,2,0:0:0:0:
176,336,111314,1,0,0:0:0:0:
132,344,111420,1,0,0:0:0:0:
88,356,111525,1,4,0:0:0:0:
104,312,111631,1,0,0:0:0:0:
120,268,111737,1,2,0:0:0:0:
136,224,111842,1,0,0:0:0:0:
152,180,111948,6,0,P|164:96|128:48,2,135,4|4|4,0:2|0:2|0:1,0:0:0:0:
64,200,112793,1,4,0:0:0:0:
40,240,112899,1,0,0:0:0:0:
40,284,113004,1,2,0:0:0:0:
56,328,113110,1,0,0:0:0:0:
96,352,113216,1,2,0:0:0:0:
124,320,113321,1,2,0:0:0:0:
164,296,113427,1,0,0:0:0:0:
208,292,113532,1,2,0:0:0:0:
252,296,113638,2,0,P|270:304|292:324,1,45,4|0,0:0|0:0,0:0:0:0:
372,368,113849,2,0,P|364:348|363:319,1,45,4|0,0:1|0:0,0:0:0:0:
392,236,114061,6,0,B|456:196|464:96|404:48|404:48|376:36|364:12|364:12|328:116|328:116|220:56|112:128|72:208|96:284,1,720,4|0,0:1|0:0,0:0:0:0:
120,344,115962,1,2,0:0:0:0:
200,300,116173,6,0,L|300:288,1,90,4|0,0:2|0:0,0:0:0:0:
321,321,116490,2,0,L|421:309,1,90,2|2,0:2|0:0,0:0:0:0:
442,342,116807,1,0,0:0:0:0:
488,264,117018,2,0,P|492:212|472:168,1,90,4|4,0:0|0:2,0:0:0:0:
424,104,117441,2,0,B|376:136|376:136|304:92,1,135,2|0,0:0|0:0,0:0:0:0:
272,68,117863,2,0,B|224:100|224:100|152:56,1,135,2|2,0:0|0:0,0:0:0:0:
120,32,118286,5,4,0:2:0:0:
48,88,118497,2,0,L|36:136,1,45,0|4,0:0|0:1,0:0:0:0:
84,208,118814,2,0,L|96:256,1,45,2|0,0:0|0:0,0:0:0:0:
104,296,119025,1,0,0:0:0:0:
104,296,119131,2,0,P|160:288|196:300,1,90,2|4,0:0|0:0,0:0:0:0:
228,328,119448,1,2,0:0:0:0:
268,344,119554,1,4,0:2:0:0:
312,340,119659,1,0,0:0:0:0:
348,316,119765,1,0,0:0:0:0:
392,236,119976,2,0,P|396:188|376:144,1,90,4|2,0:0|0:0,0:0:0:0:
308,100,120399,6,0,P|212:136|104:20,1,270,4|2,0:2|0:0,0:0:0:0:
20,4,121244,1,4,0:0:0:0:
36,92,121455,1,0,0:0:0:0:
44,136,121561,1,0,0:0:0:0:
20,172,121666,2,0,P|24:228|44:272,1,90,4|0,0:2|0:0,0:0:0:0:
64,296,121983,1,4,0:0:0:0:
64,296,122089,2,0,B|116:280|116:280|160:292,1,90,12|4,0:0|0:2,0:0:0:0:
228,332,122511,6,0,P|300:352|448:236,1,270,4|2,0:2|0:0,0:0:0:0:
460,156,123356,1,4,0:0:0:0:
416,168,123462,1,0,0:0:0:0:
372,180,123568,1,0,0:0:0:0:
336,152,123673,1,0,0:0:0:0:
300,124,123779,2,0,B|256:116|256:116|208:128,1,90,4|0,0:2|0:0,0:0:0:0:
176,152,124096,1,0,0:0:0:0:
176,152,124201,2,0,L|144:60,1,90,4|0,0:2|0:0,0:0:0:0:
220,16,124624,6,0,P|312:0|364:20,1,135,4|2,0:2|0:0,0:0:0:0:
384,40,125047,2,0,B|428:52|428:52|480:40,1,90,2|4,0:0|0:0,0:0:0:0:
500,128,125469,1,4,0:0:0:0:
428,180,125680,1,0,0:0:0:0:
456,264,125892,1,2,0:0:0:0:
460,308,125997,1,2,0:0:0:0:
436,344,126103,1,0,0:0:0:0:
396,364,126208,1,2,0:0:0:0:
352,352,126314,2,0,P|328:344|304:344,1,45,4|0,0:0|0:0,0:0:0:0:
268,364,126525,2,0,P|245:362|224:355,1,45,4|0,0:1|0:0,0:0:0:0:
188,328,126737,6,0,B|152:224|152:224|188:144,1,180,4|0,0:2|0:0,0:0:0:0:
220,80,127370,1,4,0:2:0:0:
140,36,127582,1,4,0:2:0:0:
96,116,127793,2,0,L|76:156,1,45,4|0,0:0|0:0,0:0:0:0:
52,196,128004,2,0,P|48:280|72:328,1,135,4|0,0:2|0:0,0:0:0:0:
108,300,128427,2,0,B|152:292|152:292|208:308,1,90,4|0,0:2|0:0,0:0:0:0:
276,340,128849,5,4,0:0:0:0:
344,280,129061,1,2,0:0:0:0:
360,240,129166,1,0,0:0:0:0:
364,196,129272,1,4,0:0:0:0:
348,156,129378,1,0,0:0:0:0:
312,128,129483,1,2,0:0:0:0:
228,100,129694,2,0,L|124:120,1,90,4|0,0:0|0:0,0:0:0:0:
96,128,130011,1,0,0:0:0:0:
96,128,130117,2,0,B|120:68|120:68|92:0,1,135,4|0,0:2|0:0,0:0:0:0:
56,24,130539,1,4,0:2:0:0:
192,84,130751,1,2,0:0:0:0:
20,152,130962,6,0,P|4:208|140:344,1,270,4|2,0:2|0:0,0:0:0:0:
208,292,131807,1,4,0:0:0:0:
252,284,131913,1,0,0:0:0:0:
296,288,132018,1,0,0:0:0:0:
332,312,132124,1,0,0:0:0:0:
356,352,132230,2,0,L|376:200,1,135,4|0,0:2|0:0,0:0:0:0:
405,186,132652,2,0,L|385:34,1,135,4|0,0:2|0:0,0:0:0:0:
356,20,133075,6,0,P|312:88|136:96,1,270,4|2,0:2|0:0,0:0:0:0:
60,48,133920,1,4,0:0:0:0:
56,136,134131,1,0,0:0:0:0:
56,136,134237,1,0,0:0:0:0:
56,136,134342,1,4,0:2:0:0:
284,200,134765,1,4,0:1:0:0:
8,272,135187,6,0,L|24:328,1,45,0|2,0:0|0:0,0:0:0:0:
36,360,135399,1,0,0:0:0:0:
36,360,135504,2,0,P|88:344|140:352,1,90,4|0,0:2|0:0,0:0:0:0:
164,360,135821,1,0,0:0:0:0:
220,288,136032,2,0,P|272:304|324:296,1,90,4|0,0:2|0:0,0:0:0:0:
344,280,136349,1,0,0:0:0:0:
344,280,136455,2,0,B|400:268|400:268|472:296,1,135,4|0,0:2|0:0,0:0:0:0:
512,320,136878,2,0,L|492:192,1,90,4|2,0:2|0:0,0:0:0:0:
484,144,137300,6,0,P|432:72|252:48,1,270,4|2,0:2|0:0,0:0:0:0:
216,124,138145,1,4,0:0:0:0:
132,152,138356,1,0,0:0:0:0:
44,132,138568,1,2,0:0:0:0:
56,176,138673,1,2,0:0:0:0:
68,220,138779,1,4,0:0:0:0:
80,264,138885,1,2,0:0:0:0:
92,308,138990,2,0,L|144:288,1,45,12|4,0:0|0:0,0:0:0:0:
176,276,139201,2,0,L|228:296,1,45,4|0,0:1|0:0,0:0:0:0:
260,312,139413,6,0,P|336:328|476:208,1,270,4|2,0:2|0:0,0:0:0:0:
488,124,140258,1,0,0:0:0:0:
476,80,140363,1,0,0:0:0:0:
440,52,140469,1,0,0:0:0:0:
396,40,140575,1,0,0:0:0:0:
352,52,140680,2,0,B|304:64|304:64|248:52,1,90,2|0,0:0|0:0,0:0:0:0:
220,44,140997,1,2,0:0:0:0:
220,44,141103,2,0,L|248:152,1,90,4|2,0:2|0:0,0:0:0:0:
264,220,141525,6,0,P|248:288|188:188,1,270,4|2,0:2|0:0,0:0:0:0:
243,131,142370,2,0,L|335:139,1,90,0|0,0:0|0:0,0:0:0:0:
376,144,142687,1,0,0:0:0:0:
420,148,142793,2,0,P|428:176|428:196,1,45,4|0,0:2|0:0,0:0:0:0:
408,232,143004,2,0,P|409:254|416:275,1,45,8|0,0:0|0:0,0:0:0:0:
440,316,143216,1,8,0:0:0:0:
396,304,143321,1,0,0:0:0:0:
352,308,143427,1,2,0:2:0:0:
312,328,143532,1,0,0:0:0:0:
284,364,143638,6,0,B|242:346|242:346|192:352,1,90,4|0,0:2|0:0,0:0:0:0:
152,360,143955,2,0,B|107:365|107:365|66:347,1,90,2|2,0:0|0:0,0:0:0:0:
28,324,144272,1,4,0:2:0:0:
84,252,144483,2,0,P|104:204|92:140,1,90,4|0,0:0|0:0,0:0:0:0:
72,132,144800,1,0,0:0:0:0:
72,132,144906,2,0,B|144:148|144:148|208:112,1,135,4|0,0:2|0:0,0:0:0:0:
232,88,145328,1,2,0:0:0:0:
268,112,145434,1,0,0:0:0:0:
288,152,145539,1,2,0:0:0:0:
292,196,145645,1,0,0:0:0:0:
280,240,145751,6,0,P|328:232|408:276,2,135,4|2|0,0:2|0:0|0:0,0:0:0:0:
200,280,146596,2,0,L|96:268,1,90,4|2,0:0|0:0,0:0:0:0:
64,264,146913,1,2,0:0:0:0:
64,264,147018,2,0,B|40:200|40:200|60:128,1,135,4|2,0:2|0:0,0:0:0:0:
80,96,147441,1,12,0:0:0:0:
120,116,147547,1,4,0:0:0:0:
160,136,147652,1,4,0:2:0:0:
240,180,147863,6,0,P|316:192|408:40,1,270,4|2,0:2|0:0,0:0:0:0:
328,16,148708,1,4,0:0:0:0:
284,8,148814,1,0,0:0:0:0:
240,16,148920,1,0,0:0:0:0:
204,40,149025,1,0,0:0:0:0:
180,80,149131,2,0,B|164:120|164:120|176:172,1,90,4|0,0:2|0:0,0:0:0:0:
184,212,149448,1,0,0:0:0:0:
184,212,149554,2,0,L|56:192,1,90,4|0,0:2|0:0,0:0:0:0:
36,268,149976,6,0,L|220:296,1,180,4|0,0:2|0:0,0:0:0:0:
304,308,150610,1,4,0:2:0:0:
304,308,150821,2,0,P|320:252|312:212,1,90,0|0,0:0|0:0,0:0:0:0:
288,136,151244,2,0,P|348:112|432:128,2,135,2|2|2,0:0|0:0|0:0,0:0:0:0:
224,188,152089,6,0,L|136:176,1,67.5000025749208,6|0,0:2|0:0,0:0:0:0:
76,168,152511,1,0,0:0:0:0:
128,104,152723,1,0,0:0:0:0:
68,180,152934,2,0,P|64:220|72:252,1,67.5000025749208,8|0,0:0|0:0,0:0:0:0:
132,296,153356,2,0,P|138:329|133:362,1,67.5000025749208,0|0,0:0|0:0,0:0:0:0:
212,384,153779,1,0,0:0:0:0:
292,368,153990,1,0,0:0:0:0:
372,348,154201,6,0,L|448:360,2,67.5000025749208,2|0|0,0:0|0:0|0:0,0:0:0:0:
316,288,154835,1,0,0:0:0:0:
316,288,155047,2,0,P|304:240|312:208,1,67.5000025749208,8|0,0:0|0:0,0:0:0:0:
348,152,155469,2,0,P|349:118|338:86,1,67.5000025749208,0|0,0:0|0:0,0:0:0:0:
280,32,155892,1,0,0:0:0:0:
200,16,156103,1,0,0:0:0:0:
120,36,156314,6,0,P|88:80|84:172,1,135.000005149842,2|0,0:0|0:0,0:0:0:0:
116,232,156948,1,0,0:0:0:0:
116,232,157159,2,0,L|104:304,1,67.5000025749208,8|0,0:0|0:0,0:0:0:0:
176,336,157582,2,0,L|188:264,1,67.5000025749208,0|0,0:0|0:0,0:0:0:0:
244,212,158004,1,0,0:0:0:0:
312,256,158216,1,0,0:0:0:0:
224,200,158427,6,0,P|208:160|224:72,2,135.000005149842,2|0|8,0:0|0:0|0:0,0:0:0:0:
304,216,159483,1,2,0:3:0:0:
360,156,159694,1,0,3:0:0:0:
360,156,159800,1,2,3:0:0:0:
360,156,159906,1,0,3:0:0:0:
360,156,160011,1,0,3:0:0:0:
360,156,160117,2,0,L|432:172,1,67.5000025749208,4|8,3:0|0:0,0:0:0:0:
484,228,160539,6,0,P|488:272|480:296,1,67.5000025749208,2|0,0:0|0:0,0:0:0:0:
432,356,160962,1,0,0:0:0:0:
356,328,161173,1,0,0:0:0:0:
296,380,161385,2,0,L|216:368,1,67.5000025749208,8|0,0:0|0:0,0:0:0:0:
148,360,161807,1,0,0:0:0:0:
200,296,162018,1,0,0:0:0:0:
208,216,162230,1,0,0:0:0:0:
168,144,162441,1,0,0:0:0:0:
96,108,162652,6,0,L|240:80,2,135.000005149842,2|0|8,0:0|0:0|0:0,0:0:0:0:
32,156,163708,1,0,0:0:0:0:
8,232,163920,2,0,P|4:272|16:308,1,67.5000025749208,2|0,0:2|0:0,0:0:0:0:
88,324,164342,2,0,P|92:284|80:248,1,67.5000025749208,2|0,0:2|0:0,0:0:0:0:
8,232,164765,6,0,B|-8:164|-8:164|12:96,1,135.000005149842,2|0,0:0|0:0,0:0:0:0:
36,24,165399,1,0,0:0:0:0:
112,48,165610,2,0,L|184:36,1,67.5000025749208,8|0,0:0|0:0,0:0:0:0:
232,96,166032,2,0,L|304:84,1,67.5000025749208,0|0,0:0|0:0,0:0:0:0:
380,72,166455,1,2,0:2:0:0:
328,8,166666,1,0,0:0:0:0:
388,84,166878,6,0,P|400:124|376:212,2,135.000005149842,2|0|8,0:0|0:0|0:0,0:0:0:0:
308,80,167934,1,0,0:0:0:0:
272,152,168145,2,0,P|232:156|196:144,1,67.5000025749208,8|0,0:0|0:0,0:0:0:0:
136,112,168568,1,0,3:0:0:0:
136,112,168673,1,2,3:0:0:0:
136,112,168779,1,0,3:0:0:0:
136,112,168885,1,2,3:0:0:0:
136,112,168990,6,0,L|104:184,1,67.5000025749208,2|0,0:0|0:0,0:0:0:0:
56,236,169413,2,0,L|88:308,1,67.5000025749208,0|0,0:0|0:0,0:0:0:0:
120,368,169835,1,8,0:0:0:0:
184,320,170047,1,0,0:0:0:0:
260,296,170258,2,0,P|296:292|328:300,1,67.5000025749208,0|0,0:0|0:0,0:0:0:0:
392,348,170680,1,2,0:2:0:0:
392,348,171103,6,0,P|424:288|408:208,2,135.000005149842,2|0|8,0:0|0:0|0:0,0:0:0:0:
316,316,172159,1,0,0:0:0:0:
260,376,172370,2,0,L|188:368,1,67.5000025749208,2|0,0:2|0:0,0:0:0:0:
148,300,172793,2,0,L|76:292,1,67.5000025749208,2|0,0:2|0:0,0:0:0:0:
20,240,173216,6,0,P|8:160|32:100,1,135.000005149842,2|0,0:0|0:0,0:0:0:0:
76,48,173849,1,0,0:0:0:0:
152,80,174061,2,0,L|224:72,2,67.5000025749208,8|0|0,0:0|0:0|0:0,0:0:0:0:
96,140,174694,1,0,0:0:0:0:
80,220,174906,1,2,0:2:0:0:
108,296,175117,1,0,0:0:0:0:
180,332,175328,6,0,P|256:336|324:304,1,135.000005149842,2|0,0:0|0:0,0:0:0:0:
376,268,175962,1,0,0:0:0:0:
376,268,176173,2,0,P|392:308|388:340,2,67.5000025749208,8|0|0,0:0|0:0|0:0,0:0:0:0:
316,212,176807,1,0,0:0:0:0:
332,132,177018,1,0,3:0:0:0:
360,124,177124,1,2,3:0:0:0:
388,116,177230,1,0,3:0:0:0:
416,108,177335,1,2,3:0:0:0:
444,100,177441,5,4,2:0:0:0:
256,192,177547,12,2,179131,0:2:0:0:
