osu file format v14

[General]
AudioFilename: audio.mp3
AudioLeadIn: 0
PreviewTime: 50680
Countdown: 0
SampleSet: None
StackLeniency: 0.2
Mode: 0
LetterboxInBreaks: 0
WidescreenStoryboard: 0

[Editor]
Bookmarks: 50680,84483,92934,118286,152089,177441
DistanceSpacing: 1
BeatDivisor: 4
GridSize: 4
TimelineZoom: 1.4

[Metadata]
Title:Hymn To The Unobtainable
TitleUnicode:Hymn To The Unobtainable
Artist:The Flashbulb
ArtistUnicode:The Flashbulb
Creator:Mismagius
Version:Insane
Source:
Tags:nothing is real ambient benn jordan idm experimental yellowmanul
BeatmapID:1142273
BeatmapSetID:539042

[Difficulty]
HPDrainRate:6
CircleSize:5.2
OverallDifficulty:8
ApproachRate:8.6
SliderMultiplier:1.8
SliderTickRate:1

[Events]
//Background and Video events
0,0,"wallhaven-81840.jpg",0,0
//Break Periods
//Storyboard Layer 0 (Background)
//Storyboard Layer 1 (Fail)
//Storyboard Layer 2 (Pass)
//Storyboard Layer 3 (Foreground)
//Storyboard Sound Samples

[TimingPoints]
16878,422.535211267606,5,3,1,40,1,0
18990,-100,5,3,1,25,0,0
19096,-100,5,3,1,40,0,0
20892,-100,5,3,1,25,0,0
21525,-100,5,3,1,40,0,0
23216,-100,5,3,1,25,0,0
23638,-100,5,3,1,40,0,0
27441,-100,5,3,1,25,0,0
27547,-100,5,3,1,40,0,0
29342,-100,5,3,1,25,0,0
29554,-100,5,3,1,40,0,0
33779,-100,5,3,1,15,0,0
33990,-100,5,3,1,25,0,0
34624,-100,5,3,1,40,0,0
35892,-100,5,3,1,25,0,0
36314,-100,5,3,1,40,0,0
37793,-100,5,3,1,25,0,0
38004,-100,5,3,1,40,0,0
39061,-100,5,3,1,25,0,0
39483,-100,5,3,1,40,0,0
42547,-100,5,3,1,25,0,0
42758,-100,5,3,1,40,0,0
44342,-100,5,3,1,25,0,0
44659,-100,5,3,1,15,0,0
44976,-100,5,3,1,40,0,0
46244,-100,5,3,1,25,0,0
46455,-100,5,3,1,40,0,0
52793,-100,5,3,1,25,0,0
52899,-100,5,3,1,40,0,0
54694,-100,5,3,1,25,0,0
54906,-100,5,3,1,40,0,0
57018,-100,5,3,1,25,0,0
57124,-100,5,3,1,40,0,0
58920,-100,5,3,1,25,0,0
58999,-100,5,3,1,15,0,0
59131,-100,5,3,1,25,0,0
59765,-100,5,3,1,15,0,0
59976,-100,5,3,1,25,0,0
60187,-100,5,3,1,40,0,0
61244,-100,5,3,1,15,0,0
61455,-100,5,3,1,40,0,0
63145,-100,5,3,1,15,0,0
63356,-100,5,3,1,25,0,0
63990,-100,5,3,1,40,0,0
65469,-100,5,3,1,25,0,0
66103,-100,5,3,1,15,0,0
66525,-100,5,3,1,25,0,0
66737,-100,5,3,1,40,0,0
67582,-100,5,3,1,25,0,0
68004,-100,5,3,1,40,0,0
68427,-100,5,3,1,15,0,0
68638,-100,5,3,1,40,0,0
69694,-100,5,3,1,25,0,0
70328,-100,5,3,1,40,0,0
71596,-100,5,3,1,25,0,0
72441,-100,5,3,1,40,0,0
73075,-100,5,3,1,25,0,0
73286,-100,5,3,1,40,0,0
73920,-100,5,3,1,25,0,0
74342,-100,5,3,1,40,0,0
75821,-100,5,3,1,25,0,0
75927,-100,5,3,1,40,0,0
76032,-100,5,3,1,15,0,0
76244,-100,5,3,1,40,0,0
76666,-100,5,3,1,15,0,0
77089,-100,5,3,1,40,0,0
77300,-100,5,3,1,25,0,0
77511,-100,5,3,1,40,0,0
78145,-100,5,3,1,15,0,0
78779,-100,5,3,1,40,0,0
80258,-100,5,3,1,15,0,0
80680,-100,5,3,1,40,0,0
82370,-100,5,3,1,25,0,0
83004,-100,5,3,1,40,0,0
84483,-100,5,3,1,25,0,0
84589,-100,5,3,1,40,0,0
86596,-100,5,3,1,25,0,0
86701,-100,5,3,1,40,0,0
88497,-100,5,3,1,15,0,0
88708,-100,5,3,1,25,0,0
88814,-100,5,3,1,40,0,0
90821,-100,5,3,1,15,0,0
90927,-100,5,3,1,40,0,0
92723,-100,5,3,1,25,0,0
92828,-100,5,3,1,40,0,0
92934,-100,5,3,1,25,0,0
93039,-100,5,3,1,40,0,0
93568,-100,5,3,1,25,0,0
93779,-100,5,3,1,40,0,0
95047,-100,5,3,1,15,0,0
95152,-100,5,3,1,40,0,0
95680,-100,5,3,1,25,0,0
95892,-100,5,3,1,40,0,0
97159,-100,5,3,1,15,0,0
97265,-100,5,3,1,40,0,0
99272,-100,5,3,1,15,0,0
99378,-100,5,3,1,40,0,0
99906,-100,5,3,1,25,0,0
100117,-100,5,3,1,40,0,0
101385,-100,5,3,1,15,0,0
101596,-100,5,3,1,40,0,0
102230,-100,5,3,1,25,0,0
102335,-100,5,3,1,40,0,0
103497,-100,5,3,1,25,0,0
103603,-100,5,3,1,40,0,0
105610,-100,5,3,1,25,0,0
105716,-100,5,3,1,40,0,0
106772,-100,5,3,1,25,0,0
107300,-100,5,3,1,40,0,0
107723,-100,5,3,1,25,0,0
107828,-100,5,3,1,40,0,0
109624,-100,5,3,1,25,0,0
109730,-100,5,3,1,40,0,0
109835,-100,5,3,1,25,0,0
109941,-100,5,3,1,40,0,0
110469,-100,5,3,1,15,0,0
110680,-100,5,3,1,40,0,0
111948,-100,5,3,1,15,0,0
112265,-100,5,3,1,25,0,0
112582,-100,5,3,1,15,0,0
112793,-100,5,3,1,40,0,0
116173,-100,5,3,1,25,0,0
116385,-100,5,3,1,40,0,0
116490,-100,5,3,1,25,0,0
116701,-100,5,3,1,40,0,0
117230,-100,5,3,1,15,0,0
117441,-100,5,3,1,25,0,0
118180,-100,5,3,1,40,0,0
118286,-100,5,3,1,25,0,0
118603,-100,5,3,1,15,0,0
118814,-100,5,3,1,40,0,0
119554,-100,5,3,1,15,0,0
119659,-100,5,3,1,40,0,0
120399,-100,5,3,1,25,0,0
120504,-100,5,3,1,40,0,0
121666,-100,5,3,1,25,0,0
122511,-100,5,3,1,15,0,0
122617,-100,5,3,1,40,0,0
123779,-100,5,3,1,25,0,0
123885,-100,5,3,1,40,0,0
124201,-100,5,3,1,25,0,0
124413,-100,5,3,1,40,0,0
124624,-100,5,3,1,25,0,0
124941,-100,5,3,1,40,0,0
126525,-100,5,3,1,15,0,0
126737,-100,5,3,1,25,0,0
126842,-100,5,3,1,40,0,0
127370,-100,5,3,1,15,0,0
127793,-100,5,3,1,40,0,0
128004,-100,5,3,1,25,0,0
128427,-100,5,3,1,40,0,0
130117,-100,5,3,1,15,0,0
130328,-100,5,3,1,40,0,0
130539,-100,5,3,1,25,0,0
130751,-100,5,3,1,40,0,0
130962,-100,5,3,1,15,0,0
131068,-100,5,3,1,40,0,0
132230,-100,5,3,1,15,0,0
132652,-100,5,3,1,25,0,0
133180,-100,5,3,1,40,0,0
135504,-100,5,3,1,15,0,0
135716,-100,5,3,1,25,0,0
136455,-100,5,3,1,15,0,0
137089,-100,5,3,1,40,0,0
137300,-100,5,3,1,15,0,0
137406,-100,5,3,1,40,0,0
139413,-100,5,3,1,25,0,0
139518,-100,5,3,1,40,0,0
141103,-100,5,3,1,25,0,0
141525,-100,5,3,1,15,0,0
141631,-100,5,3,1,40,0,0
142793,-100,5,3,1,15,0,0
142899,-100,5,3,1,40,0,0
143427,-100,5,3,1,25,0,0
143532,-100,5,3,1,40,0,0
143638,-100,5,3,1,15,0,0
143849,-100,5,3,1,40,0,0
144272,-100,5,3,1,15,0,0
144694,-100,5,3,1,40,0,0
144906,-100,5,3,1,25,0,0
145011,-100,5,3,1,40,0,0
145751,-100,5,3,1,15,0,0
145856,-100,5,3,1,40,0,0
147018,-100,5,3,1,25,0,0
147124,-100,5,3,1,40,0,0
147652,-100,5,3,1,25,0,0
147863,-100,5,3,1,15,0,0
147969,-100,5,3,1,40,0,0
149131,-100,5,3,1,15,0,0
149342,-100,5,3,1,25,0,0
149765,-100,5,3,1,40,0,0
150082,-100,5,3,1,15,0,0
150821,-100,5,3,1,40,0,0
152089,-133.333333333333,5,2,1,20,0,0

[Colours]
Combo1 : 171,205,192
Combo2 : 224,220,163
Combo3 : 213,151,151
Combo4 : 190,179,221

[HitObjects]
256,192,12652,12,2,15821,0:0:0:0:
394,96,16032,5,0,0:0:0:0:
410,128,16138,1,2,0:0:0:0:
414,164,16244,1,0,0:0:0:0:
410,200,16349,1,0,0:0:0:0:
390,228,16455,2,0,P|362:220|334:224,1,45,2|0,0:0|0:0,0:0:0:0:
230,248,16666,2,0,P|238:220|234:192,1,45,2|0,0:0|0:0,0:0:0:0:
200,32,16877,6,0,P|128:20|48:88,1,180,4|0,0:1|0:0,0:0:0:0:
160,176,17511,1,4,0:0:0:0:
276,92,17723,2,0,L|372:104,1,90,4|0,0:0|0:0,0:0:0:0:
424,80,18039,1,2,0:0:0:0:
424,80,18145,2,0,P|436:128|424:172,1,90,4|2,0:0|0:0,0:0:0:0:
324,276,18568,1,4,0:0:0:0:
456,384,18779,1,2,0:0:0:0:
427,167,18990,6,0,P|372:100|196:120,1,270,4|2,0:1|0:0,0:0:0:0:
124,228,19835,2,0,P|124:280|140:320,1,90,4|0,0:0|0:0,0:0:0:0:
168,332,20152,1,0,0:0:0:0:
220,288,20258,1,2,0:0:0:0:
252,276,20363,1,0,0:0:0:0:
288,280,20469,2,0,P|305:296|315:326,1,45,4|2,0:0|0:0,0:0:0:0:
300,376,20680,1,0,0:0:0:0:
432,268,20892,1,4,0:2:0:0:
176,216,21103,6,0,P|100:168|104:80,1,180,4|0,0:1|0:0,0:0:0:0:
232,48,21737,1,2,0:0:0:0:
56,0,21948,1,4,0:0:0:0:
56,0,22054,1,0,0:0:0:0:
212,148,22265,1,0,0:0:0:0:
212,148,22370,2,0,P|256:144|308:120,1,90,4|2,0:0|0:0,0:0:0:0:
432,64,22793,1,4,0:0:0:0:
494,197,23004,1,4,0:0:0:0:
361,259,23216,6,0,B|273:297|273:220|185:259,1,180,4|0,0:1|0:0,0:0:0:0:
0,348,23849,1,2,0:0:0:0:
72,212,24061,1,4,0:0:0:0:
234,329,24272,1,0,0:0:0:0:
278,337,24377,1,0,0:0:0:0:
322,333,24483,1,2,0:0:0:0:
362,309,24589,1,0,0:0:0:0:
382,269,24694,6,8,L|403:271,1,22.5,12|8,0:0|0:0,0:0:0:0:
370,223,24800,2,8,L|389:213,1,22.5
343,185,24906,1,6,0:0:0:0:
302,172,25011,1,6,0:0:0:0:
257,178,25117,2,0,P|234:194|223:217,1,45,4|0,0:1|0:0,0:0:0:0:
196,276,25328,6,0,P|144:288|56:200,1,180,4|0,0:1|0:0,0:0:0:0:
264,64,25962,1,4,0:1:0:0:
72,0,26173,1,2,0:0:0:0:
29,186,26385,1,0,0:0:0:0:
57,210,26490,1,0,0:0:0:0:
93,214,26596,2,0,P|125:210|153:194,2,45,2|4|2,0:0|0:0|0:0,0:0:0:0:
72,0,27018,1,4,0:0:0:0:
264,64,27230,1,2,0:0:0:0:
93,214,27441,6,0,P|85:262|165:366,1,180,4|0,0:1|0:0,0:0:0:0:
308,292,28075,1,2,0:0:0:0:
424,376,28286,2,0,P|469:377|517:354,1,90,4|2,0:0|0:0,0:0:0:0:
476,308,28603,1,2,0:0:0:0:
476,308,28708,2,0,B|468:264|468:264|492:200,1,90,2|4,0:0|0:0,0:0:0:0:
512,152,29025,1,2,0:0:0:0:
508,164,29131,1,4,0:0:0:0:
316,272,29342,1,4,0:2:0:0:
352,52,29554,6,0,P|296:12|188:20,1,180,4|0,3:1|0:0,0:0:0:0:
108,160,30187,1,2,0:0:0:0:
260,116,30399,1,4,0:0:0:0:
296,122,30504,1,0,0:0:0:0:
327,140,30610,1,4,0:0:0:0:
349,171,30716,1,0,0:0:0:0:
355,208,30821,5,2,0:0:0:0:
324,364,31032,1,4,0:0:0:0:
512,260,31244,1,8,0:0:0:0:
280,156,31455,1,2,0:0:0:0:
260,116,31561,1,0,0:0:0:0:
276,76,31666,6,0,P|296:36|420:12,1,180,4|0,0:1|0:0,0:0:0:0:
512,124,32300,1,2,0:0:0:0:
364,148,32511,2,0,P|356:192|372:240,1,90,4|0,0:0|0:0,0:0:0:0:
392,260,32828,1,0,0:0:0:0:
456,272,32934,2,0,L|472:320,1,45,12|0,0:0|0:0,0:0:0:0:
492,384,33145,1,6,0:0:0:0:
320,311,33356,6,0,P|308:313|297:316,1,22.5,12|0,0:0|0:0,0:0:0:0:
296,271,33462,2,0,P|289:280|283:290,1,22.5,4|0,0:0|0:0,0:0:0:0:
260,244,33568,1,6,0:0:0:0:
212,236,33673,1,6,0:0:0:0:
164,252,33779,6,0,P|116:256|68:228,1,90,4|0,0:2|0:0,0:0:0:0:
132,180,34096,2,0,P|178:166|213:123,1,90,4|0,0:1|0:0,0:0:0:0:
136,101,34413,1,4,0:1:0:0:
14,236,34624,6,0,L|32:329,1,90,2|0,0:0|0:0,0:0:0:0:
92,364,34941,1,0,0:0:0:0:
92,364,35047,2,0,P|116:364|144:376,1,45,2|0,0:0|0:0,0:0:0:0:
176,308,35258,2,0,P|192:324|204:353,1,45,4|2,0:0|0:0,0:0:0:0:
274,327,35469,1,4,0:0:0:0:
112,276,35680,1,2,0:0:0:0:
344,220,35892,6,0,B|416:200|464:240|464:240|440:256|408:252,1,180,4|0,0:1|0:0,0:0:0:0:
272,180,36525,1,2,0:0:0:0:
392,120,36737,2,0,P|400:76|380:28,1,90,4|0,0:0|0:0,0:0:0:0:
352,16,37054,1,0,0:0:0:0:
296,48,37159,1,2,0:0:0:0:
260,56,37265,1,0,0:0:0:0:
224,48,37370,2,0,P|216:20|216:4,1,45,4|2,0:0|0:0,0:0:0:0:
164,92,37582,2,0,L|184:184,1,90,4|4,0:0|0:2,0:0:0:0:
216,336,38004,6,0,B|304:374|304:297|392:336,1,180,4|0,0:1|0:0,0:0:0:0:
512,384,38638,1,2,0:0:0:0:
428,252,38849,1,4,0:0:0:0:
409,221,38954,1,0,0:0:0:0:
404,185,39061,6,0,L|372:184,1,22.5,4|0,0:0|0:0,0:0:0:0:
412,151,39166,2,0,L|384:136,1,22.5
432,121,39272,2,0,L|408:92,1,22.5
462,102,39378,2,0,L|456:72,1,22.5
500,96,39483,1,4,0:0:0:0:
500,256,39694,1,4,0:0:0:0:
332,144,39906,1,2,0:0:0:0:
226,328,40117,6,0,P|170:344|70:272,1,180,4|0,0:1|0:0,0:0:0:0:
152,108,40751,1,2,0:0:0:0:
264,276,40962,2,0,L|280:384,1,90,4|0,0:0|0:0,0:0:0:0:
352,376,41279,1,0,0:0:0:0:
352,376,41385,2,0,P|364:348|360:328,1,45,2|0,0:0|0:0,0:0:0:0:
336,268,41596,6,0,L|325:247,1,22.5,8|8,0:0|0:0,0:0:0:0:
371,258,41701,2,0,L|369:235,1,22.5,8|8,0:0|0:0,0:0:0:0:
409,260,41807,1,8,0:0:0:0:
452,272,41913,1,4,0:0:0:0:
484,304,42018,2,0,P|488:332|484:348,1,45,4|0,0:1|0:0,0:0:0:0:
500,172,42230,6,0,P|480:124|492:76,1,90,4|0,0:1|0:0,0:0:0:0:
508,24,42547,2,0,B|464:16|464:16|420:24,1,90,4|0,0:1|0:0,0:0:0:0:
360,56,42863,1,4,0:0:0:0:
300,156,43075,2,0,B|256:164|256:164|212:156,1,90,4|0,0:0|0:0,0:0:0:0:
152,112,43392,1,0,0:0:0:0:
152,112,43497,2,0,P|136:132|128:152,1,45,2|0,0:0|0:0,0:0:0:0:
66,187,43708,2,0,P|58:166|56:144,1,45,0|2,0:0|0:0,0:0:0:0:
10,233,43920,2,0,P|27:247|48:257,1,45,4|0,0:0|0:0,0:0:0:0:
84,318,44131,2,0,P|63:326|40:328,1,45,2|0,0:0|0:0,0:0:0:0:
48,257,44342,6,0,P|113:252|153:303,2,135,4|4|0,0:1|0:2|0:0,0:0:0:0:
0,140,45187,2,0,L|16:48,1,90,4|0,0:0|0:0,0:0:0:0:
24,16,45504,1,2,0:0:0:0:
80,44,45610,1,2,0:0:0:0:
116,52,45716,1,0,0:0:0:0:
152,48,45821,1,4,0:0:0:0:
184,32,45927,1,2,0:0:0:0:
204,4,46032,5,12,0:0:0:0:
244,48,46138,1,10,0:0:0:0:
284,92,46244,1,4,0:2:0:0:
400,232,46455,6,0,P|302:226|234:273,1,180,4|0,0:1|0:0,0:0:0:0:
176,384,47089,1,2,0:0:0:0:
140,220,47300,1,4,0:0:0:0:
108,204,47406,1,0,0:0:0:0:
72,200,47511,1,0,0:0:0:0:
36,208,47617,1,0,0:0:0:0:
8,232,47723,2,0,P|28:180|16:136,1,90,14|2,0:0|0:0,0:0:0:0:
0,40,48145,1,4,0:0:0:0:
136,84,48356,2,0,P|148:84|168:80,3,22.5,4|0|4|0,0:0|0:0|0:0|0:0,0:0:0:0:
176,76,48568,6,0,P|260:60|336:120,1,180,4|4,0:1|0:0,0:0:0:0:
380,256,49201,1,2,0:0:0:0:
440,144,49413,1,4,0:0:0:0:
487,287,49624,6,0,L|516:312,1,22.5,12|0,0:0|0:0,0:0:0:0:
464,316,49730,2,0,L|480:350,1,22.5
431,333,49835,2,0,L|433:371,1,22.5,12|0,0:0|0:0,0:0:0:0:
394,337,49941,2,0,L|381:373,1,22.5
360,320,50047,1,0,0:0:0:0:
340,288,50152,1,0,0:0:0:0:
356,244,50258,5,4,0:0:0:0:
356,200,50363,1,4,0:0:0:0:
336,160,50469,1,12,0:0:0:0:
296,140,50575,1,4,0:0:0:0:
236,156,50680,6,0,P|184:160|144:144,1,90,4|0,0:1|0:0,0:0:0:0:
84,296,51103,1,0,0:0:0:0:
84,296,51208,2,0,L|76:324,2,22.5,4|0|0,0:0|0:0|0:0,0:0:0:0:
216,240,51525,2,0,P|268:236|308:252,1,90,8|0,0:0|0:0,0:0:0:0:
332,272,51842,1,0,0:0:0:0:
364,321,51948,1,6,0:0:0:0:
418,342,52054,1,4,0:0:0:0:
475,334,52159,1,0,0:0:0:0:
500,160,52370,1,4,0:0:0:0:
332,272,52582,1,6,0:0:0:0:
256,52,52793,6,0,P|160:40|100:96,1,180,4|0,0:1|0:0,0:0:0:0:
44,224,53427,1,2,0:0:0:0:
184,192,53638,2,0,P|232:196|272:224,1,90,4|0,0:0|0:0,0:0:0:0:
284,252,53955,1,0,0:0:0:0:
272,324,54061,1,6,0:0:0:0:
304,336,54166,1,0,0:0:0:0:
340,336,54272,1,0,0:0:0:0:
372,320,54378,1,2,0:0:0:0:
392,288,54483,1,4,0:0:0:0:
312,252,54694,1,4,0:2:0:0:
480,136,54906,6,0,P|492:88|412:0,1,180,4|0,0:1|0:0,0:0:0:0:
364,176,55539,1,2,0:0:0:0:
172,96,55751,2,0,P|144:100|120:112,1,45
84,156,55962,1,0,0:0:0:0:
76,200,56068,1,0,0:0:0:0:
120,188,56173,1,2,0:0:0:0:
164,200,56279,1,0,0:0:0:0:
192,236,56385,1,0,0:0:0:0:
192,280,56490,1,2,0:0:0:0:
176,320,56596,1,4,0:0:0:0:
0,148,56807,1,2,0:0:0:0:
192,236,57018,6,0,P|264:236|320:192,1,135,4|2,0:1|0:0,0:0:0:0:
336,144,57441,2,0,L|368:228,1,90,2|4,0:0|0:0,0:0:0:0:
432,384,57863,2,0,L|464:300,1,90,4|0,0:0|0:0,0:0:0:0:
296,196,58286,5,2,0:0:0:0:
253,182,58391,1,2,0:0:0:0:
208,181,58497,1,0,0:0:0:0:
166,196,58602,1,2,0:0:0:0:
123,211,58708,1,0,0:0:0:0:
78,210,58814,1,2,0:0:0:0:
36,196,58920,2,0,P|28:177|24:158,2,33.75,4|4|0,0:1|0:1|0:0,0:0:0:0:
78,210,59131,6,0,P|112:260|109:335,2,135,4|0|4,0:2|0:0|0:2,0:0:0:0:
0,344,59976,1,4,0:1:0:0:
78,210,60187,1,0,0:0:0:0:
94,178,60293,1,0,0:0:0:0:
94,138,60399,2,0,P|93:114|82:94,1,45,2|0,0:0|0:0,0:0:0:0:
28,132,60610,1,0,0:0:0:0:
208,56,60821,1,4,0:0:0:0:
264,248,61032,1,2,0:0:0:0:
400,88,61244,6,0,P|356:72|304:84,1,90,4|2,0:2|0:0,0:0:0:0:
288,104,61561,1,0,0:0:0:0:
440,168,61772,1,6,0:0:0:0:
472,180,61878,1,0,0:0:0:0:
288,104,62089,2,0,L|192:132,1,90,0|6,0:0|0:0,0:0:0:0:
168,140,62406,1,0,0:0:0:0:
132,152,62511,2,0,P|112:132|108:108,1,45,6|0,0:0|0:0,0:0:0:0:
152,40,62723,2,0,P|172:60|176:84,1,45,0|12,0:0|0:0,0:0:0:0:
168,140,62934,1,4,0:0:0:0:
256,384,63145,1,4,0:2:0:0:
348,152,63356,6,0,B|384:124|438:130|471:176|471:176|438:109|502:109|471:49,1,270,4|2,0:1|0:0,0:0:0:0:
312,16,64201,1,4,0:0:0:0:
296,48,64307,1,0,0:0:0:0:
268,68,64413,1,0,0:0:0:0:
232,76,64518,1,0,0:0:0:0:
196,64,64624,2,0,P|168:60|140:64,1,45,2|0,0:0|0:0,0:0:0:0:
100,92,64835,1,4,0:0:0:0:
236,172,65047,1,4,0:0:0:0:
32,224,65258,1,2,0:0:0:0:
32,224,65363,1,8,0:0:0:0:
11,308,65469,6,0,P|90:287|51:140,1,270,4|4,0:1|0:2,0:0:0:0:
11,308,66314,2,0,P|49:338|93:337,1,90,4|0,0:1|0:0,0:0:0:0:
143,311,66631,1,0,0:0:0:0:
143,311,66737,2,0,P|150:333|145:360,1,45,4|0,0:0|0:0,0:0:0:0:
112,252,66948,2,0,L|100:228,2,22.5,2|2|0,0:0|0:0|0:0,0:0:0:0:
176,196,67159,2,0,P|169:174|174:147,1,45,4|0,0:0|0:0,0:0:0:0:
207,255,67370,2,0,L|219:279,2,22.5,2|2|0,0:0|0:0|0:0,0:0:0:0:
248,192,67582,6,0,B|292:184|292:184|340:204,1,90,4|0,0:1|0:0,0:0:0:0:
384,240,67899,2,0,B|423:248|423:248|467:226,1,90,4|0,0:1|0:0,0:0:0:0:
480,220,68163,1,0,0:0:0:0:
491,214,68216,2,0,P|493:197|489:169,1,45
436,120,68427,2,0,P|428:72|448:32,1,90,4|0,0:2|0:0,0:0:0:0:
388,0,68744,1,0,0:0:0:0:
388,0,68849,2,0,B|352:28|352:28|304:20,1,90,4|4,0:0|0:0,0:0:0:0:
272,8,69166,1,2,0:0:0:0:
236,20,69272,1,0,0:0:0:0:
120,112,69483,1,2,0:0:0:0:
316,176,69694,6,0,P|368:160|304:240,1,270,4|2,3:1|0:0,0:0:0:0:
308,104,70539,2,0,P|362:94|414:109,1,90,4|0,0:0|0:0,0:0:0:0:
451,139,70856,1,0,0:0:0:0:
451,139,70962,2,0,P|483:143|507:139,1,45,2|0,0:0|0:0,0:0:0:0:
395,100,71173,2,0,P|361:93|338:94,1,45,4|2,0:0|0:0,0:0:0:0:
288,116,71385,2,0,P|240:116|200:88,1,90,4|4,0:0|0:2,0:0:0:0:
64,4,71807,6,0,B|30:40|34:128|110:144|110:144|86:192|126:184|102:232,1,270,4|2,0:1|0:0,0:0:0:0:
52,364,72652,1,4,0:0:0:0:
80,344,72758,1,0,0:0:0:0:
116,336,72863,1,0,0:0:0:0:
152,340,72969,1,0,0:0:0:0:
184,356,73075,6,0,L|216:372,1,22.5,12|0,0:0|0:0,0:0:0:0:
204,328,73180,2,0,L|232:328,1,22.5
204,292,73286,1,0,0:0:0:0:
188,260,73392,1,2,0:0:0:0:
156,244,73497,2,0,P|132:200|144:156,1,90,4|2,0:0|0:0,0:0:0:0:
268,28,73920,6,0,P|332:20|428:108,1,180,4|0,0:1|0:0,0:0:0:0:
428,148,74448,1,0,0:0:0:0:
428,148,74554,1,2,0:0:0:0:
324,252,74765,2,0,P|320:276|324:300,1,45,4|0,0:0|0:0,0:0:0:0:
376,348,74976,1,0,0:0:0:0:
420,360,75082,1,0,0:0:0:0:
464,352,75187,1,2,0:0:0:0:
492,316,75293,1,0,0:0:0:0:
496,272,75399,6,0,L|528:264,1,22.5,10|2,0:0|0:0,0:0:0:0:
476,232,75504,2,0,L|496:208,1,22.5,10|2,0:0|0:0,0:0:0:0:
436,212,75610,1,4,0:0:0:0:
392,220,75716,1,0,0:0:0:0:
360,252,75821,2,0,P|340:268|320:272,1,45,4|0,0:2|0:0,0:0:0:0:
256,248,76032,6,0,P|213:240|170:254,1,90,4|2,0:2|0:0,0:0:0:0:
117,289,76349,2,0,P|73:297|30:283,1,90,2|0,0:0|0:0,0:0:0:0:
0,228,76666,1,4,0:2:0:0:
136,376,76878,1,4,0:2:0:0:
184,140,77089,1,0,0:0:0:0:
192,96,77194,1,0,0:0:0:0:
172,56,77300,2,0,P|128:40|76:44,1,90,4|0,0:2|0:0,0:0:0:0:
32,80,77617,1,0,0:0:0:0:
32,80,77723,2,0,P|21:103|20:128,1,45,4|0,0:0|0:0,0:0:0:0:
112,176,77934,2,0,P|102:155|99:133,1,45,2|0,0:0|0:0,0:0:0:0:
172,56,78145,6,4,P|216:40|268:44,1,90,4|0,0:2|0:0,0:2:0:0:
318,72,78462,2,0,P|362:73|404:57,1,90,4|0,0:2|0:0,0:0:0:0:
448,8,78779,1,2,0:0:0:0:
376,152,78990,2,0,L|400:240,1,90,4|2,0:0|0:0,0:0:0:0:
444,288,79307,1,2,0:0:0:0:
444,288,79413,2,0,P|472:292|496:288,1,45,2|0,0:0|0:0,0:0:0:0:
388,340,79624,2,0,P|360:336|336:340,1,45,4|2,0:0|0:0,0:0:0:0:
284,360,79835,5,14,0:0:0:0:
220,352,79941,1,6,0:0:0:0:
180,304,80047,1,4,0:2:0:0:
228,80,80258,6,0,P|188:124|64:120,1,180,4|0,0:1|0:0,0:0:0:0:
20,12,80892,1,2,0:0:0:0:
0,200,81103,1,4,0:0:0:0:
24,228,81208,1,0,0:0:0:0:
60,240,81314,1,0,0:0:0:0:
96,236,81420,1,0,0:0:0:0:
128,216,81525,2,0,P|136:264|116:308,1,90,2|4,0:0|0:0,0:0:0:0:
80,348,81842,1,2,0:0:0:0:
92,384,81948,1,0,0:0:0:0:
220,272,82159,2,0,L|236:256,3,22.5,4|0|0|0,0:0|0:0|0:0|0:0,0:0:0:0:
252,244,82370,6,0,P|292:228|436:368,1,270,4|2,0:2|0:0,0:0:0:0:
464,244,83216,2,0,P|432:208|384:180,1,90,4|0,0:0|0:0,0:0:0:0:
360,170,83532,2,0,L|372:132,1,22.5
320,165,83638,2,0,P|300:128|312:36,2,135,2|2|2,0:0|0:0|0:0,0:0:0:0:
464,244,84483,6,0,B|452:313|353:336|315:305|278:174|408:212|440:249|420:345|347:360,2,360,4|2|0,0:2|0:0|0:0,0:0:0:0:
392,88,86385,1,2,0:0:0:0:
240,176,86596,6,0,B|180:204|120:184|88:124|88:124|52:160|68:208,1,270,4|2,0:2|0:0,0:0:0:0:
124,332,87441,1,0,0:0:0:0:
319,97,87863,2,0,P|261:66|196:77,1,135,2|2,0:0|0:0,0:0:0:0:
160,128,88286,1,4,0:0:0:0:
284,0,88497,1,4,0:2:0:0:
356,164,88708,6,0,B|393:249|316:249|354:337,1,180,4|0,0:1|0:0,0:0:0:0:
448,288,89342,1,2,0:0:0:0:
264,208,89554,1,4,0:0:0:0:
224,204,89659,1,0,0:0:0:0:
188,220,89765,2,0,L|168:196,1,22.5
164,252,89870,2,0,L|140:244,1,22.5
164,292,89976,2,0,P|168:320|164:352,2,45,2|0|0,0:0|0:0|0:0,0:0:0:0:
56,220,90399,1,4,0:0:0:0:
236,276,90610,1,2,0:0:0:0:
216,80,90821,6,0,P|264:24|444:36,1,270,4|2,0:2|0:0,0:0:0:0:
492,176,91666,2,0,P|488:224|460:260,1,90,4|0,0:0|0:0,0:0:0:0:
404,280,91983,1,0,0:0:0:0:
368,260,92089,2,0,P|344:260|312:272,1,45,2|0,0:0|0:0,0:0:0:0:
276,300,92300,6,0,L|264:336,1,22.5,8|0,0:0|0:0,0:0:0:0:
236,288,92406,2,0,L|248:252,1,22.5,8|0,0:0|0:0,0:0:0:0:
196,276,92511,1,8,0:0:0:0:
139,264,92617,1,0,0:0:0:0:
82,276,92723,1,4,0:1:0:0:
40,316,92828,1,0,0:0:0:0:
12,368,92934,6,0,P|80:320|76:148,1,270,4|4,0:2|0:2,0:0:0:0:
4,56,93779,2,0,P|44:64|108:44,1,90,4|0,0:0|0:0,0:0:0:0:
144,20,94096,1,0,0:0:0:0:
144,20,94201,2,0,L|164:64,1,45,2|0,0:0|0:0,0:0:0:0:
188,120,94413,1,0,0:0:0:0:
252,24,94624,1,4,0:0:0:0:
312,172,94835,1,2,0:0:0:0:
408,0,95047,6,0,B|454:3|501:62|474:122|474:122|454:156|449:195|469:226,1,270,4|4,0:2|0:2,0:0:0:0:
512,344,95892,2,0,P|460:364|416:356,1,90,0|2,0:0|0:0,0:0:0:0:
396,344,96208,1,0,0:0:0:0:
360,288,96314,1,2,0:0:0:0:
328,308,96420,1,0,0:0:0:0:
292,304,96525,1,4,0:0:0:0:
260,284,96631,1,2,0:0:0:0:
248,248,96737,1,0,0:0:0:0:
380,148,96948,1,4,0:2:0:0:
188,72,97159,6,0,B|128:40|60:64|40:124|40:124|68:164|120:156,1,270,4|2,0:2|0:0,0:0:0:0:
272,104,98004,1,0,0:0:0:0:
308,92,98110,1,0,0:0:0:0:
344,100,98216,1,0,0:0:0:0:
368,124,98321,1,0,0:0:0:0:
384,156,98427,1,2,0:0:0:0:
408,124,98532,1,0,0:0:0:0:
432,92,98638,1,0,0:0:0:0:
504,0,98849,1,4,0:0:0:0:
448,176,99061,1,2,0:0:0:0:
452,220,99166,1,0,0:0:0:0:
476,256,99272,6,0,B|486:279|468:324|412:339|402:321|426:271|311:320|363:337|369:357|320:387|275:369|265:345,1,270,4|4,0:2|0:2,0:0:0:0:
180,236,100117,2,0,P|136:232|80:256,1,90
44,284,100434,1,0,0:0:0:0:
56,312,100539,2,0,P|56:336|52:360,1,45,2|0,0:0|0:0,0:0:0:0:
20,228,100751,2,0,L|8:200,2,22.5,8|8|8,0:0|0:0|0:0,0:0:0:0:
104,176,100962,2,0,P|104:152|108:128,1,45,8|0,0:0|0:0,0:0:0:0:
148,80,101173,1,6,0:0:0:0:
212,72,101279,1,6,0:0:0:0:
268,96,101385,6,0,P|320:108|368:96,1,90,4|0,0:2|0:0,0:0:0:0:
400,56,101701,2,0,P|444:49|487:61,1,90,2|2,0:0|0:0,0:0:0:0:
512,120,102018,1,0,0:0:0:0:
352,216,102230,2,0,B|344:260|344:260|360:304,1,90,4|0,0:2|0:0,0:0:0:0:
407,347,102547,1,0,0:0:0:0:
407,347,102652,2,0,P|435:347|455:339,1,45,2|0,0:0|0:0,0:0:0:0:
423,279,102863,2,0,P|442:259|451:239,1,45,0|2,0:0|0:0,0:0:0:0:
419,181,103075,1,4,0:0:0:0:
299,323,103286,1,0,0:0:0:0:
204,60,103497,6,0,B|228:28|300:35|316:91|316:91|253:147|244:88|182:137,1,270,4|2,0:2|0:0,0:0:0:0:
148,244,104342,2,0,P|140:292|152:340,1,90
200,368,104659,1,0,0:0:0:0:
232,336,104765,1,2,0:0:0:0:
276,324,104870,1,0,0:0:0:0:
320,332,104976,2,0,P|344:338|368:356,1,45,0|2,0:0|0:0,0:0:0:0:
416,380,105187,5,4,0:0:0:0:
464,340,105293,1,4,0:0:0:0:
464,276,105399,1,4,0:2:0:0:
364,100,105610,6,0,B|324:76|272:80|232:112|232:112|216:120|200:116|196:100|208:80|208:80|224:44|188:12,1,270,4|2,0:2|0:0,0:0:0:0:
36,16,106455,1,4,0:0:0:0:
28,60,106561,1,0,0:0:0:0:
40,104,106666,1,0,0:0:0:0:
72,136,106772,2,0,L|88:116,1,22.5
112,156,106878,2,0,L|136:140,1,22.5
140,192,106983,2,0,L|168:184,1,22.5
152,236,107089,2,0,L|180:240,1,22.5
140,280,107194,2,0,L|164:296,1,22.5
112,316,107300,5,8,0:0:0:0:
60,293,107406,1,0,0:0:0:0:
38,241,107511,1,2,0:0:0:0:
40,184,107617,1,0,0:0:0:0:
72,136,107723,6,0,B|144:92|208:132|232:176|232:176|244:200|268:224|304:220,1,270,4|2,0:2|0:0,0:0:0:0:
460,220,108568,2,0,P|481:180|475:129,1,90,4|0,0:0|0:0,0:0:0:0:
456,96,108885,1,0,0:0:0:0:
420,68,108990,2,0,P|394:69|376:76,1,45,2|0,0:0|0:0,0:0:0:0:
336,120,109201,6,0,L|328:152,3,22.5,8|8|8|8,0:0|0:0|0:0|0:0,0:0:0:0:
320,172,109413,1,12,0:0:0:0:
268,204,109518,1,0,0:0:0:0:
204,200,109624,1,4,0:1:0:0:
152,164,109730,1,0,0:0:0:0:
136,104,109835,6,0,L|152:16,1,90,4|0,0:2|0:0,0:0:0:0:
88,28,110152,2,0,L|72:116,1,90,2|2,0:0|0:0,0:0:0:0:
60,180,110469,1,4,0:2:0:0:
248,100,110680,2,0,P|296:96|344:120,1,90,4|0,0:0|0:0,0:0:0:0:
376,160,110997,1,0,0:0:0:0:
402,226,111103,5,2,0:0:0:0:
402,226,111208,1,2,0:0:0:0:
402,226,111314,2,0,P|394:270|398:290,1,45
490,242,111525,2,0,P|498:198|494:178,1,45,4|0,0:0|0:0,0:0:0:0:
454,314,111737,2,0,P|446:358|450:378,1,45,2|0,0:0|0:0,0:0:0:0:
436,156,111948,6,0,P|444:112|388:36,2,135,4|4|4,0:2|0:2|0:1,0:0:0:0:
352,248,112793,1,4,0:0:0:0:
308,260,112899,1,0,0:0:0:0:
264,252,113004,1,2,0:0:0:0:
228,224,113110,1,0,0:0:0:0:
212,180,113216,2,0,L|220:128,1,45,2|2,0:0|0:0,0:0:0:0:
148,236,113427,2,0,L|140:288,1,45,0|2,0:0|0:0,0:0:0:0:
96,148,113638,1,4,0:0:0:0:
96,148,113744,1,0,0:0:0:0:
28,264,113849,2,0,L|20:316,1,45,4|0,0:1|0:0,0:0:0:0:
96,148,114061,6,0,B|136:92|136:40|96:-12|28:-8|28:-8|4:8|-12:76|52:104|52:104|140:60|140:140|228:100,1,540,4|4,0:1|0:0,0:0:0:0:
268,60,115434,1,0,0:0:0:0:
280,72,115539,1,2,0:0:0:0:
360,160,115751,1,0,0:0:0:0:
408,16,115962,2,0,P|432:8|448:8,3,22.5,2|2|2|0,0:0|0:0|0:0|0:0,0:0:0:0:
452,8,116173,6,4,P|480:40|480:96,1,90,4|0,0:2|0:0,0:2:0:0:
448,140,116490,2,0,P|450:184|479:217,1,90,2|2,0:2|0:0,0:0:0:0:
512,232,116807,1,0,0:0:0:0:
408,320,117018,2,0,L|304:312,1,90,4|4,0:0|0:2,0:0:0:0:
200,248,117441,6,0,P|184:248|168:252,6,22.5,2|0|0|0|0|0|0,0:0|0:0|0:0|0:0|0:0|0:0|0:0,0:0:0:0:
240,188,117863,2,0,P|256:188|272:184,4,22.5,2|0|0|0|0,0:0|0:0|0:0|0:0|0:0,0:0:0:0:
320,152,118180,1,2,0:0:0:0:
320,152,118286,6,0,P|368:148|416:180,1,90,4|0,0:2|0:0,0:0:0:0:
448,212,118603,1,4,0:1:0:0:
488,72,118814,2,0,L|496:40,2,22.5,2|0|0,0:0|0:0|0:0,0:0:0:0:
432,96,119025,1,0,0:0:0:0:
376,72,119131,2,0,P|328:60|288:72,1,90,2|4,0:0|0:0,0:0:0:0:
240,108,119448,1,2,0:0:0:0:
180,128,119554,1,4,0:2:0:0:
120,108,119659,1,0,0:0:0:0:
84,56,119765,1,0,0:0:0:0:
256,0,119976,1,4,0:0:0:0:
228,176,120187,1,2,0:0:0:0:
32,128,120399,6,0,B|6:182|27:220|73:241|73:241|119:262|140:299|115:354,1,270,4|2,0:2|0:0,0:0:0:0:
95,168,121244,2,0,P|127:140|183:136,1,90,4|0,0:0|0:0,0:0:0:0:
228,168,121561,1,0,0:0:0:0:
248,228,121666,6,0,L|264:88,1,135,4|4,0:2|0:0,0:0:0:0:
272,32,122089,1,12,0:0:0:0:
344,220,122300,1,4,0:2:0:0:
412,8,122511,6,0,B|453:-21|505:-5|536:40|524:92|481:118|437:106|437:106|401:134|373:118,1,270,4|2,0:2|0:0,0:0:0:0:
344,220,123356,1,4,0:0:0:0:
336,264,123462,1,0,0:0:0:0:
352,304,123568,1,0,0:0:0:0:
384,336,123673,1,0,0:0:0:0:
452,340,123779,6,0,P|472:292|464:244,1,90,4|0,0:2|0:0,0:0:0:0:
424,172,124096,1,0,0:0:0:0:
344,220,124201,2,0,P|296:216|256:184,1,90,4|0,0:2|0:0,0:0:0:0:
184,16,124624,6,0,P|180:68|124:132,1,135,4|2,0:2|0:0,0:0:0:0:
72,152,125047,1,2,0:0:0:0:
12,24,125258,1,4,0:0:0:0:
236,116,125469,2,0,P|284:120|324:104,1,90,4|0,0:0|0:0,0:0:0:0:
358,53,125786,1,0,0:0:0:0:
419,36,125892,1,2,0:0:0:0:
404,96,125997,1,2,0:0:0:0:
416,157,126103,1,0,0:0:0:0:
451,208,126208,1,2,0:0:0:0:
509,231,126314,2,0,P|513:271|489:319,1,90,4|4,0:0|0:1,0:0:0:0:
240,232,126737,6,0,P|156:224|76:296,1,180,4|0,0:2|0:0,0:0:0:0:
208,360,127370,1,4,0:2:0:0:
260,136,127582,1,4,0:2:0:0:
84,280,127793,2,0,P|56:280|36:276,1,45,4|0,0:0|0:0,0:0:0:0:
8,212,128004,6,0,P|4:164|64:88,1,135,4|0,0:2|0:0,0:0:0:0:
168,116,128427,2,0,P|220:120|180:84,1,135,4|0,0:2|0:0,0:0:0:0:
104,168,128849,6,0,B|96:212|96:212|116:256,1,90,4|2,0:0|0:0,0:0:0:0:
280,352,129272,1,4,0:0:0:0:
336,320,129378,1,0,0:0:0:0:
352,260,129483,1,2,0:0:0:0:
168,284,129694,2,0,L|188:376,1,90,4|0,0:0|0:0,0:0:0:0:
232,284,130011,1,0,0:0:0:0:
115,253,130117,6,0,L|95:161,1,90,4|0,0:2|0:0,0:0:0:0:
20,124,130434,1,0,0:0:0:0:
144,80,130539,2,0,L|164:172,1,90,4|2,0:2|0:0,0:0:0:0:
228,352,130962,6,0,P|288:368|416:232,1,270,4|2,0:2|0:0,0:0:0:0:
372,36,131807,1,4,0:0:0:0:
308,28,131913,1,0,0:0:0:0:
252,60,132018,1,0,0:0:0:0:
236,120,132124,1,0,0:0:0:0:
256,180,132230,6,0,P|320:188|380:148,1,135,4|0,0:2|0:0,0:0:0:0:
172,116,132652,2,0,P|146:56|82:24,1,135,4|0,0:2|0:0,0:0:0:0:
164,224,133075,6,0,P|156:328|260:260,1,270,4|2,0:2|0:0,0:0:0:0:
236,136,133920,2,0,L|252:44,1,90,4|0,0:0|0:0,0:0:0:0:
296,0,134237,1,0,0:0:0:0:
356,20,134342,5,4,0:2:0:0:
8,176,134765,1,4,0:1:0:0:
408,224,135187,5,0,0:0:0:0:
408,224,135293,2,0,L|448:232,2,22.5,2|2|0,0:0|0:0|0:0,0:0:0:0:
341,213,135504,2,0,P|325:257|333:305,1,90,4|0,0:2|0:0,0:0:0:0:
337,313,135768,1,0,0:0:0:0:
345,329,135821,1,0,0:0:0:0:
400,156,136032,6,0,L|376:60,1,90,4|0,0:2|0:0,0:0:0:0:
360,8,136349,1,0,0:0:0:0:
316,52,136455,2,0,P|264:68|208:56,1,90,4|0,0:2|0:0,0:0:0:0:
172,40,136772,1,0,0:0:0:0:
120,8,136878,1,4,0:2:0:0:
12,136,137089,1,2,0:0:0:0:
212,180,137300,6,0,P|248:232|148:380,1,270,4|2,0:2|0:0,0:0:0:0:
104,192,138145,2,0,L|136:104,1,90,4|0,0:0|0:0,0:0:0:0:
161,50,138462,1,0,0:0:0:0:
161,50,138568,1,2,0:0:0:0:
201,98,138673,1,2,0:0:0:0:
261,110,138779,1,4,0:0:0:0:
325,98,138885,1,2,0:0:0:0:
380,64,138990,5,12,0:0:0:0:
400,132,139096,1,4,0:0:0:0:
420,200,139201,1,4,0:1:0:0:
464,372,139413,6,0,P|384:296|240:328,1,270,4|2,0:2|0:0,0:0:0:0:
140,224,140258,1,0,0:0:0:0:
80,216,140363,1,0,0:0:0:0:
24,248,140469,2,0,L|12:296,1,45
104,336,140680,5,2,0:0:0:0:
144,288,140786,1,2,0:0:0:0:
140,224,140892,1,0,0:0:0:0:
92,184,140997,1,2,0:0:0:0:
28,184,141103,5,4,0:2:0:0:
164,348,141314,1,2,0:0:0:0:
244,60,141525,6,0,P|304:48|400:112,1,180,4|0,0:2|0:0,0:0:0:0:
424,180,142054,1,0,0:0:0:0:
432,160,142159,1,2,0:0:0:0:
296,248,142370,1,0,0:0:0:0:
288,284,142476,1,0,0:0:0:0:
292,320,142582,1,0,0:0:0:0:
304,352,142687,1,0,0:0:0:0:
372,316,142793,5,4,0:2:0:0:
384,272,142899,1,0,0:0:0:0:
376,228,143004,2,0,L|408:212,1,22.5,8|0,0:0|0:0,0:0:0:0:
348,192,143110,1,0,0:0:0:0:
276,160,143216,5,8,0:0:0:0:
232,204,143321,1,0,0:0:0:0:
172,220,143427,1,2,0:2:0:0:
112,208,143532,1,0,0:0:0:0:
68,164,143638,6,0,P|56:102|74:70,1,90,4|0,0:2|0:0,0:0:0:0:
116,40,143955,2,0,P|177:28|209:46,1,90,2|2,0:0|0:0,0:0:0:0:
244,84,144272,1,4,0:2:0:0:
300,272,144483,2,0,L|396:256,1,90,4|0,0:0|0:0,0:0:0:0:
344,200,144800,1,0,0:0:0:0:
312,344,144906,6,0,P|248:356|176:320,1,135,4|0,0:2|0:0,0:0:0:0:
148,276,145328,1,2,0:0:0:0:
156,212,145434,1,0,0:0:0:0:
208,176,145539,1,2,0:0:0:0:
208,176,145645,1,0,0:0:0:0:
156,212,145751,6,0,P|104:220|32:168,2,135,4|2|2,0:2|0:0|0:0,0:0:0:0:
304,112,146596,2,0,L|404:128,1,90,4|2,0:0|0:0,0:0:0:0:
448,184,146913,1,2,0:0:0:0:
348,208,147018,6,0,P|328:264|356:336,1,135,4|2,0:2|0:0,0:0:0:0:
416,368,147441,1,12,0:0:0:0:
484,344,147547,1,4,0:0:0:0:
504,276,147652,1,4,0:2:0:0:
288,356,147863,6,0,P|220:368|140:288,1,180,4|4,0:2|0:0,0:0:0:0:
220,164,148497,1,2,0:0:0:0:
32,200,148708,1,4,0:0:0:0:
24,236,148814,1,0,0:0:0:0:
28,272,148920,1,0,0:0:0:0:
44,304,149025,1,0,0:0:0:0:
76,324,149131,6,0,P|92:276|88:236,1,90,4|0,0:2|0:0,0:0:0:0:
32,200,149448,1,0,0:0:0:0:
120,160,149554,2,0,P|122:115|107:73,1,90,4|0,0:2|0:0,0:0:0:0:
196,228,149976,6,0,P|256:252|424:136,1,270,4|4,0:2|0:2,0:0:0:0:
264,28,150821,2,0,P|261:72|276:114,1,90
308,138,151138,2,0,L|340:122,1,22.5,2|0,0:0|0:0,0:0:0:0:
313,175,151244,2,0,P|336:239|331:307,2,135,2|2|2,0:0|0:0|0:0,0:0:0:0:
168,120,152089,6,0,L|92:108,1,67.5000025749208,6|0,0:2|0:0,0:0:0:0:
16,96,152511,1,0,0:0:0:0:
76,32,152723,1,0,0:0:0:0:
48,176,152934,2,0,P|48:232|96:292,2,135.000005149842,8|0|0,0:0|0:0|0:0,0:0:0:0:
101,109,153990,1,0,0:0:0:0:
148,184,154201,6,0,P|188:200|224:200,1,67.5000025749208,2|0,0:0|0:0,0:0:0:0:
296,180,154624,2,0,P|329:153|347:122,1,67.5000025749208
376,52,155047,1,8,0:0:0:0:
296,12,155258,1,0,0:0:0:0:
376,52,155469,2,0,L|448:36,1,67.5000025749208
488,112,155892,2,0,L|416:128,1,67.5000025749208
376,200,156314,6,0,P|372:248|420:320,1,135.000005149842,2|0,0:0|0:0,0:0:0:0:
496,280,156948,1,0,0:0:0:0:
460,200,157159,2,0,P|455:171|472:128,1,67.5000025749208,8|0,0:0|0:0,0:0:0:0:
396,84,157582,2,0,P|400:55|384:12,1,67.5000025749208
304,4,158004,1,0,0:0:0:0:
224,40,158216,1,0,0:0:0:0:
196,124,158427,6,0,L|212:196,1,67.5000025749208,2|0,0:0|0:0,0:0:0:0:
284,236,158849,2,0,L|300:164,1,67.5000025749208
320,84,159272,1,8,0:0:0:0:
380,196,159483,1,2,0:3:0:0:
424,36,159694,1,0,3:0:0:0:
452,32,159800,1,2,3:0:0:0:
480,40,159906,1,0,3:0:0:0:
500,56,160011,1,0,3:0:0:0:
512,80,160117,2,0,L|492:156,1,67.5000025749208,4|8,3:0|0:0,0:0:0:0:
468,224,160539,5,2,0:0:0:0:
392,200,160751,1,0,0:0:0:0:
352,272,160962,2,0,P|304:268|284:256,1,67.5000025749208
224,208,161385,2,0,P|224:241|210:272,1,67.5000025749208,8|0,0:0|0:0,0:0:0:0:
144,320,161807,1,0,0:0:0:0:
68,296,162018,1,0,0:0:0:0:
56,216,162230,1,0,0:0:0:0:
132,240,162441,1,0,0:0:0:0:
68,296,162652,6,0,P|60:336|68:368,1,67.5000025749208,2|0,0:0|0:0,0:0:0:0:
132,240,163075,2,0,P|140:200|132:168,1,67.5000025749208
80,116,163497,1,8,0:0:0:0:
124,48,163708,1,0,0:0:0:0:
200,72,163920,2,0,L|272:56,1,67.5000025749208,2|0,0:2|0:0,0:0:0:0:
312,124,164342,2,0,L|240:140,1,67.5000025749208,2|0,0:2|0:0,0:0:0:0:
216,212,164765,6,0,P|208:264|272:336,1,135.000005149842,2|0,0:0|0:0,0:0:0:0:
332,348,165399,1,0,0:0:0:0:
404,312,165610,2,0,P|412:280|396:240,1,67.5000025749208,8|0,0:0|0:0,0:0:0:0:
360,180,166032,2,0,P|352:148|368:108,1,67.5000025749208
432,72,166455,1,2,0:2:0:0:
312,44,166666,1,0,0:0:0:0:
464,16,166878,6,0,P|496:60|460:132,2,135.000005149842,2|0|8,0:0|0:0|0:0,0:0:0:0:
312,44,167934,1,0,0:0:0:0:
432,72,168145,1,8,0:0:0:0:
362,115,168356,1,0,0:0:0:0:
300,20,168568,1,0,3:0:0:0:
276,12,168673,1,2,3:0:0:0:
248,12,168779,1,0,3:0:0:0:
224,20,168885,1,2,3:0:0:0:
204,36,168990,6,0,P|156:68|120:68,1,67.5000025749208,2|0,0:0|0:0,3:0:0:0:
80,116,169413,2,0,P|128:148|164:148,1,67.5000025749208
212,120,169835,1,8,0:0:0:0:
188,200,170047,1,0,0:0:0:0:
264,224,170258,2,0,L|248:292,1,67.5000025749208
220,364,170680,1,2,0:2:0:0:
168,304,170892,1,0,0:0:0:0:
304,348,171103,6,0,P|336:356|372:360,1,67.5000025749208,2|0,0:0|0:0,0:0:0:0:
440,268,171525,2,0,P|408:276|372:280,1,67.5000025749208
308,232,171948,1,8,0:0:0:0:
288,152,172159,1,0,0:0:0:0:
316,76,172370,1,2,0:2:0:0:
388,44,172582,1,0,0:0:0:0:
316,76,172793,2,0,P|272:76|240:64,1,67.5000025749208,2|0,0:2|0:0,0:0:0:0:
188,20,173216,6,0,P|128:16|60:64,1,135.000005149842,2|0,0:0|0:0,0:0:0:0:
36,128,173849,1,0,0:0:0:0:
108,164,174061,2,0,P|136:136|144:104,1,67.5000025749208,8|0,0:0|0:0,0:0:0:0:
36,128,174483,2,0,P|8:156|0:188,1,67.5000025749208
32,256,174906,1,2,0:2:0:0:
104,296,175117,1,0,0:0:0:0:
180,268,175328,6,0,L|248:260,1,67.5000025749208,2|0,0:0|0:0,0:0:0:0:
304,316,175751,2,0,L|372:308,1,67.5000025749208
428,364,176173,2,0,L|496:356,2,67.5000025749208,8|0|0,0:0|0:0|0:0,0:0:0:0:
371,308,176807,1,0,0:0:0:0:
408,236,177018,1,0,3:0:0:0:
424,200,177124,1,2,3:0:0:0:
420,160,177230,1,0,3:0:0:0:
404,124,177335,1,2,3:0:0:0:
368,104,177441,5,4,2:0:0:0:
256,192,177547,12,2,179131,0:2:0:0:
