osu file format v14

[General]
AudioFilename: audio.mp3
AudioLeadIn: 0
PreviewTime: 50680
Countdown: 0
SampleSet: None
StackLeniency: 0.5
Mode: 0
LetterboxInBreaks: 0
WidescreenStoryboard: 1

[Editor]
Bookmarks: 50680,84483,92934,118286,152089,177441
DistanceSpacing: 1
BeatDivisor: 8
GridSize: 4
TimelineZoom: 0.1999998

[Metadata]
Title:Hymn To The Unobtainable
TitleUnicode:Hymn To The Unobtainable
Artist:The Flashbulb
ArtistUnicode:The Flashbulb
Creator:Mismagius
Version:Easy
Source:
Tags:nothing is real ambient benn jordan idm experimental yellowmanul
BeatmapID:1388356
BeatmapSetID:539042

[Difficulty]
HPDrainRate:2
CircleSize:3.5
OverallDifficulty:2
ApproachRate:3
SliderMultiplier:1
SliderTickRate:1

[Events]
//Background and Video events
0,0,"wallhaven-81840.jpg",0,0
//Break Periods
//Storyboard Layer 0 (Background)
//Storyboard Layer 1 (Fail)
//Storyboard Layer 2 (Pass)
//Storyboard Layer 3 (Foreground)
//Storyboard Sound Samples

[TimingPoints]
16878,422.535211267606,5,3,1,40,1,0
18990,-100,5,3,1,25,0,0
19096,-100,5,3,1,40,0,0
20892,-100,5,3,1,25,0,0
21525,-100,5,3,1,40,0,0
23216,-100,5,3,1,25,0,0
23638,-100,5,3,1,40,0,0
27441,-100,5,3,1,25,0,0
27547,-100,5,3,1,40,0,0
33779,-100,5,3,1,15,0,0
34624,-100,5,3,1,40,0,0
35892,-100,5,3,1,25,0,0
36314,-100,5,3,1,40,0,0
39061,-100,5,3,1,25,0,0
39483,-100,5,3,1,40,0,0
44342,-100,5,3,1,25,0,0
46455,-100,5,3,1,40,0,0
52793,-100,5,3,1,25,0,0
52899,-100,5,3,1,40,0,0
57018,-100,5,3,1,25,0,0
57124,-100,5,3,1,40,0,0
59131,-100,5,3,1,25,0,0
60187,-100,5,3,1,40,0,0
61244,-100,5,3,1,15,0,0
61455,-100,5,3,1,40,0,0
63356,-100,5,3,1,25,0,0
63990,-100,5,3,1,40,0,0
65469,-100,5,3,1,25,0,0
66103,-100,5,3,1,15,0,0
66737,-100,5,3,1,40,0,0
67582,-100,5,3,1,25,0,0
68427,-100,5,3,1,15,0,0
68638,-100,5,3,1,40,0,0
69694,-100,5,3,1,25,0,0
70328,-100,5,3,1,40,0,0
71596,-100,5,3,1,25,0,0
72441,-100,5,3,1,40,0,0
73075,-100,5,3,1,25,0,0
73286,-100,5,3,1,40,0,0
73920,-100,5,3,1,25,0,0
74342,-100,5,3,1,40,0,0
76032,-100,5,3,1,15,0,0
77300,-100,5,3,1,25,0,0
77511,-100,5,3,1,40,0,0
78145,-100,5,3,1,15,0,0
78779,-100,5,3,1,40,0,0
80258,-100,5,3,1,15,0,0
80680,-100,5,3,1,40,0,0
82370,-100,5,3,1,25,0,0
83004,-100,5,3,1,40,0,0
84483,-100,5,3,1,25,0,0
84589,-100,5,3,1,40,0,0
86596,-100,5,3,1,25,0,0
86701,-100,5,3,1,40,0,0
88708,-100,5,3,1,25,0,0
88814,-100,5,3,1,40,0,0
90821,-100,5,3,1,15,0,0
90927,-100,5,3,1,40,0,0
92934,-100,5,3,1,25,0,0
93039,-100,5,3,1,40,0,0
95047,-100,5,3,1,15,0,0
95152,-100,5,3,1,40,0,0
97159,-100,5,3,1,15,0,0
97265,-100,5,3,1,40,0,0
99272,-100,5,3,1,15,0,0
99378,-100,5,3,1,40,0,0
101385,-100,5,3,1,15,0,0
101596,-100,5,3,1,40,0,0
102230,-100,5,3,1,25,0,0
102335,-100,5,3,1,40,0,0
103497,-100,5,3,1,25,0,0
103603,-100,5,3,1,40,0,0
105610,-100,5,3,1,25,0,0
107300,-100,5,3,1,40,0,0
107723,-100,5,3,1,25,0,0
107828,-100,5,3,1,40,0,0
109835,-100,5,3,1,25,0,0
109941,-100,5,3,1,40,0,0
111948,-100,5,3,1,15,0,0
112793,-100,5,3,1,40,0,0
116173,-100,5,3,1,25,0,0
116701,-100,5,3,1,40,0,0
117230,-100,5,3,1,15,0,0
117441,-100,5,3,1,25,0,0
118814,-100,5,3,1,40,0,0
119554,-100,5,3,1,15,0,0
119659,-100,5,3,1,40,0,0
120399,-100,5,3,1,25,0,0
120504,-100,5,3,1,40,0,0
121666,-100,5,3,1,25,0,0
122511,-100,5,3,1,15,0,0
122617,-100,5,3,1,40,0,0
123779,-100,5,3,1,25,0,0
124941,-100,5,3,1,40,0,0
126737,-100,5,3,1,25,0,0
127370,-100,5,3,1,15,0,0
128004,-100,5,3,1,25,0,0
128427,-100,5,3,1,40,0,0
130117,-100,5,3,1,15,0,0
130539,-100,5,3,1,25,0,0
130962,-100,5,3,1,15,0,0
131068,-100,5,3,1,40,0,0
132230,-100,5,3,1,15,0,0
132652,-100,5,3,1,25,0,0
133180,-100,5,3,1,40,0,0
135716,-100,5,3,1,25,0,0
136455,-100,5,3,1,15,0,0
137406,-100,5,3,1,40,0,0
139413,-100,5,3,1,25,0,0
139518,-100,5,3,1,40,0,0
141103,-100,5,3,1,25,0,0
141525,-100,5,3,1,15,0,0
141631,-100,5,3,1,40,0,0
142793,-100,5,3,1,15,0,0
142899,-100,5,3,1,40,0,0
143638,-100,5,3,1,15,0,0
144906,-100,5,3,1,25,0,0
145011,-100,5,3,1,40,0,0
145751,-100,5,3,1,15,0,0
145856,-100,5,3,1,40,0,0
147018,-100,5,3,1,25,0,0
147124,-100,5,3,1,40,0,0
147863,-100,5,3,1,15,0,0
147969,-100,5,3,1,40,0,0
149131,-100,5,3,1,15,0,0
149342,-100,5,3,1,25,0,0
149765,-100,5,3,1,40,0,0
152089,-133.333333333333,5,2,1,20,0,0

[Colours]
Combo1 : 171,205,192
Combo2 : 224,220,163
Combo3 : 213,151,151
Combo4 : 190,179,221

[HitObjects]
256,192,12652,12,0,15610,0:0:0:0:
380,36,16877,6,0,P|408:68|416:224,1,200,4|0,0:1|0:0,0:0:0:0:
372,308,18145,1,4,0:0:0:0:
276,280,18568,1,4,0:0:0:0:
200,344,18990,6,0,B|148:312|72:312|24:368|24:368|-16:320|4:264,1,300,4|2,0:1|0:0,0:0:0:0:
40,176,20680,1,0,0:0:0:0:
132,136,21103,6,0,P|220:136|324:212,1,200,4|4,0:1|0:0,0:0:0:0:
348,288,22370,2,0,P|392:300|444:288,1,100,4|2,0:0|0:0,0:0:0:0:
500,204,23216,6,0,P|508:136|428:32,1,200,4|4,0:1|0:0,0:0:0:0:
334,20,24483,2,0,P|302:20|270:32,2,50,2|12|2,0:0|0:0|0:0,0:0:0:0:
366,116,25328,6,0,B|411:212|320:212|366:308,1,200,4|2,0:1|0:0,0:0:0:0:
434,380,26596,1,2,0:0:0:0:
491,298,27018,1,4,0:0:0:0:
464,200,27441,6,0,P|392:152|280:156,1,200,4|4,0:1|0:0,0:0:0:0:
188,184,28708,2,0,P|140:188|88:156,1,100,2|4,0:0|0:0,0:0:0:0:
16,100,29554,6,0,P|40:64|280:48,1,300,4|2,3:1|0:0,0:0:0:0:
352,100,31244,1,8,0:0:0:0:
276,168,31666,6,0,B|230:264|321:264|276:360,1,200,4|4,0:1|0:0,0:0:0:0:
188,312,32934,2,0,P|160:308|136:312,2,50,12|6|12,0:0|0:0|0:0,0:0:0:0:
276,359,33779,6,0,P|352:376|444:296,1,200,4|2,0:2|0:0,0:0:0:0:
476,212,35047,1,2,0:0:0:0:
400,148,35469,1,4,0:0:0:0:
444,60,35892,6,0,P|356:60|356:235,1,300,4|2,0:1|0:0,0:0:0:0:
444,264,37582,1,4,0:0:0:0:
360,336,38004,6,0,B|324:376|268:384|216:376|216:376|192:336|128:316|84:344,1,300,4|2,0:1|0:0,0:0:0:0:
4,380,39694,1,4,0:0:0:0:
12,280,40117,6,0,P|56:252|208:251,1,200,4|0,0:1|0:0,0:0:0:0:
288,296,41385,2,0,P|336:304|396:288,1,100,2|8,0:0|0:0,0:0:0:0:
464,228,42230,6,0,P|484:172|408:44,1,200,4|4,0:1|0:0,0:0:0:0:
329,23,43497,1,2,0:0:0:0:
279,110,43920,1,4,0:0:0:0:
187,70,44342,6,0,B|127:42|51:66|31:146|31:146|71:178|71:242,1,300,4|2,0:1|0:0,0:0:0:0:
36,327,46032,1,12,0:0:0:0:
134,310,46455,6,0,B|186:294|238:314|266:362|266:362|314:374|362:370|394:318,1,300,4|2,0:1|0:0,0:0:0:0:
427,224,48145,1,4,0:0:0:0:
366,144,48568,6,0,P|294:120|190:180,1,200,4|4,0:1|0:0,0:0:0:0:
131,257,49835,2,0,P|103:225|95:161,1,100,12|4,0:0|0:0,0:0:0:0:
110,70,50680,6,0,L|310:30,1,200,4|4,0:1|0:0,0:0:0:0:
404,47,51948,2,0,P|424:75|428:143,1,100,6|4,0:0|0:0,0:0:0:0:
387,229,52793,6,0,P|315:233|207:153,1,200,4|0,0:1|0:0,0:0:0:0:
176,70,54061,1,2,0:0:0:0:
83,106,54483,1,4,0:0:0:0:
119,199,54906,6,0,P|189:243|353:135,1,300,4|2,0:1|0:0,0:0:0:0:
387,46,56596,1,4,0:0:0:0:
476,96,57018,6,0,P|488:148|440:292,1,200,4|4,0:1|0:0,0:0:0:0:
368,348,58286,2,0,P|336:352|304:344,2,50,2|0|0,0:0|0:0|0:0,0:0:0:0:
351,249,59131,6,0,B|254:204|255:295|159:252,1,200,4|4,0:2|0:1,0:0:0:0:
68,208,60399,1,2,0:0:0:0:
160,164,60821,1,4,0:0:0:0:
110,76,61244,6,0,B|206:31|205:122|301:79,1,200,4|0,0:2|0:0,0:0:0:0:
395,44,62512,1,6,0:0:0:0:
381,142,62934,1,4,0:0:0:0:
301,79,63356,6,0,P|230:82|146:182,1,200,4|0,0:1|0:0,0:0:0:0:
89,254,64624,2,0,P|101:293|151:331,1,100,2|4,0:0|0:0,0:0:0:0:
244,308,65469,6,0,P|292:296|436:356,1,200,4|4,0:1|0:1,0:0:0:0:
493,271,66737,1,4,0:0:0:0:
431,192,67159,1,4,0:0:0:0:
483,105,67582,6,0,P|396:96|330:188,1,200,4|4,0:1|0:2,0:0:0:0:
311,276,68849,2,0,P|299:312|243:348,1,100,4|0,0:0|0:0,0:0:0:0:
153,321,69694,6,0,B|109:232|109:232|137:129,1,200,4|4,3:1|0:0,0:0:0:0:
171,41,70962,2,0,P|227:37|275:65,1,100,2|4,0:0|0:0,0:0:0:0:
322,137,71807,6,0,P|398:141|491:50,1,200,4|4,0:1|0:0,0:0:0:0:
512,159,73075,2,0,P|474:191|428:211,1,100,12|4,0:0|0:0,0:0:0:0:
327,218,73920,6,0,P|259:184|279:70,1,200,4|4,0:1|0:0,0:0:0:0:
356,20,75187,1,2,0:0:0:0:
439,75,75610,1,4,0:0:0:0:
478,166,76032,6,0,B|454:266|454:266|358:326,1,200,4|4,0:2|0:2,0:0:0:0:
280,359,77300,2,0,L|176:339,1,100,4|4,0:2|0:0,0:0:0:0:
84,315,78145,6,0,P|68:267|132:123,1,200,4|4,0:2|0:0,0:0:0:0:
199,75,79413,1,2,0:0:0:0:
246,162,79835,1,2,0:0:0:0:
340,130,80258,6,0,B|440:122|440:122|508:198,1,200,4|4,0:1|0:0,0:0:0:0:
465,287,81525,2,0,L|395:209,1,100,2|0,0:0|0:0,0:0:0:0:
298,201,82370,6,0,P|260:152|341:48,1,200,4|4,0:2|0:0,0:0:0:0:
424,45,83638,1,2,0:0:0:0:
424,244,84483,6,0,P|340:228|244:304,2,200,4|2|0,0:2|0:0|0:0,0:0:0:0:
492,168,86596,6,0,P|421:135|208:184,1,300,4|2,0:2|0:0,0:0:0:0:
148,256,88286,1,4,0:0:0:0:
248,272,88708,6,0,B|272:152|272:152|160:0,1,300,4|2,0:1|0:0,0:0:0:0:
66,9,90399,1,4,0:0:0:0:
20,96,90821,6,0,B|-47:239|88:239|20:383,1,300,4|2,0:2|0:0,0:0:0:0:
116,364,92511,1,8,0:0:0:0:
216,384,92934,6,0,P|296:372|352:180,1,300,4|2,0:2|0:0,0:0:0:0:
348,88,94624,1,4,0:0:0:0:
248,88,95047,6,0,P|168:100|105:291,1,300,4|2,0:2|0:0,0:0:0:0:
128,380,96737,1,0,0:0:0:0:
220,332,97159,6,0,P|356:296|484:400,1,300,4|2,0:2|0:0,0:0:0:0:
508,288,98849,1,4,0:0:0:0:
472,196,99272,6,0,B|328:128|328:264|184:196,1,300,4|2,0:2|0:0,0:0:0:0:
92,164,100962,1,8,0:0:0:0:
100,64,101385,6,0,P|128:44|204:44,1,100,4|0,0:2|0:0,0:0:0:0:
288,76,102230,2,0,B|336:88|336:88|388:76,1,100,4|2,0:2|0:0,0:0:0:0:
480,44,103075,1,4,0:0:0:0:
456,140,103497,6,0,B|436:204|456:276|456:276|388:236,1,200,4|0,0:2|0:0,0:0:0:0:
308,208,104765,2,0,P|272:200|204:224,1,100,2|4,0:0|0:0,0:0:0:0:
132,276,105610,6,0,B|87:249|53:212|44:144|76:89|120:52|164:52|164:52|216:64|216:64|272:52,1,400,4|8,0:2|0:0,0:0:0:0:
356,20,107723,6,0,P|408:40|440:252,1,300,4|2,0:2|0:0,0:0:0:0:
360,316,109413,1,12,0:0:0:0:
268,276,109835,6,0,B|168:260|168:260|76:308,1,200,4|4,0:2|0:0,0:0:0:0:
32,220,111103,2,0,L|123:173,1,100,2|4,0:0|0:0,0:0:0:0:
208,120,111948,6,0,B|303:75|303:165|399:120,1,200,4|4,0:2|0:0,0:0:0:0:
462,42,113216,2,0,P|490:78|498:130,1,100,2|4,0:0|0:0,0:0:0:0:
438,211,114061,6,0,B|418:261|420:303|441:339|441:339|296:288|294:397|170:343,1,400,4|0,0:1|0:0,0:0:0:0:
105,283,116173,6,0,P|90:234|107:174,1,100,4|0,0:2|0:0,0:0:0:0:
147,99,117018,1,4,0:0:0:0:
239,137,117441,2,0,L|343:116,1,100,2|2,0:0|0:0,0:0:0:0:
397,37,118286,6,0,P|436:99|378:209,1,200,4|2,0:2|0:0,0:0:0:0:
293,241,119554,2,0,L|189:220,1,100,4|4,0:2|0:0,0:0:0:0:
127,294,120399,6,0,L|323:333,1,200,4|4,0:2|0:0,0:0:0:0:
418,362,121666,2,0,P|453:369|518:343,1,100,4|12,0:2|0:0,0:0:0:0:
512,247,122511,6,0,P|457:185|345:188,1,200,4|4,0:2|0:0,0:0:0:0:
251,217,123779,2,0,P|216:224|151:198,1,100,4|4,0:2|0:2,0:0:0:0:
129,106,124624,6,0,P|66:158|82:272,1,200,4|4,0:2|0:0,0:0:0:0:
148,337,125892,2,0,P|179:349|201:349,2,50,2|0|4,0:0|0:0|0:0,0:0:0:0:
196,249,126737,6,0,P|292:240|361:308,1,200,4|4,0:2|0:2,0:0:0:0:
446,360,128004,2,0,P|457:325|449:263,1,100,4|4,0:2|0:2,0:0:0:0:
405,176,128849,6,0,P|308:167|239:235,1,200,4|4,0:0|0:0,0:0:0:0:
155,287,130116,2,0,P|140:253|152:190,1,100,4|4,0:2|0:2,0:0:0:0:
196,103,130962,6,0,P|292:94|361:162,1,200,4|4,0:2|0:0,0:0:0:0:
446,214,132230,2,0,P|458:180|449:117,1,100,4|4,0:2|0:2,0:0:0:0:
405,30,133074,6,0,P|308:21|239:89,1,200,4|4,0:2|0:0,0:0:0:0:
206,184,134342,5,4,0:2:0:0:
120,132,134765,1,4,0:1:0:0:
44,196,135187,6,0,B|27:294|27:294|89:372,1,200,2|4,0:2|0:2,0:0:0:0:
162,304,136455,2,0,P|198:299|265:325,1,100,4|4,0:2|0:2,0:0:0:0:
346,363,137300,6,0,P|440:366|497:282,1,200,4|4,0:2|0:0,0:0:0:0:
503,186,138568,2,0,P|503:164|495:134,2,50,2|4|12,0:0|0:0|0:0,0:0:0:0:
413,230,139413,6,0,B|316:249|316:249|229:190,1,200,4|0,0:2|0:0,0:0:0:0:
154,129,140680,1,2,0:0:0:0:
137,227,141103,1,4,0:2:0:0:
59,164,141525,6,0,P|54:109|170:28,1,200,4|0,0:2|0:0,0:0:0:0:
254,51,142793,2,0,P|282:48|313:38,2,50,4|0|8,0:2|0:0|0:0,0:0:0:0:
182,120,143638,6,0,B|137:215|227:215|182:311,1,200,4|4,0:2|0:0,0:0:0:0:
102,372,144906,2,0,P|83:331|89:276,1,100,4|2,0:2|0:0,0:0:0:0:
182,311,145751,6,0,P|252:322|350:242,1,200,4|4,0:2|0:0,0:0:0:0:
366,148,147018,2,0,P|354:100|317:62,1,100,4|12,0:2|0:0,0:0:0:0:
230,20,147863,6,0,B|130:7|130:7|41:51,1,200,4|4,0:2|0:0,0:0:0:0:
49,150,149131,2,0,L|147:102,1,100,4|4,0:2|0:2,0:0:0:0:
226,154,149976,6,0,P|290:169|397:87,1,200,4|0,0:2|0:0,0:0:0:0:
337,13,151244,1,2,0:0:0:0:
496,112,152089,6,0,L|482:265,1,150.000005722046,6|8,0:2|0:0,0:0:0:0:
477,343,153356,2,0,P|439:336|415:309,1,75.0000028610231,0|0,0:0|0:0,0:0:0:0:
379,235,154201,6,0,P|312:223|246:268,1,150.000005722046,2|8,0:0|0:0,0:0:0:0:
200,335,155469,1,0,0:0:0:0:
117,338,155892,1,0,0:0:0:0:
47,293,156314,6,0,P|34:252|72:145,1,150.000005722046,2|8,0:0|0:0,0:0:0:0:
134,110,157582,2,0,L|214:130,1,75.0000028610231,0|0,0:0|0:0,0:0:0:0:
269,181,158427,6,0,P|336:193|402:148,1,150.000005722046,2|8,0:0|0:0,0:0:0:0:
430,72,159694,2,0,P|433:51|432:34,2,37.5000014305115,0|0|4,3:0|3:0|3:0,0:0:0:0:
350,51,160539,6,0,P|294:39|158:128,1,225.000008583069,2|0,0:0|0:0,0:0:0:0:
188,201,162230,1,0,0:0:0:0:
144,270,162652,6,0,P|71:258|21:204,1,150.000005722046,2|8,0:0|0:0,0:0:0:0:
9,122,163920,1,2,0:0:0:0:
63,60,164342,1,2,0:0:0:0:
142,36,164765,6,0,P|245:39|325:126,1,225.000008583069,2|0,0:0|0:0,0:0:0:0:
337,205,166455,1,2,0:0:0:0:
293,275,166878,6,0,L|142:291,1,150.000005722046,2|8,0:0|0:0,0:0:0:0:
70,252,168145,1,8,0:0:0:0:
135,201,168568,1,0,3:0:0:0:
202,154,168990,6,0,P|284:135|407:210,1,225.000008583069,2|0,0:0|0:0,0:0:0:0:
420,281,170680,1,2,0:0:0:0:
484,228,171103,6,0,L|512:72,1,150.000005722046,2|8,0:0|0:0,0:0:0:0:
459,16,172370,1,2,0:0:0:0:
377,27,172793,1,2,0:0:0:0:
295,39,173216,6,0,L|254:262,1,225.000008583069,2|0,0:0|0:0,0:0:0:0:
245,342,174906,1,2,0:0:0:0:
176,295,175328,6,0,P|110:289|36:332,2,150.000005722046,2|8|0,0:0|0:0|3:0,0:0:0:0:
245,342,177441,5,4,2:0:0:0:
256,192,177547,12,2,179131,0:2:0:0:
