osu file format v14

[General]
AudioFilename: audio.mp3
AudioLeadIn: 0
PreviewTime: 57974
Countdown: 0
SampleSet: Soft
StackLeniency: 0.7
Mode: 3
LetterboxInBreaks: 0
SpecialStyle: 0
WidescreenStoryboard: 0

[Editor]
DistanceSpacing: 0.8
BeatDivisor: 8
GridSize: 32
TimelineZoom: 3.799998

[Metadata]
Title:Every Two Days
TitleUnicode:Every Two Days
Artist:The Flashbulb
ArtistUnicode:The Flashbulb
Creator:Monheim
Version:2
Source:
Tags:_kobii instrumental breakcore glitch experimental drain mode on electronic civilization idm tech ln benn jordan synth vortex-
BeatmapID:1890121
BeatmapSetID:905599

[Difficulty]
HPDrainRate:9
CircleSize:4
OverallDifficulty:9
ApproachRate:5
SliderMultiplier:1.4
SliderTickRate:1

[Events]
//Background and Video events
0,0,"600c672149653.5c2a3aa184bba.jpg",0,0
//Break Periods
//Storyboard Layer 0 (Background)
//Storyboard Layer 1 (Fail)
//Storyboard Layer 2 (Pass)
//Storyboard Layer 3 (Foreground)
//Storyboard Layer 4 (Overlay)
//Storyboard Sound Samples
Sample,90084,0,"hihat1.wav",70

[TimingPoints]
85,301.507537688442,4,2,1,50,1,0

[HitObjects]
64,192,85,5,0,0:0:0:70:kick1.wav
192,192,85,1,0,0:0:0:0:
320,192,235,1,0,0:0:0:70:hihat1.wav
64,192,386,1,0,0:0:0:70:hihat2.wav
320,192,537,1,0,0:0:0:70:kick1.wav
448,192,537,1,0,0:0:0:0:
192,192,688,1,0,0:0:0:50:drum2.wav
448,192,688,1,0,0:0:0:0:
64,192,838,1,0,0:0:0:70:hihat1.wav
64,192,1441,1,0,0:0:0:50:drum2.wav
192,192,1441,1,0,0:0:0:0:
320,192,1592,1,0,0:0:0:70:kick1.wav
448,192,1592,1,0,0:0:0:0:
448,192,1743,1,0,0:0:0:70:hihat2.wav
64,192,1894,1,0,0:0:0:50:drum2.wav
320,192,1894,1,0,0:0:0:0:
448,192,2044,1,0,0:0:0:70:hihat1.wav
64,192,2195,1,0,0:0:0:70:hihat2.wav
320,192,2346,1,0,0:0:0:70:kick1.wav
448,192,2346,1,0,0:0:0:0:
64,192,2497,1,0,0:0:0:70:kick1.wav
192,192,2497,1,0,0:0:0:0:
64,192,2610,1,0,0:0:0:70:kick1.wav
192,192,2610,1,0,0:0:0:0:
64,192,2723,1,0,0:0:0:70:kick1.wav
192,192,2779,1,0,0:0:0:0:
320,192,2836,1,0,0:0:0:70:kick1.wav
448,192,2836,1,0,0:0:0:0:
320,192,2949,1,0,0:0:0:0:
64,192,2987,1,0,0:0:0:0:
448,192,3024,1,0,0:0:0:0:
192,192,3062,1,0,0:0:0:0:
64,192,3100,1,0,0:0:0:50:drum2.wav
320,192,3100,1,0,0:0:0:0:
448,192,3250,1,0,0:0:0:70:hihat1.wav
64,192,3401,1,0,0:0:0:70:hihat2.wav
448,192,3552,1,0,0:0:0:70:hihat1.wav
64,192,3703,1,0,0:0:0:70:hihat2.wav
320,192,3853,1,0,0:0:0:50:drum2.wav
448,192,3853,1,0,0:0:0:0:
64,192,4004,1,0,0:0:0:70:kick1.wav
192,192,4004,1,0,0:0:0:0:
448,192,4155,1,0,0:0:0:70:hihat2.wav
64,192,4306,1,0,0:0:0:50:drum2.wav
320,192,4306,1,0,0:0:0:0:
448,192,4456,1,0,0:0:0:70:hihat1.wav
192,192,4607,128,0,4758:0:0:0:0:
320,192,4758,128,0,4833:0:0:0:0:
448,192,4858,128,0,4909:0:0:0:0:
64,192,4909,1,0,0:0:0:70:kick1.wav
192,192,4909,1,0,0:0:0:0:
320,192,5059,1,0,0:0:0:70:hihat1.wav
64,192,5210,1,0,0:0:0:70:hihat2.wav
320,192,5361,1,0,0:0:0:70:kick1.wav
448,192,5361,1,0,0:0:0:0:
192,192,5512,1,0,0:0:0:50:drum2.wav
448,192,5512,1,0,0:0:0:0:
320,192,5662,1,0,0:0:0:70:hihat1.wav
64,192,5813,1,0,0:0:0:70:hihat2.wav
320,192,5964,1,0,0:0:0:70:hihat1.wav
448,192,6115,1,0,0:0:0:70:hihat2.wav
64,192,6265,1,0,0:0:0:50:drum2.wav
192,192,6265,1,0,0:0:0:0:
320,192,6416,1,0,0:0:0:70:kick1.wav
448,192,6416,1,0,0:0:0:0:
64,192,6567,1,0,0:0:0:70:hihat2.wav
192,192,6718,1,0,0:0:0:50:drum2.wav
448,192,6718,1,0,0:0:0:0:
320,192,6868,1,0,0:0:0:70:hihat1.wav
64,192,7019,1,0,0:0:0:70:hihat2.wav
320,192,7170,1,0,0:0:0:70:kick1.wav
448,192,7170,1,0,0:0:0:0:
64,192,7321,1,0,0:0:0:70:kick1.wav
192,192,7321,1,0,0:0:0:0:
320,192,7471,1,0,0:0:0:70:kick1.wav
448,192,7471,128,0,7773:0:0:0:0:
64,192,7773,1,0,0:0:0:70:kick1.wav
192,192,7811,1,0,0:0:0:70:kick1.wav
64,192,7924,128,0,7961:0:0:0:50:drum2.wav
320,192,7924,128,0,7999:0:0:0:0:
64,192,8074,128,0,8150:0:0:0:50:drum2.wav
320,192,8074,128,0,8188:0:0:0:0:
192,192,8225,128,0,8338:0:0:0:70:hihat1.wav
448,192,8225,128,0,8301:0:0:0:0:
192,192,8376,128,0,8451:0:0:0:70:hihat1.wav
448,192,8376,128,0,8414:0:0:0:0:
64,192,8527,1,0,0:0:0:70:hihat2.wav
320,192,8677,1,0,0:0:0:50:drum2.wav
448,192,8677,1,0,0:0:0:0:
64,192,8828,1,0,0:0:0:70:kick1.wav
192,192,8828,1,0,0:0:0:0:
448,192,8979,1,0,0:0:0:70:hihat2.wav
64,192,9130,1,0,0:0:0:50:drum2.wav
320,192,9130,1,0,0:0:0:0:
320,192,9280,1,0,0:0:0:70:hihat1.wav
192,192,9356,1,0,0:0:0:50:drum2.wav
448,192,9356,128,0,9582:0:0:0:0:
192,192,9507,1,0,0:0:0:70:hihat1.wav
64,192,9582,1,0,0:0:0:50:drum2.wav
320,192,9582,1,0,0:0:0:0:
64,192,9733,1,0,0:0:0:70:kick1.wav
192,192,9733,1,0,0:0:0:0:
320,192,9883,1,0,0:0:0:70:hihat1.wav
64,192,10034,128,0,10185:0:0:0:70:hihat2.wav
320,192,10185,1,0,0:0:0:70:kick1.wav
448,192,10185,1,0,0:0:0:0:
192,192,10336,1,0,0:0:0:50:drum2.wav
448,192,10336,1,0,0:0:0:0:
320,192,10487,1,0,0:0:0:70:hihat1.wav
64,192,10637,1,0,0:0:0:70:hihat2.wav
448,192,10788,1,0,0:0:0:70:hihat1.wav
320,192,10939,128,0,11014:0:0:0:0:
448,192,11039,128,0,11090:0:0:0:70:hihat2.wav
64,192,11090,1,0,0:0:0:50:drum2.wav
192,192,11090,1,0,0:0:0:0:
320,192,11240,1,0,0:0:0:70:kick1.wav
448,192,11240,1,0,0:0:0:0:
64,192,11391,1,0,0:0:0:70:hihat2.wav
192,192,11542,1,0,0:0:0:70:kick1.wav
448,192,11542,1,0,0:0:0:0:
64,192,11693,1,0,0:0:0:70:hihat1.wav
448,192,11843,1,0,0:0:0:70:hihat2.wav
64,192,11994,1,0,0:0:0:70:kick1.wav
192,192,11994,1,0,0:0:0:0:
192,192,12145,128,0,12245:0:0:0:0:
192,192,12296,128,0,12346:0:0:0:50:drum2.wav
64,192,12446,1,0,0:0:0:70:kick1.wav
192,192,12446,1,0,0:0:0:0:
320,192,12559,1,0,0:0:0:70:kick1.wav
448,192,12559,1,0,0:0:0:0:
64,192,12672,1,0,0:0:0:70:kick1.wav
192,192,12672,1,0,0:0:0:0:
64,192,12748,1,0,0:0:0:50:drum2.wav
320,192,12748,1,0,0:0:0:0:
192,192,12899,1,0,0:0:0:70:hihat1.wav
448,192,13049,1,0,0:0:0:70:hihat2.wav
64,192,13200,1,0,0:0:0:70:hihat1.wav
448,192,13351,1,0,0:0:0:70:hihat2.wav
64,192,13502,128,0,13652:0:0:0:50:drum2.wav
320,192,13502,1,0,0:0:0:0:
192,192,13652,128,0,13803:0:0:0:50:drum2.wav
448,192,13652,1,0,0:0:0:0:
320,192,13803,1,0,0:0:0:70:kick1.wav
448,192,13803,128,0,13878:0:0:0:0:
64,192,13878,128,0,13954:0:0:0:70:kick1.wav
192,192,13878,1,0,0:0:0:0:
320,192,13954,1,0,0:0:0:70:kick1.wav
448,192,13954,128,0,14105:0:0:0:0:
320,192,14255,128,0,14557:0:0:0:50:drum2.wav
64,192,14406,1,0,0:0:0:70:kick1.wav
192,192,14406,1,0,0:0:0:0:
64,192,14557,1,0,0:0:0:70:kick1.wav
192,192,14557,1,0,0:0:0:0:
448,192,14708,1,0,0:0:0:50:drum2.wav
64,192,14858,1,0,0:0:0:70:hihat2.wav
320,192,15009,1,0,0:0:0:70:kick1.wav
448,192,15009,1,0,0:0:0:0:
192,192,15160,1,0,0:0:0:50:drum2.wav
448,192,15160,1,0,0:0:0:0:
64,192,15311,1,0,0:0:0:70:hihat1.wav
448,192,15461,1,0,0:0:0:70:hihat2.wav
192,192,15612,1,0,0:0:0:70:hihat1.wav
448,192,15763,1,0,0:0:0:70:hihat2.wav
64,192,15914,1,0,0:0:0:50:drum2.wav
192,192,15914,1,0,0:0:0:0:
320,192,16064,1,0,0:0:0:70:kick1.wav
448,192,16064,1,0,0:0:0:0:
64,192,16215,1,0,0:0:0:70:hihat2.wav
192,192,16366,1,0,0:0:0:50:drum2.wav
448,192,16366,1,0,0:0:0:0:
320,192,16517,1,0,0:0:0:70:hihat1.wav
64,192,16667,1,0,0:0:0:70:hihat2.wav
320,192,16818,1,0,0:0:0:70:kick1.wav
448,192,16818,1,0,0:0:0:0:
64,192,16969,1,0,0:0:0:70:kick1.wav
192,192,16969,1,0,0:0:0:0:
320,192,17195,128,0,17346:0:0:0:50:drum2.wav
448,192,17195,128,0,17346:0:0:0:0:
64,192,17421,1,0,0:0:0:70:kick1.wav
192,192,17421,1,0,0:0:0:0:
320,192,17497,1,0,0:0:0:70:kick1.wav
192,192,17572,1,0,0:0:0:50:drum2.wav
448,192,17572,1,0,0:0:0:0:
320,192,17723,1,0,0:0:0:70:hihat1.wav
64,192,17873,1,0,0:0:0:70:hihat2.wav
448,192,18024,1,0,0:0:0:70:hihat1.wav
64,192,18175,1,0,0:0:0:70:hihat2.wav
320,192,18326,1,0,0:0:0:50:drum2.wav
448,192,18326,1,0,0:0:0:0:
64,192,18476,1,0,0:0:0:70:kick1.wav
192,192,18476,1,0,0:0:0:0:
192,192,18627,1,0,0:0:0:70:hihat1.wav
448,192,18665,1,0,0:0:0:70:kick1.wav
64,192,18703,1,0,0:0:0:0:
320,192,18740,1,0,0:0:0:0:
192,192,18778,128,0,18853:0:0:0:50:drum2.wav
448,192,18778,1,0,0:0:0:0:
64,192,18929,128,0,19004:0:0:0:70:hihat1.wav
448,192,19079,128,0,19155:0:0:0:70:hihat2.wav
64,192,19230,1,0,0:0:0:50:drum2.wav
192,192,19230,1,0,0:0:0:0:
320,192,19381,128,0,19682:0:0:0:70:kick1.wav
448,192,19381,1,0,0:0:0:0:
192,192,19532,1,0,0:0:0:70:hihat1.wav
448,192,19682,1,0,0:0:0:70:hihat2.wav
64,192,19833,1,0,0:0:0:70:kick1.wav
192,192,19833,1,0,0:0:0:0:
64,192,19984,128,0,20286:0:0:0:50:drum2.wav
320,192,19984,1,0,0:0:0:0:
192,192,20135,1,0,0:0:0:70:hihat1.wav
448,192,20286,128,0,20587:0:0:0:70:hihat2.wav
64,192,20436,1,0,0:0:0:70:hihat1.wav
320,192,20587,1,0,0:0:0:70:hihat2.wav
64,192,20738,1,0,0:0:0:50:drum2.wav
192,192,20738,1,0,0:0:0:0:
320,192,20889,1,0,0:0:0:70:kick1.wav
448,192,20889,1,0,0:0:0:0:
64,192,21039,1,0,0:0:0:70:hihat2.wav
192,192,21190,1,0,0:0:0:50:drum2.wav
448,192,21190,1,0,0:0:0:0:
320,192,21341,1,0,0:0:0:70:hihat1.wav
64,192,21492,1,0,0:0:0:70:hihat2.wav
320,192,21642,1,0,0:0:0:70:kick1.wav
448,192,21642,1,0,0:0:0:0:
64,192,21793,1,0,0:0:0:70:kick1.wav
192,192,21793,1,0,0:0:0:0:
64,192,21944,1,0,0:0:0:70:kick1.wav
192,192,21944,1,0,0:0:0:0:
320,192,22095,1,0,0:0:0:50:drum2.wav
448,192,22145,1,0,0:0:0:0:
192,192,22195,1,0,0:0:0:0:
320,192,22245,1,0,0:0:0:0:
64,192,22283,1,0,0:0:0:0:
448,192,22321,1,0,0:0:0:0:
192,192,22358,1,0,0:0:0:0:
64,192,22396,1,0,0:0:0:50:drum2.wav
320,192,22396,1,0,0:0:0:0:
192,192,22547,1,0,0:0:0:70:hihat1.wav
448,192,22698,1,0,0:0:0:70:hihat2.wav
64,192,22848,1,0,0:0:0:70:hihat1.wav
320,192,22999,1,0,0:0:0:50:drum2.wav
448,192,22999,128,0,23225:0:0:0:0:
192,192,23225,1,0,0:0:0:50:drum2.wav
320,192,23225,128,0,23451:0:0:0:0:
64,192,23451,1,0,0:0:0:50:drum2.wav
192,192,23451,128,0,23602:0:0:0:0:
64,192,23602,1,0,0:0:0:50:drum2.wav
320,192,23602,1,0,0:0:0:0:
448,192,23652,1,0,0:0:0:30:drum2.wav
320,192,23703,1,0,0:0:0:30:drum2.wav
192,192,23753,1,0,0:0:0:30:drum2.wav
64,192,23803,1,0,0:0:0:30:drum2.wav
64,192,23954,1,0,0:0:0:30:drum2.wav
192,192,24004,1,0,0:0:0:30:drum2.wav
320,192,24054,1,0,0:0:0:70:kick1.wav
320,192,24205,128,0,24507:0:0:0:70:kick1.wav
448,192,24205,1,0,0:0:0:0:
192,192,24356,1,0,0:0:0:50:drum2.wav
448,192,24507,1,0,0:0:0:70:hihat2.wav
64,192,24657,1,0,0:0:0:70:kick1.wav
192,192,24657,1,0,0:0:0:0:
64,192,24808,128,0,25110:0:0:0:50:drum2.wav
320,192,24808,1,0,0:0:0:0:
192,192,24959,1,0,0:0:0:70:hihat1.wav
448,192,25110,128,0,25411:0:0:0:70:hihat2.wav
64,192,25260,1,0,0:0:0:70:hihat1.wav
320,192,25411,1,0,0:0:0:70:hihat2.wav
64,192,25562,1,0,0:0:0:50:drum2.wav
192,192,25562,1,0,0:0:0:0:
320,192,25713,1,0,0:0:0:70:kick1.wav
448,192,25713,1,0,0:0:0:0:
64,192,25863,1,0,0:0:0:70:hihat2.wav
192,192,26014,1,0,0:0:0:50:drum2.wav
448,192,26014,1,0,0:0:0:0:
320,192,26165,1,0,0:0:0:70:hihat1.wav
64,192,26316,1,0,0:0:0:70:hihat2.wav
320,192,26466,1,0,0:0:0:70:kick1.wav
448,192,26466,1,0,0:0:0:0:
64,192,26617,1,0,0:0:0:0:
448,192,26667,1,0,0:0:0:0:
320,192,26718,1,0,0:0:0:0:
64,192,26768,1,0,0:0:0:70:kick1.wav
192,192,26768,1,0,0:0:0:0:
192,192,26868,1,0,0:0:0:0:
64,192,26919,1,0,0:0:0:0:
320,192,26969,1,0,0:0:0:0:
448,192,27019,1,0,0:0:0:0:
64,192,27069,1,0,0:0:0:70:kick1.wav
192,192,27069,1,0,0:0:0:0:
64,192,27220,1,0,0:0:0:50:drum2.wav
320,192,27220,1,0,0:0:0:0:
192,192,27371,1,0,0:0:0:70:hihat1.wav
448,192,27522,1,0,0:0:0:70:hihat2.wav
64,192,27672,1,0,0:0:0:70:hihat1.wav
320,192,27823,1,0,0:0:0:70:kick1.wav
448,192,27823,1,0,0:0:0:0:
192,192,27899,1,0,0:0:0:70:kick1.wav
64,192,27974,1,0,0:0:0:50:drum2.wav
320,192,27974,1,0,0:0:0:0:
448,192,28125,1,0,0:0:0:70:hihat1.wav
64,192,28275,1,0,0:0:0:70:hihat2.wav
320,192,28426,128,0,28652:0:0:0:50:drum2.wav
448,192,28502,128,0,28878:0:0:0:0:
64,192,28878,1,0,0:0:0:70:kick1.wav
192,192,28878,1,0,0:0:0:0:
320,192,29029,128,0,29331:0:0:0:70:kick1.wav
448,192,29029,1,0,0:0:0:0:
192,192,29180,1,0,0:0:0:70:hihat1.wav
448,192,29331,1,0,0:0:0:70:hihat2.wav
64,192,29481,1,0,0:0:0:70:kick1.wav
192,192,29481,1,0,0:0:0:0:
64,192,29632,128,0,29934:0:0:0:50:drum2.wav
320,192,29632,1,0,0:0:0:0:
192,192,29783,1,0,0:0:0:70:hihat1.wav
448,192,29934,128,0,30235:0:0:0:70:hihat2.wav
64,192,30084,1,0,0:0:0:70:hihat1.wav
320,192,30235,1,0,0:0:0:70:hihat2.wav
64,192,30386,1,0,0:0:0:50:drum2.wav
192,192,30386,1,0,0:0:0:0:
320,192,30537,1,0,0:0:0:70:kick1.wav
448,192,30537,1,0,0:0:0:0:
64,192,30688,1,0,0:0:0:70:hihat2.wav
192,192,30838,1,0,0:0:0:50:drum2.wav
448,192,30838,1,0,0:0:0:0:
64,192,30989,1,0,0:0:0:70:hihat1.wav
448,192,31140,1,0,0:0:0:70:hihat2.wav
64,192,31291,1,0,0:0:0:0:
192,192,31291,1,0,0:0:0:0:
320,192,31441,1,0,0:0:0:70:kick1.wav
448,192,31441,1,0,0:0:0:0:
192,192,31492,1,0,0:0:0:0:
448,192,31542,1,0,0:0:0:0:
64,192,31592,1,0,0:0:0:70:hihat1.wav
448,192,31743,128,0,31818:0:0:0:70:hihat1.wav
64,192,31894,128,0,32044:0:0:0:70:hihat1.wav
448,192,32044,128,0,32120:0:0:0:70:hihat1.wav
64,192,32195,128,0,32346:0:0:0:70:hihat1.wav
448,192,32346,128,0,32421:0:0:0:70:hihat1.wav
64,192,32497,128,0,32647:0:0:0:70:hihat1.wav
448,192,32647,128,0,32723:0:0:0:70:hihat1.wav
64,192,32798,128,0,32949:0:0:0:70:hihat1.wav
320,192,32949,1,0,0:0:0:70:kick1.wav
448,192,32949,128,0,33024:0:0:0:0:
320,192,33250,1,0,0:0:0:70:kick1.wav
448,192,33250,128,0,33326:0:0:0:0:
64,192,33401,128,0,33451:0:0:0:50:drum2.wav
320,192,33552,1,0,0:0:0:70:kick1.wav
448,192,33552,128,0,33627:0:0:0:0:
320,192,33703,1,0,0:0:0:50:drum2.wav
64,192,33778,1,0,0:0:0:70:kick1.wav
192,192,33853,128,0,34004:0:0:0:50:drum2.wav
448,192,33904,1,0,0:0:0:0:
64,192,33954,1,0,0:0:0:0:
320,192,34004,128,0,34155:0:0:0:50:drum2.wav
64,192,34155,128,0,34230:0:0:0:70:hihat1.wav
448,192,34306,128,0,34456:0:0:0:70:hihat1.wav
64,192,34456,128,0,34532:0:0:0:70:hihat1.wav
448,192,34607,128,0,34758:0:0:0:70:hihat1.wav
64,192,34758,128,0,34833:0:0:0:70:hihat1.wav
448,192,34909,128,0,35059:0:0:0:70:hihat1.wav
64,192,35059,128,0,35135:0:0:0:70:hihat1.wav
448,192,35210,128,0,35361:0:0:0:70:hihat1.wav
64,192,35361,128,0,35436:0:0:0:70:hihat1.wav
448,192,35512,128,0,35662:0:0:0:70:hihat1.wav
64,192,35662,128,0,35738:0:0:0:70:hihat1.wav
448,192,35813,128,0,35964:0:0:0:70:hihat1.wav
64,192,35964,128,0,36115:0:0:0:70:hihat1.wav
320,192,36265,1,0,0:0:0:70:kick1.wav
448,192,36265,1,0,0:0:0:0:
192,192,36316,1,0,0:0:0:0:
320,192,36366,1,0,0:0:0:0:
64,192,36416,1,0,0:0:0:50:drum2.wav
448,192,36567,128,0,36718:0:0:0:70:hihat1.wav
64,192,36718,128,0,36793:0:0:0:70:hihat1.wav
64,192,36868,1,0,0:0:0:70:kick1.wav
192,192,36868,1,0,0:0:0:0:
320,192,36919,1,0,0:0:0:0:
192,192,36969,1,0,0:0:0:0:
448,192,37019,1,0,0:0:0:0:
64,192,37170,128,0,37321:0:0:0:70:hihat1.wav
448,192,37321,128,0,37396:0:0:0:70:hihat1.wav
64,192,37471,128,0,37622:0:0:0:70:hihat1.wav
448,192,37622,128,0,37698:0:0:0:70:hihat1.wav
320,192,37773,1,0,0:0:0:70:kick1.wav
448,192,37773,1,0,0:0:0:0:
192,192,37823,1,0,0:0:0:0:
320,192,37873,1,0,0:0:0:0:
64,192,37924,1,0,0:0:0:70:kick1.wav
448,192,37999,1,0,0:0:0:0:
64,192,38074,128,0,38150:0:0:0:70:kick1.wav
192,192,38074,1,0,0:0:0:0:
448,192,38225,1,0,0:0:0:50:drum2.wav
320,192,38376,1,0,0:0:0:70:kick1.wav
448,192,38376,1,0,0:0:0:0:
448,192,38527,1,0,0:0:0:50:drum2.wav
320,192,38602,1,0,0:0:0:50:drum2.wav
64,192,38677,1,0,0:0:0:70:kick1.wav
192,192,38677,128,0,38979:0:0:0:0:
320,192,38828,1,0,0:0:0:70:hihat1.wav
64,192,38979,1,0,0:0:0:70:hihat2.wav
320,192,39130,1,0,0:0:0:70:kick1.wav
448,192,39130,1,0,0:0:0:0:
192,192,39280,1,0,0:0:0:50:drum2.wav
448,192,39280,128,0,39582:0:0:0:0:
320,192,39431,1,0,0:0:0:70:hihat1.wav
64,192,39582,128,0,39883:0:0:0:70:hihat2.wav
448,192,39733,1,0,0:0:0:70:hihat1.wav
192,192,39883,1,0,0:0:0:70:hihat2.wav
320,192,40034,1,0,0:0:0:50:drum2.wav
448,192,40034,1,0,0:0:0:0:
64,192,40185,1,0,0:0:0:70:kick1.wav
192,192,40185,1,0,0:0:0:0:
448,192,40336,1,0,0:0:0:70:hihat1.wav
64,192,40487,1,0,0:0:0:50:drum2.wav
320,192,40487,1,0,0:0:0:0:
192,192,40637,1,0,0:0:0:70:hihat1.wav
448,192,40788,1,0,0:0:0:70:hihat2.wav
64,192,40939,1,0,0:0:0:70:kick1.wav
192,192,40939,1,0,0:0:0:0:
320,192,41090,128,0,41391:0:0:0:70:kick1.wav
448,192,41090,1,0,0:0:0:0:
64,192,41240,1,0,0:0:0:70:hihat1.wav
448,192,41391,1,0,0:0:0:70:hihat2.wav
64,192,41542,1,0,0:0:0:70:kick1.wav
192,192,41542,1,0,0:0:0:0:
64,192,41693,1,0,0:0:0:50:drum2.wav
320,192,41693,1,0,0:0:0:0:
192,192,41843,1,0,0:0:0:70:hihat1.wav
448,192,41994,1,0,0:0:0:70:hihat2.wav
64,192,42145,1,0,0:0:0:70:hihat1.wav
448,192,42296,1,0,0:0:0:70:hihat2.wav
64,192,42446,1,0,0:0:0:50:drum2.wav
192,192,42446,1,0,0:0:0:0:
320,192,42597,1,0,0:0:0:70:kick1.wav
448,192,42597,1,0,0:0:0:0:
192,192,42748,1,0,0:0:0:70:hihat2.wav
64,192,42899,128,0,43049:0:0:0:0:
320,192,43049,128,0,43200:0:0:0:0:
448,192,43200,128,0,43275:0:0:0:0:
192,192,43313,128,0,43426:0:0:0:0:
320,192,43426,128,0,43502:0:0:0:0:
64,192,43502,1,0,0:0:0:70:kick1.wav
192,192,43502,128,0,43803:0:0:0:0:
320,192,43652,1,0,0:0:0:70:hihat1.wav
64,192,43803,1,0,0:0:0:70:hihat2.wav
320,192,43954,1,0,0:0:0:70:kick1.wav
448,192,43954,1,0,0:0:0:0:
192,192,44105,1,0,0:0:0:50:drum2.wav
448,192,44105,128,0,44406:0:0:0:0:
320,192,44255,1,0,0:0:0:70:hihat1.wav
64,192,44406,128,0,44708:0:0:0:70:hihat2.wav
192,192,44557,1,0,0:0:0:70:hihat1.wav
448,192,44708,1,0,0:0:0:70:hihat2.wav
64,192,44858,1,0,0:0:0:50:drum2.wav
192,192,44858,1,0,0:0:0:0:
320,192,45009,1,0,0:0:0:70:kick1.wav
448,192,45009,1,0,0:0:0:0:
64,192,45160,1,0,0:0:0:70:hihat2.wav
192,192,45311,1,0,0:0:0:50:drum2.wav
448,192,45311,1,0,0:0:0:0:
320,192,45461,1,0,0:0:0:70:hihat1.wav
64,192,45612,1,0,0:0:0:70:hihat2.wav
320,192,45763,1,0,0:0:0:70:kick1.wav
448,192,45763,1,0,0:0:0:0:
64,192,45914,1,0,0:0:0:70:kick1.wav
192,192,45914,1,0,0:0:0:0:
320,192,46064,1,0,0:0:0:70:hihat1.wav
448,192,46215,1,0,0:0:0:70:hihat2.wav
64,192,46366,1,0,0:0:0:70:kick1.wav
192,192,46366,1,0,0:0:0:0:
192,192,46517,1,0,0:0:0:50:drum2.wav
448,192,46517,1,0,0:0:0:0:
320,192,46667,1,0,0:0:0:70:hihat1.wav
64,192,46818,1,0,0:0:0:70:hihat2.wav
448,192,46969,1,0,0:0:0:70:hihat1.wav
64,192,47120,1,0,0:0:0:70:hihat2.wav
320,192,47270,128,0,47321:0:0:0:50:drum2.wav
192,192,47421,128,0,47471:0:0:0:70:hihat1.wav
448,192,47572,128,0,47622:0:0:0:70:hihat1.wav
320,192,47723,128,0,47773:0:0:0:70:hihat1.wav
192,192,47873,128,0,47924:0:0:0:70:hihat1.wav
448,192,48024,128,0,48074:0:0:0:70:hihat2.wav
64,192,48175,128,0,48225:0:0:0:70:hihat1.wav
320,192,48326,128,0,48627:0:0:0:70:kick1.wav
448,192,48326,1,0,0:0:0:0:
192,192,48476,1,0,0:0:0:70:hihat1.wav
448,192,48627,1,0,0:0:0:70:hihat2.wav
64,192,48778,1,0,0:0:0:70:kick1.wav
192,192,48778,1,0,0:0:0:0:
64,192,48929,128,0,49230:0:0:0:50:drum2.wav
320,192,48929,1,0,0:0:0:0:
192,192,49079,1,0,0:0:0:70:hihat1.wav
448,192,49230,128,0,49456:0:0:0:70:hihat2.wav
192,192,49381,1,0,0:0:0:70:hihat1.wav
64,192,49532,1,0,0:0:0:70:hihat2.wav
320,192,49682,1,0,0:0:0:50:drum2.wav
448,192,49682,1,0,0:0:0:0:
64,192,49833,128,0,49909:0:0:0:70:kick1.wav
192,192,49833,1,0,0:0:0:0:
320,192,49909,128,0,49984:0:0:0:0:
64,192,49984,128,0,50059:0:0:0:70:hihat2.wav
320,192,50059,128,0,50135:0:0:0:0:
192,192,50135,1,0,0:0:0:50:drum2.wav
448,192,50135,1,0,0:0:0:0:
320,192,50286,1,0,0:0:0:70:hihat1.wav
64,192,50436,1,0,0:0:0:70:hihat2.wav
320,192,50587,1,0,0:0:0:70:kick1.wav
448,192,50587,1,0,0:0:0:0:
64,192,50738,1,0,0:0:0:70:kick1.wav
192,192,50738,1,0,0:0:0:0:
320,192,50889,1,0,0:0:0:70:hihat1.wav
448,192,51039,1,0,0:0:0:70:hihat2.wav
64,192,51190,1,0,0:0:0:70:kick1.wav
192,192,51190,1,0,0:0:0:0:
64,192,51341,1,0,0:0:0:50:drum2.wav
320,192,51341,1,0,0:0:0:0:
192,192,51492,1,0,0:0:0:70:hihat1.wav
448,192,51642,1,0,0:0:0:70:hihat2.wav
64,192,51793,1,0,0:0:0:70:hihat1.wav
448,192,51944,1,0,0:0:0:70:hihat2.wav
64,192,52095,1,0,0:0:0:70:kick1.wav
192,192,52095,1,0,0:0:0:0:
320,192,52245,1,0,0:0:0:70:kick1.wav
448,192,52245,1,0,0:0:0:0:
64,192,52396,1,0,0:0:0:70:hihat2.wav
192,192,52547,128,0,52848:0:0:0:50:drum2.wav
320,192,52547,128,0,52773:0:0:0:0:
448,192,52547,128,0,52773:0:0:0:0:
64,192,52698,128,0,52848:0:0:0:70:hihat2.wav
448,192,52848,1,0,0:0:0:70:hihat2.wav
64,192,52999,1,0,0:0:0:70:kick1.wav
192,192,52999,1,0,0:0:0:0:
320,192,53150,1,0,0:0:0:70:kick1.wav
448,192,53150,1,0,0:0:0:0:
192,192,53301,1,0,0:0:0:70:hihat1.wav
64,192,53451,1,0,0:0:0:70:hihat2.wav
320,192,53602,1,0,0:0:0:70:kick1.wav
448,192,53602,1,0,0:0:0:0:
192,192,53753,1,0,0:0:0:50:drum2.wav
448,192,53753,1,0,0:0:0:0:
320,192,53904,1,0,0:0:0:70:hihat1.wav
64,192,54054,1,0,0:0:0:70:hihat2.wav
448,192,54205,1,0,0:0:0:70:hihat1.wav
64,192,54356,1,0,0:0:0:70:hihat2.wav
320,192,54507,1,0,0:0:0:70:kick1.wav
448,192,54507,1,0,0:0:0:0:
64,192,54657,1,0,0:0:0:70:kick1.wav
192,192,54657,1,0,0:0:0:0:
448,192,54808,1,0,0:0:0:70:hihat2.wav
64,192,54959,1,0,0:0:0:50:drum2.wav
320,192,54959,1,0,0:0:0:0:
192,192,55110,1,0,0:0:0:70:hihat1.wav
448,192,55260,1,0,0:0:0:70:hihat2.wav
64,192,55411,1,0,0:0:0:70:kick1.wav
192,192,55411,1,0,0:0:0:0:
320,192,55562,1,0,0:0:0:70:kick1.wav
448,192,55562,1,0,0:0:0:0:
192,192,55612,1,0,0:0:0:0:
448,192,55662,1,0,0:0:0:0:
64,192,55713,1,0,0:0:0:70:hihat1.wav
448,192,55863,128,0,55939:0:0:0:70:hihat1.wav
64,192,56014,128,0,56165:0:0:0:70:hihat1.wav
448,192,56165,128,0,56240:0:0:0:70:hihat1.wav
64,192,56316,128,0,56466:0:0:0:70:hihat1.wav
448,192,56466,128,0,56542:0:0:0:70:hihat1.wav
64,192,56617,128,0,56768:0:0:0:70:hihat1.wav
448,192,56768,128,0,56843:0:0:0:70:hihat1.wav
64,192,56919,128,0,57069:0:0:0:70:hihat1.wav
320,192,57069,1,0,0:0:0:70:kick1.wav
448,192,57069,128,0,57145:0:0:0:0:
64,192,57371,128,0,57421:0:0:0:70:kick1.wav
192,192,57371,1,0,0:0:0:0:
320,192,57522,1,0,0:0:0:50:drum2.wav
64,192,57672,1,0,0:0:0:70:kick1.wav
192,192,57672,128,0,57748:0:0:0:0:
64,192,57823,1,0,0:0:0:70:kick1.wav
192,192,57823,1,0,0:0:0:0:
320,192,57899,1,0,0:0:0:70:kick1.wav
448,192,57899,1,0,0:0:0:0:
64,192,57974,1,0,0:0:0:70:kick1.wav
192,192,57974,1,0,0:0:0:0:
320,192,58125,1,0,0:0:0:70:hihat1.wav
448,192,58275,1,0,0:0:0:70:hihat2.wav
320,192,58426,1,0,0:0:0:70:hihat1.wav
448,192,58502,1,0,0:0:0:0:
192,192,58539,1,0,0:0:0:0:
64,192,58577,1,0,0:0:0:90:drum3.wav
320,192,58577,1,0,0:0:0:0:
192,192,58728,1,0,0:0:0:70:hihat1.wav
448,192,58878,1,0,0:0:0:70:hihat2.wav
192,192,59029,1,0,0:0:0:70:hihat1.wav
448,192,59180,1,0,0:0:0:70:hihat2.wav
64,192,59331,1,0,0:0:0:50:drum2.wav
192,192,59331,1,0,0:0:0:0:
320,192,59481,1,0,0:0:0:70:kick1.wav
448,192,59481,128,0,59632:0:0:0:0:
192,192,59632,1,0,0:0:0:70:hihat2.wav
64,192,59783,1,0,0:0:0:90:drum3.wav
320,192,59783,1,0,0:0:0:0:
320,192,59934,1,0,0:0:0:70:kick1.wav
448,192,59934,1,0,0:0:0:0:
64,192,60009,1,0,0:0:0:70:kick1.wav
192,192,60009,1,0,0:0:0:0:
320,192,60084,128,0,60135:0:0:0:70:kick1.wav
448,192,60084,1,0,0:0:0:0:
192,192,60235,128,0,60386:0:0:0:0:
320,192,60386,1,0,0:0:0:70:kick1.wav
448,192,60386,1,0,0:0:0:0:
192,192,60537,1,0,0:0:0:70:hihat1.wav
64,192,60688,1,0,0:0:0:70:hihat2.wav
192,192,60838,1,0,0:0:0:70:hihat1.wav
64,192,60914,1,0,0:0:0:0:
320,192,60951,1,0,0:0:0:0:
192,192,60989,1,0,0:0:0:90:drum3.wav
448,192,60989,1,0,0:0:0:0:
64,192,61140,1,0,0:0:0:70:hihat1.wav
448,192,61291,1,0,0:0:0:70:hihat2.wav
192,192,61441,1,0,0:0:0:70:hihat1.wav
448,192,61592,1,0,0:0:0:70:hihat2.wav
64,192,61743,1,0,0:0:0:50:drum2.wav
192,192,61743,1,0,0:0:0:0:
320,192,61894,1,0,0:0:0:70:kick1.wav
448,192,61894,128,0,62044:0:0:0:0:
192,192,62044,1,0,0:0:0:70:hihat2.wav
64,192,62195,1,0,0:0:0:90:drum3.wav
320,192,62195,1,0,0:0:0:0:
192,192,62346,1,0,0:0:0:70:kick1.wav
320,192,62383,1,0,0:0:0:0:
448,192,62421,1,0,0:0:0:0:
192,192,62459,1,0,0:0:0:0:
64,192,62497,1,0,0:0:0:0:
64,192,62647,1,0,0:0:0:70:kick1.wav
192,192,62647,1,0,0:0:0:0:
320,192,62798,1,0,0:0:0:70:kick1.wav
448,192,62798,1,0,0:0:0:0:
192,192,62949,1,0,0:0:0:70:hihat1.wav
64,192,63100,1,0,0:0:0:70:hihat2.wav
192,192,63250,1,0,0:0:0:70:hihat1.wav
64,192,63326,1,0,0:0:0:0:
320,192,63363,1,0,0:0:0:0:
192,192,63401,1,0,0:0:0:90:drum3.wav
448,192,63401,1,0,0:0:0:0:
320,192,63552,1,0,0:0:0:70:hihat1.wav
64,192,63703,1,0,0:0:0:70:hihat2.wav
320,192,63853,1,0,0:0:0:70:hihat1.wav
64,192,64004,1,0,0:0:0:70:hihat2.wav
320,192,64155,1,0,0:0:0:50:drum2.wav
448,192,64155,1,0,0:0:0:0:
64,192,64306,128,0,64456:0:0:0:70:kick1.wav
192,192,64306,1,0,0:0:0:0:
320,192,64456,1,0,0:0:0:70:hihat2.wav
192,192,64607,128,0,64833:0:0:0:90:drum3.wav
448,192,64607,128,0,64682:0:0:0:0:
448,192,64758,1,0,0:0:0:70:kick1.wav
320,192,64833,1,0,0:0:0:70:kick1.wav
192,192,64909,1,0,0:0:0:70:kick1.wav
192,192,65059,1,0,0:0:0:70:kick1.wav
64,192,65210,1,0,0:0:0:70:kick1.wav
192,192,65210,1,0,0:0:0:0:
320,192,65361,1,0,0:0:0:70:hihat1.wav
448,192,65512,1,0,0:0:0:70:hihat2.wav
320,192,65662,1,0,0:0:0:70:hihat1.wav
448,192,65738,1,0,0:0:0:0:
192,192,65775,1,0,0:0:0:0:
64,192,65813,1,0,0:0:0:90:drum3.wav
320,192,65813,1,0,0:0:0:0:
192,192,65964,1,0,0:0:0:70:hihat1.wav
448,192,66115,1,0,0:0:0:70:hihat2.wav
192,192,66265,1,0,0:0:0:70:hihat1.wav
448,192,66416,1,0,0:0:0:70:hihat2.wav
64,192,66567,1,0,0:0:0:50:drum2.wav
192,192,66567,1,0,0:0:0:0:
320,192,66718,1,0,0:0:0:70:kick1.wav
448,192,66718,128,0,66868:0:0:0:0:
64,192,66868,1,0,0:0:0:70:hihat2.wav
192,192,67019,1,0,0:0:0:90:drum3.wav
448,192,67019,1,0,0:0:0:0:
64,192,67170,128,0,67208:0:0:0:70:kick1.wav
192,192,67283,128,0,67321:0:0:0:70:kick1.wav
320,192,67396,128,0,67434:0:0:0:70:kick1.wav
448,192,67509,128,0,67547:0:0:0:70:kick1.wav
64,192,67622,1,0,0:0:0:70:kick1.wav
192,192,67622,1,0,0:0:0:0:
320,192,67773,1,0,0:0:0:70:hihat1.wav
448,192,67924,1,0,0:0:0:70:hihat2.wav
320,192,68074,1,0,0:0:0:70:hihat1.wav
448,192,68150,1,0,0:0:0:0:
192,192,68188,1,0,0:0:0:0:
64,192,68225,1,0,0:0:0:90:drum3.wav
320,192,68225,1,0,0:0:0:0:
192,192,68376,1,0,0:0:0:70:hihat1.wav
448,192,68527,1,0,0:0:0:70:hihat2.wav
192,192,68677,1,0,0:0:0:70:hihat1.wav
448,192,68828,1,0,0:0:0:70:hihat2.wav
64,192,68979,1,0,0:0:0:50:drum2.wav
192,192,68979,1,0,0:0:0:0:
320,192,69130,1,0,0:0:0:70:kick1.wav
448,192,69130,128,0,69280:0:0:0:0:
192,192,69280,1,0,0:0:0:70:hihat2.wav
64,192,69431,1,0,0:0:0:90:drum3.wav
320,192,69431,1,0,0:0:0:0:
448,192,69620,128,0,69733:0:0:0:0:
64,192,69733,128,0,69808:0:0:0:70:kick1.wav
192,192,69733,1,0,0:0:0:0:
320,192,69883,1,0,0:0:0:70:kick1.wav
448,192,69883,128,0,70034:0:0:0:0:
64,192,70034,1,0,0:0:0:70:kick1.wav
192,192,70034,1,0,0:0:0:0:
320,192,70185,1,0,0:0:0:70:hihat1.wav
448,192,70336,1,0,0:0:0:70:hihat2.wav
320,192,70487,1,0,0:0:0:70:hihat1.wav
448,192,70562,1,0,0:0:0:0:
192,192,70600,1,0,0:0:0:0:
64,192,70637,1,0,0:0:0:90:drum3.wav
320,192,70637,1,0,0:0:0:0:
192,192,70788,1,0,0:0:0:70:hihat1.wav
448,192,70939,1,0,0:0:0:70:hihat2.wav
192,192,71090,1,0,0:0:0:70:hihat1.wav
448,192,71240,1,0,0:0:0:70:hihat2.wav
64,192,71391,1,0,0:0:0:50:drum2.wav
192,192,71391,1,0,0:0:0:0:
320,192,71542,1,0,0:0:0:70:kick1.wav
448,192,71542,128,0,71693:0:0:0:0:
192,192,71693,1,0,0:0:0:70:hihat2.wav
64,192,71843,128,0,71919:0:0:0:90:drum3.wav
320,192,71843,128,0,72069:0:0:0:0:
64,192,71994,1,0,0:0:0:70:kick1.wav
192,192,72069,1,0,0:0:0:70:kick1.wav
320,192,72145,1,0,0:0:0:70:kick1.wav
64,192,72245,128,0,72296:0:0:0:0:
192,192,72296,128,0,72346:0:0:0:0:
320,192,72346,128,0,72396:0:0:0:0:
448,192,72396,128,0,72446:0:0:0:0:
64,192,72446,1,0,0:0:0:70:kick1.wav
192,192,72446,1,0,0:0:0:0:
448,192,72597,1,0,0:0:0:70:hihat1.wav
64,192,72748,1,0,0:0:0:70:hihat2.wav
192,192,72899,1,0,0:0:0:70:hihat1.wav
64,192,72974,1,0,0:0:0:0:
320,192,73012,1,0,0:0:0:0:
192,192,73049,1,0,0:0:0:90:drum3.wav
448,192,73049,1,0,0:0:0:0:
320,192,73200,1,0,0:0:0:70:hihat1.wav
64,192,73351,1,0,0:0:0:70:hihat2.wav
320,192,73502,1,0,0:0:0:70:hihat1.wav
64,192,73652,1,0,0:0:0:70:hihat2.wav
320,192,73803,1,0,0:0:0:50:drum2.wav
448,192,73803,1,0,0:0:0:0:
64,192,73954,128,0,74105:0:0:0:70:kick1.wav
192,192,73954,1,0,0:0:0:0:
320,192,74105,1,0,0:0:0:70:hihat2.wav
192,192,74255,1,0,0:0:0:90:drum3.wav
448,192,74255,128,0,74331:0:0:0:0:
192,192,74406,128,0,74632:0:0:0:0:
192,192,74708,128,0,74858:0:0:0:0:
320,192,74858,1,0,0:0:0:70:kick1.wav
448,192,74858,1,0,0:0:0:0:
192,192,75009,1,0,0:0:0:70:hihat1.wav
64,192,75160,1,0,0:0:0:70:hihat2.wav
320,192,75311,1,0,0:0:0:70:hihat1.wav
448,192,75311,1,0,0:0:0:0:
192,192,75461,1,0,0:0:0:90:drum3.wav
448,192,75461,1,0,0:0:0:0:
64,192,75612,1,0,0:0:0:70:hihat1.wav
448,192,75763,1,0,0:0:0:70:hihat2.wav
64,192,75914,1,0,0:0:0:70:hihat1.wav
192,192,75914,1,0,0:0:0:0:
320,192,76064,1,0,0:0:0:70:hihat2.wav
64,192,76215,1,0,0:0:0:50:drum2.wav
192,192,76215,1,0,0:0:0:0:
320,192,76366,1,0,0:0:0:70:kick1.wav
448,192,76366,1,0,0:0:0:0:
192,192,76517,1,0,0:0:0:90:drum4.wav
448,192,76517,1,0,0:0:0:0:
64,192,76667,1,0,0:0:0:90:drum3.wav
320,192,76667,1,0,0:0:0:0:
64,192,76818,1,0,0:0:0:50:drum2.wav
192,192,76818,1,0,0:0:0:0:
64,192,76969,1,0,0:0:0:70:kick1.wav
192,192,76969,1,0,0:0:0:0:
64,192,77120,1,0,0:0:0:70:kick1.wav
192,192,77120,1,0,0:0:0:0:
320,192,77195,1,0,0:0:0:70:kick1.wav
448,192,77195,1,0,0:0:0:0:
64,192,77270,1,0,0:0:0:70:kick1.wav
192,192,77270,1,0,0:0:0:0:
320,192,77421,1,0,0:0:0:70:hihat1.wav
448,192,77572,1,0,0:0:0:70:hihat2.wav
320,192,77723,1,0,0:0:0:70:hihat1.wav
448,192,77798,1,0,0:0:0:0:
192,192,77836,1,0,0:0:0:0:
64,192,77873,1,0,0:0:0:90:drum3.wav
320,192,77873,1,0,0:0:0:0:
192,192,78024,1,0,0:0:0:70:hihat1.wav
448,192,78175,1,0,0:0:0:70:hihat2.wav
192,192,78326,1,0,0:0:0:70:hihat1.wav
448,192,78476,1,0,0:0:0:70:hihat2.wav
64,192,78627,1,0,0:0:0:50:drum2.wav
192,192,78627,1,0,0:0:0:0:
320,192,78778,1,0,0:0:0:70:kick1.wav
448,192,78778,128,0,78929:0:0:0:0:
192,192,78929,1,0,0:0:0:70:hihat2.wav
64,192,79079,128,0,79130:0:0:0:90:drum3.wav
448,192,79079,1,0,0:0:0:0:
320,192,79180,1,0,0:0:0:90:drum4.wav
64,192,79268,128,0,79343:0:0:0:0:
448,192,79381,1,0,0:0:0:90:drum4.wav
64,192,79456,128,0,79569:0:0:0:0:
320,192,79582,1,0,0:0:0:90:drum4.wav
64,192,79682,1,0,0:0:0:70:kick1.wav
192,192,79682,1,0,0:0:0:0:
320,192,79833,1,0,0:0:0:70:hihat1.wav
448,192,79984,1,0,0:0:0:70:hihat2.wav
320,192,80135,1,0,0:0:0:70:hihat1.wav
448,192,80210,1,0,0:0:0:0:
192,192,80248,1,0,0:0:0:0:
64,192,80286,1,0,0:0:0:90:drum3.wav
320,192,80286,1,0,0:0:0:0:
192,192,80436,1,0,0:0:0:70:hihat1.wav
448,192,80587,1,0,0:0:0:70:hihat2.wav
192,192,80738,1,0,0:0:0:70:hihat1.wav
448,192,80889,1,0,0:0:0:70:hihat2.wav
64,192,81039,1,0,0:0:0:50:drum2.wav
192,192,81039,1,0,0:0:0:0:
320,192,81190,128,0,81265:0:0:0:0:
448,192,81265,128,0,81416:0:0:0:0:
64,192,81341,128,0,81416:0:0:0:0:
320,192,81492,128,0,81567:0:0:0:90:drum3.wav
192,192,81642,1,0,0:0:0:0:
64,192,81793,1,0,0:0:0:70:hihat2.wav
64,192,81944,1,0,0:0:0:70:kick1.wav
192,192,81981,1,0,0:0:0:70:kick1.wav
320,192,82019,1,0,0:0:0:70:kick1.wav
448,192,82057,1,0,0:0:0:70:kick1.wav
64,192,82095,1,0,0:0:0:70:kick1.wav
192,192,82095,1,0,0:0:0:0:
320,192,82245,1,0,0:0:0:70:hihat1.wav
448,192,82396,1,0,0:0:0:70:hihat2.wav
320,192,82547,1,0,0:0:0:70:hihat1.wav
448,192,82622,1,0,0:0:0:0:
192,192,82660,1,0,0:0:0:0:
64,192,82698,1,0,0:0:0:90:drum3.wav
320,192,82698,1,0,0:0:0:0:
192,192,82848,1,0,0:0:0:70:hihat1.wav
448,192,82999,1,0,0:0:0:70:hihat2.wav
192,192,83150,1,0,0:0:0:70:hihat1.wav
448,192,83301,1,0,0:0:0:70:hihat2.wav
64,192,83451,1,0,0:0:0:50:drum2.wav
192,192,83451,1,0,0:0:0:0:
320,192,83602,1,0,0:0:0:70:kick1.wav
448,192,83602,128,0,83753:0:0:0:0:
192,192,83753,1,0,0:0:0:70:hihat2.wav
64,192,83904,128,0,83979:0:0:0:90:drum3.wav
320,192,83904,128,0,84130:0:0:0:0:
64,192,84054,1,0,0:0:0:70:kick1.wav
192,192,84130,1,0,0:0:0:70:kick1.wav
320,192,84205,1,0,0:0:0:70:kick1.wav
320,192,84356,128,0,84507:0:0:0:70:kick1.wav
64,192,84507,1,0,0:0:0:70:kick1.wav
192,192,84507,1,0,0:0:0:0:
320,192,84657,1,0,0:0:0:70:hihat1.wav
448,192,84808,1,0,0:0:0:70:hihat2.wav
320,192,84858,1,0,0:0:0:0:
64,192,84909,1,0,0:0:0:0:
64,192,85009,1,0,0:0:0:0:
320,192,85059,1,0,0:0:0:0:
192,192,85110,1,0,0:0:0:90:drum3.wav
448,192,85110,1,0,0:0:0:0:
192,192,85260,1,0,0:0:0:70:hihat1.wav
448,192,85411,1,0,0:0:0:70:hihat2.wav
192,192,85562,1,0,0:0:0:70:hihat1.wav
448,192,85713,1,0,0:0:0:70:hihat2.wav
64,192,85863,1,0,0:0:0:50:drum2.wav
192,192,85863,1,0,0:0:0:0:
320,192,86014,1,0,0:0:0:70:kick1.wav
448,192,86014,128,0,86165:0:0:0:0:
192,192,86165,128,0,86341:0:0:0:70:hihat2.wav
64,192,86341,128,0,86517:0:0:0:0:
320,192,86517,128,0,86567:0:0:0:0:
448,192,86718,128,0,86743:0:0:0:0:
64,192,86919,1,0,0:0:0:70:kick1.wav
192,192,86919,1,0,0:0:0:0:
320,192,87069,1,0,0:0:0:70:hihat1.wav
448,192,87220,1,0,0:0:0:70:hihat2.wav
192,192,87371,1,0,0:0:0:70:hihat1.wav
64,192,87446,1,0,0:0:0:0:
320,192,87484,1,0,0:0:0:0:
192,192,87522,1,0,0:0:0:90:drum3.wav
448,192,87522,1,0,0:0:0:0:
320,192,87672,1,0,0:0:0:70:hihat1.wav
64,192,87823,1,0,0:0:0:70:hihat2.wav
320,192,87974,1,0,0:0:0:70:hihat1.wav
64,192,88125,1,0,0:0:0:70:hihat2.wav
320,192,88275,1,0,0:0:0:50:drum2.wav
448,192,88275,1,0,0:0:0:0:
64,192,88426,128,0,88577:0:0:0:70:kick1.wav
192,192,88426,1,0,0:0:0:0:
320,192,88577,128,0,88652:0:0:0:70:hihat2.wav
192,192,88728,1,0,0:0:0:90:drum3.wav
448,192,88728,1,0,0:0:0:0:
448,192,88878,1,0,0:0:0:70:kick1.wav
320,192,88954,1,0,0:0:0:70:kick1.wav
192,192,89029,1,0,0:0:0:70:kick1.wav
320,192,89180,1,0,0:0:0:70:kick1.wav
64,192,89331,1,0,0:0:0:70:kick1.wav
192,192,89331,1,0,0:0:0:0:
320,192,89481,1,0,0:0:0:70:kick1.wav
448,192,89481,1,0,0:0:0:70:hihat1.wav
64,192,89632,1,0,0:0:0:70:hihat2.wav
320,192,89783,1,0,0:0:0:70:kick1.wav
448,192,89783,1,0,0:0:0:70:hihat1.wav
192,192,89934,1,0,0:0:0:90:drum3.wav
448,192,89934,1,0,0:0:0:0:
320,192,90084,1,0,0:0:0:50:drum2.wav
64,192,90235,1,0,0:0:0:70:hihat2.wav
448,192,90386,1,0,0:0:0:70:hihat1.wav
64,192,90537,1,0,0:0:0:70:kick1.wav
192,192,90537,1,0,0:0:0:70:hihat2.wav
192,192,90688,1,0,0:0:0:50:drum2.wav
320,192,90838,128,0,90989:0:0:0:90:drum4.wav
448,192,90989,128,0,91140:0:0:0:70:hihat2.wav
64,192,91140,1,0,0:0:0:90:drum3.wav
320,192,91140,1,0,0:0:0:0:
64,192,91291,1,0,0:0:0:70:kick1.wav
192,192,91291,1,0,0:0:0:0:
320,192,91341,1,0,0:0:0:0:
448,192,91391,1,0,0:0:0:0:
64,192,91441,1,0,0:0:0:0:
192,192,91479,1,0,0:0:0:0:
320,192,91517,1,0,0:0:0:0:
448,192,91554,1,0,0:0:0:0:
64,192,91592,1,0,0:0:0:70:kick1.wav
192,192,91592,1,0,0:0:0:0:
320,192,91743,1,0,0:0:0:70:kick1.wav
448,192,91743,1,0,0:0:0:0:
192,192,91894,1,0,0:0:0:70:hihat1.wav
64,192,92044,1,0,0:0:0:70:hihat2.wav
192,192,92195,1,0,0:0:0:70:hihat1.wav
64,192,92270,1,0,0:0:0:0:
320,192,92308,1,0,0:0:0:0:
192,192,92346,1,0,0:0:0:90:drum3.wav
448,192,92346,1,0,0:0:0:0:
320,192,92497,1,0,0:0:0:70:hihat1.wav
64,192,92647,1,0,0:0:0:70:hihat2.wav
320,192,92798,1,0,0:0:0:70:hihat1.wav
64,192,92949,1,0,0:0:0:70:hihat2.wav
320,192,93100,1,0,0:0:0:50:drum2.wav
448,192,93100,1,0,0:0:0:0:
64,192,93250,128,0,93401:0:0:0:70:kick1.wav
192,192,93250,1,0,0:0:0:0:
448,192,93401,1,0,0:0:0:70:hihat2.wav
320,192,93552,1,0,0:0:0:90:drum3.wav
320,192,93703,1,0,0:0:0:70:kick1.wav
192,192,93778,1,0,0:0:0:70:kick1.wav
320,192,93853,1,0,0:0:0:70:kick1.wav
320,192,94004,1,0,0:0:0:70:kick1.wav
64,192,94155,1,0,0:0:0:70:kick1.wav
192,192,94155,1,0,0:0:0:0:
448,192,94306,1,0,0:0:0:70:hihat1.wav
64,192,94456,1,0,0:0:0:70:kick1.wav
192,192,94456,1,0,0:0:0:70:hihat2.wav
192,192,94607,1,0,0:0:0:70:hihat1.wav
64,192,94682,1,0,0:0:0:0:
320,192,94720,1,0,0:0:0:0:
192,192,94758,1,0,0:0:0:90:drum3.wav
448,192,94758,1,0,0:0:0:0:
320,192,94909,1,0,0:0:0:70:hihat1.wav
64,192,95059,1,0,0:0:0:70:hihat2.wav
320,192,95210,1,0,0:0:0:70:hihat1.wav
64,192,95361,1,0,0:0:0:70:hihat2.wav
192,192,95361,1,0,0:0:0:0:
320,192,95411,1,0,0:0:0:0:
192,192,95461,1,0,0:0:0:0:
448,192,95512,1,0,0:0:0:70:hihat1.wav
64,192,95662,128,0,95738:0:0:0:70:hihat1.wav
448,192,95813,128,0,95964:0:0:0:70:hihat1.wav
64,192,95964,128,0,96039:0:0:0:90:drum3.wav
192,192,95964,1,0,0:0:0:70:hihat1.wav
320,192,96115,1,0,0:0:0:70:kick1.wav
448,192,96115,128,0,96265:0:0:0:0:
192,192,96190,1,0,0:0:0:70:kick1.wav
320,192,96265,128,0,96341:0:0:0:0:
64,192,96416,128,0,96542:0:0:0:70:kick1.wav
192,192,96441,128,0,96567:0:0:0:0:
320,192,96567,128,0,96868:0:0:0:70:kick1.wav
448,192,96567,1,0,0:0:0:0:
192,192,96718,1,0,0:0:0:70:hihat1.wav
64,192,96868,1,0,0:0:0:70:hihat2.wav
320,192,97019,1,0,0:0:0:70:hihat1.wav
448,192,97095,1,0,0:0:0:0:
192,192,97132,1,0,0:0:0:0:
64,192,97170,128,0,97471:0:0:0:90:drum3.wav
320,192,97170,1,0,0:0:0:0:
192,192,97321,1,0,0:0:0:70:hihat1.wav
448,192,97471,128,0,97773:0:0:0:70:hihat2.wav
192,192,97622,1,0,0:0:0:70:hihat1.wav
320,192,97773,1,0,0:0:0:70:hihat2.wav
64,192,97924,1,0,0:0:0:50:drum2.wav
192,192,97924,1,0,0:0:0:0:
320,192,98074,1,0,0:0:0:70:kick1.wav
448,192,98074,128,0,98225:0:0:0:0:
192,192,98225,1,0,0:0:0:70:hihat2.wav
64,192,98376,1,0,0:0:0:90:drum3.wav
320,192,98376,1,0,0:0:0:0:
448,192,98564,128,0,98640:0:0:0:0:
64,192,98677,1,0,0:0:0:0:
448,192,98791,128,0,98904:0:0:0:0:
64,192,98979,1,0,0:0:0:70:kick1.wav
192,192,98979,128,0,99280:0:0:0:0:
320,192,99130,1,0,0:0:0:70:hihat1.wav
448,192,99280,1,0,0:0:0:70:hihat2.wav
320,192,99431,1,0,0:0:0:70:hihat1.wav
448,192,99507,1,0,0:0:0:0:
192,192,99544,1,0,0:0:0:0:
64,192,99582,1,0,0:0:0:90:drum3.wav
320,192,99582,1,0,0:0:0:0:
192,192,99733,1,0,0:0:0:70:hihat1.wav
448,192,99883,1,0,0:0:0:70:hihat2.wav
192,192,100034,1,0,0:0:0:70:hihat1.wav
448,192,100185,1,0,0:0:0:70:hihat2.wav
64,192,100336,1,0,0:0:0:50:drum2.wav
192,192,100336,1,0,0:0:0:0:
320,192,100487,1,0,0:0:0:70:kick1.wav
448,192,100487,128,0,100637:0:0:0:0:
192,192,100637,1,0,0:0:0:70:hihat2.wav
64,192,100788,1,0,0:0:0:90:drum3.wav
320,192,100788,1,0,0:0:0:0:
64,192,100939,128,0,100989:0:0:0:70:kick1.wav
192,192,101014,128,0,101064:0:0:0:70:kick1.wav
64,192,101090,128,0,101165:0:0:0:70:kick1.wav
192,192,101165,128,0,101240:0:0:0:70:kick1.wav
320,192,101240,128,0,101278:0:0:0:70:kick1.wav
320,192,101391,128,0,101693:0:0:0:70:kick1.wav
448,192,101391,1,0,0:0:0:0:
192,192,101542,1,0,0:0:0:70:hihat1.wav
64,192,101693,1,0,0:0:0:70:hihat2.wav
192,192,101843,1,0,0:0:0:70:hihat1.wav
64,192,101919,1,0,0:0:0:0:
320,192,101956,1,0,0:0:0:0:
192,192,101994,1,0,0:0:0:90:drum3.wav
448,192,101994,128,0,102296:0:0:0:0:
320,192,102145,1,0,0:0:0:70:hihat1.wav
64,192,102296,128,0,102597:0:0:0:70:hihat2.wav
320,192,102446,1,0,0:0:0:70:hihat1.wav
192,192,102597,1,0,0:0:0:70:hihat2.wav
320,192,102748,1,0,0:0:0:50:drum2.wav
448,192,102748,1,0,0:0:0:0:
64,192,102899,128,0,103049:0:0:0:70:kick1.wav
192,192,102899,1,0,0:0:0:0:
320,192,103049,1,0,0:0:0:70:hihat2.wav
192,192,103200,128,0,103275:0:0:0:90:drum3.wav
448,192,103200,128,0,103426:0:0:0:0:
192,192,103351,1,0,0:0:0:70:kick1.wav
320,192,103426,1,0,0:0:0:70:kick1.wav
448,192,103502,128,0,103652:0:0:0:70:kick1.wav
64,192,103652,1,0,0:0:0:70:kick1.wav
192,192,103652,128,0,103803:0:0:0:0:
320,192,103803,128,0,104105:0:0:0:70:kick1.wav
448,192,103803,1,0,0:0:0:0:
192,192,103954,1,0,0:0:0:70:hihat1.wav
64,192,104105,1,0,0:0:0:70:hihat2.wav
320,192,104255,1,0,0:0:0:70:hihat1.wav
448,192,104331,1,0,0:0:0:0:
192,192,104368,1,0,0:0:0:0:
64,192,104406,1,0,0:0:0:90:drum3.wav
320,192,104406,1,0,0:0:0:0:
192,192,104557,1,0,0:0:0:70:hihat1.wav
448,192,104708,1,0,0:0:0:70:hihat2.wav
192,192,104858,1,0,0:0:0:70:hihat1.wav
448,192,105009,1,0,0:0:0:70:hihat2.wav
64,192,105160,1,0,0:0:0:50:drum2.wav
192,192,105160,1,0,0:0:0:0:
320,192,105311,1,0,0:0:0:70:kick1.wav
448,192,105311,128,0,105461:0:0:0:0:
192,192,105461,1,0,0:0:0:70:hihat2.wav
64,192,105612,1,0,0:0:0:90:drum3.wav
320,192,105612,1,0,0:0:0:0:
192,192,105763,1,0,0:0:0:70:kick1.wav
320,192,105813,1,0,0:0:0:70:kick1.wav
448,192,105863,1,0,0:0:0:70:kick1.wav
64,192,105914,128,0,106064:0:0:0:0:
320,192,106064,128,0,106140:0:0:0:70:kick1.wav
448,192,106064,1,0,0:0:0:0:
64,192,106215,1,0,0:0:0:70:kick1.wav
192,192,106215,128,0,106517:0:0:0:0:
320,192,106366,1,0,0:0:0:70:hihat1.wav
448,192,106517,1,0,0:0:0:70:hihat2.wav
320,192,106667,1,0,0:0:0:70:hihat1.wav
448,192,106743,1,0,0:0:0:0:
192,192,106780,1,0,0:0:0:0:
64,192,106818,128,0,107120:0:0:0:90:drum3.wav
320,192,106818,1,0,0:0:0:0:
192,192,106969,1,0,0:0:0:70:hihat1.wav
448,192,107120,128,0,107421:0:0:0:70:hihat2.wav
192,192,107270,1,0,0:0:0:70:hihat1.wav
320,192,107421,1,0,0:0:0:70:hihat2.wav
64,192,107572,1,0,0:0:0:50:drum2.wav
192,192,107572,1,0,0:0:0:0:
320,192,107723,1,0,0:0:0:70:kick1.wav
448,192,107723,128,0,107873:0:0:0:0:
192,192,107873,1,0,0:0:0:70:hihat2.wav
64,192,108024,128,0,108100:0:0:0:90:drum3.wav
320,192,108024,128,0,108250:0:0:0:0:
64,192,108175,1,0,0:0:0:70:kick1.wav
192,192,108250,1,0,0:0:0:70:kick1.wav
320,192,108326,128,0,108401:0:0:0:70:kick1.wav
192,192,108476,128,0,108527:0:0:0:70:kick1.wav
64,192,108502,128,0,108552:0:0:0:0:
320,192,108627,128,0,108929:0:0:0:70:kick1.wav
448,192,108627,1,0,0:0:0:0:
192,192,108778,1,0,0:0:0:70:hihat1.wav
64,192,108929,1,0,0:0:0:70:hihat2.wav
192,192,109079,1,0,0:0:0:70:hihat1.wav
64,192,109155,1,0,0:0:0:0:
320,192,109193,1,0,0:0:0:0:
192,192,109230,1,0,0:0:0:90:drum3.wav
448,192,109230,1,0,0:0:0:0:
320,192,109381,1,0,0:0:0:70:hihat1.wav
64,192,109532,1,0,0:0:0:70:hihat2.wav
320,192,109682,1,0,0:0:0:70:hihat1.wav
64,192,109833,1,0,0:0:0:70:hihat2.wav
320,192,109984,1,0,0:0:0:50:drum2.wav
448,192,109984,1,0,0:0:0:0:
64,192,110135,128,0,110286:0:0:0:70:kick1.wav
192,192,110135,1,0,0:0:0:0:
320,192,110286,1,0,0:0:0:70:hihat2.wav
192,192,110436,1,0,0:0:0:90:drum3.wav
448,192,110436,1,0,0:0:0:0:
320,192,110587,128,0,110688:0:0:0:70:kick1.wav
448,192,110587,1,0,0:0:0:0:
64,192,110688,128,0,110889:0:0:0:0:
320,192,110889,1,0,0:0:0:70:kick1.wav
448,192,110889,128,0,110964:0:0:0:0:
64,192,111039,1,0,0:0:0:70:kick1.wav
192,192,111039,128,0,111341:0:0:0:0:
320,192,111190,1,0,0:0:0:70:hihat1.wav
448,192,111341,1,0,0:0:0:70:hihat2.wav
320,192,111492,1,0,0:0:0:70:hihat1.wav
448,192,111567,1,0,0:0:0:0:
192,192,111605,1,0,0:0:0:0:
64,192,111642,128,0,111944:0:0:0:90:drum3.wav
320,192,111642,1,0,0:0:0:0:
192,192,111793,1,0,0:0:0:70:hihat1.wav
448,192,111944,128,0,112245:0:0:0:70:hihat2.wav
192,192,112095,1,0,0:0:0:70:hihat1.wav
320,192,112245,1,0,0:0:0:70:hihat2.wav
64,192,112396,1,0,0:0:0:50:drum2.wav
192,192,112396,1,0,0:0:0:0:
320,192,112547,1,0,0:0:0:70:kick1.wav
448,192,112547,128,0,112698:0:0:0:0:
192,192,112698,1,0,0:0:0:70:hihat2.wav
64,192,112848,1,0,0:0:0:90:drum3.wav
320,192,112848,1,0,0:0:0:0:
448,192,112999,1,0,0:0:0:70:kick1.wav
320,192,113037,1,0,0:0:0:0:
192,192,113074,1,0,0:0:0:0:
64,192,113112,1,0,0:0:0:0:
320,192,113150,1,0,0:0:0:70:kick1.wav
320,192,113301,1,0,0:0:0:70:kick1.wav
320,192,113451,128,0,113753:0:0:0:70:kick1.wav
448,192,113451,1,0,0:0:0:0:
192,192,113602,1,0,0:0:0:70:hihat1.wav
64,192,113753,1,0,0:0:0:70:hihat2.wav
192,192,113904,1,0,0:0:0:70:hihat1.wav
64,192,113979,1,0,0:0:0:0:
320,192,114017,1,0,0:0:0:0:
192,192,114054,1,0,0:0:0:90:drum3.wav
448,192,114054,1,0,0:0:0:0:
320,192,114205,1,0,0:0:0:70:hihat1.wav
64,192,114356,1,0,0:0:0:70:hihat2.wav
320,192,114507,1,0,0:0:0:70:hihat1.wav
64,192,114657,1,0,0:0:0:70:hihat2.wav
320,192,114808,1,0,0:0:0:50:drum2.wav
448,192,114808,1,0,0:0:0:0:
64,192,114959,128,0,115110:0:0:0:70:kick1.wav
192,192,114959,1,0,0:0:0:0:
320,192,115110,128,0,115260:0:0:0:70:hihat2.wav
192,192,115260,1,0,0:0:0:90:drum3.wav
448,192,115260,1,0,0:0:0:0:
64,192,115411,128,0,115562:0:0:0:70:kick1.wav
192,192,115411,128,0,115662:0:0:0:0:
320,192,115713,128,0,115863:0:0:0:70:kick1.wav
320,192,116127,128,0,116203:0:0:0:70:kick1.wav
320,192,116542,128,0,116617:0:0:0:70:kick1.wav
320,192,116956,128,0,117032:0:0:0:70:kick1.wav
320,192,117371,128,0,117446:0:0:0:30:hihat1.wav
320,192,117786,128,0,117861:0:0:0:30:hihat1.wav
320,192,118200,128,0,118257:0:0:0:30:hihat1.wav
320,192,118615,128,0,118671:0:0:0:30:hihat1.wav
320,192,119029,128,0,119086:0:0:0:30:hihat1.wav
192,192,119255,128,0,119312:0:0:0:30:hihat1.wav
320,192,119481,128,0,119519:0:0:0:30:hihat1.wav
192,192,119708,128,0,119745:0:0:0:30:hihat1.wav
320,192,119934,128,0,119971:0:0:0:30:hihat1.wav
192,192,120160,128,0,120198:0:0:0:30:hihat1.wav
320,192,120386,1,0,0:0:0:30:hihat1.wav
192,192,120612,1,0,0:0:0:30:hihat1.wav
320,192,120838,1,0,0:0:0:30:hihat1.wav
192,192,121064,1,0,0:0:0:30:hihat1.wav
