osu file format v14

[General]
AudioFilename: The Flashbulb - Nothing Is Real - 01 Dead On The 4th Of July.mp3
AudioLeadIn: 0
PreviewTime: 46110
Countdown: 0
SampleSet: None
StackLeniency: 0.4
Mode: 0
LetterboxInBreaks: 0
WidescreenStoryboard: 1

[Editor]
Bookmarks: 15330,37410,76770,107490,119010,138210,153570
DistanceSpacing: 1
BeatDivisor: 3
GridSize: 4
TimelineZoom: 1

[Metadata]
Title:Dead On The 4th Of July
TitleUnicode:Dead On The 4th Of July
Artist:The Flashbulb
ArtistUnicode:The Flashbulb
Creator:Mismagius
Version:Easy
Source:
Tags:nothing is real experimental idm benn jordan ambient
BeatmapID:1360189
BeatmapSetID:347882

[Difficulty]
HPDrainRate:2
CircleSize:2.5
OverallDifficulty:2
ApproachRate:3
SliderMultiplier:1
SliderTickRate:1

[Events]
//Background and Video events
0,0,"wallhaven-123662.jpg",0,0
//Break Periods
//Storyboard Layer 0 (Background)
//Storyboard Layer 1 (Fail)
//Storyboard Layer 2 (Pass)
//Storyboard Layer 3 (Foreground)
//Storyboard Sound Samples

[TimingPoints]
30,480,4,3,0,30,1,0
107390,-100,4,3,0,30,0,0
107550,-100,4,3,0,30,0,1
138270,-111.111111111111,4,2,0,15,0,0
142110,-111.111111111111,4,2,0,10,0,0
144030,-111.111111111111,4,2,0,5,0,0
145950,-100,4,3,0,30,0,0

[Colours]
Combo1 : 92,99,131
Combo2 : 182,180,205
Combo3 : 209,210,174
Combo4 : 132,130,98

[HitObjects]
44,80,15390,6,0,P|144:105|235:80,1,200,12|2,0:0|0:0,0:0:0:0:
316,20,16830,1,4,0:0:0:0:
396,80,17310,2,0,L|436:304,2,200,4|2|12,0:0|0:0|0:0,0:0:0:0:
316,20,19710,5,0,0:0:0:0:
234,80,20190,2,0,P|187:92|138:80,1,100,2|4,0:0|0:0,0:0:0:0:
80,0,21150,2,0,P|40:84|94:169,1,200,4|2,0:0|0:0,0:0:0:0:
172,224,22590,1,4,0:0:0:0:
272,212,23070,6,0,B|372:200|372:200|456:272,1,200,12|2,0:0|0:0,0:0:0:0:
476,360,24510,1,4,0:0:0:0:
376,340,24990,2,0,P|324:336|276:356,1,100,4|0,0:0|0:0,0:0:0:0:
209,282,25950,2,0,P|157:286|109:266,1,100,2|4,0:0|0:0,0:0:0:0:
44,196,26910,6,0,P|36:104|108:24,1,200,12|2,0:0|0:0,0:0:0:0:
184,84,28350,1,4,0:0:0:0:
264,28,28830,2,0,P|329:100|322:197,1,200,4|2,0:0|0:0,0:0:0:0:
252,268,30270,1,4,0:0:0:0:
164,220,30750,6,0,B|112:228|68:204|68:204|48:256|0:280,2,200,12|2|4,0:0|0:0|0:0,0:0:0:0:
256,180,33150,1,0,0:0:0:0:
348,220,33630,2,0,P|400:220|452:200,1,100,2|4,0:0|0:0,0:0:0:0:
484,112,34590,6,0,L|444:12,1,100,12|0,0:0|0:0,0:0:0:0:
364,76,35550,2,0,P|272:100|188:36,2,200,2|4|2,0:0|0:0|0:0,0:0:0:0:
447,19,37950,1,4,0:0:0:0:
488,108,38430,6,0,P|492:164|476:208,1,100,12|0,0:0|0:0,0:0:0:0:
420,288,39390,2,0,B|320:296|320:296|232:248,1,200,2|4,0:0|0:0,0:0:0:0:
148,196,40830,1,0,0:0:0:0:
64,248,41310,2,0,P|64:296|88:344,1,100,2|4,0:0|0:0,0:0:0:0:
180,308,42270,6,0,B|278:271|278:344|376:308,1,200,12|2,0:0|0:0,0:0:0:0:
416,220,43710,1,4,0:0:0:0:
323,184,44190,2,0,P|303:132|307:84,1,100,4|0,0:0|0:0,0:0:0:0:
205,87,45150,2,0,P|207:137|188:183,1,100,2|4,0:0|0:0,0:0:0:0:
87,200,46110,6,0,P|124:264|242:272,1,200,12|2,0:0|0:0,0:0:0:0:
300,192,47550,1,4,0:0:0:0:
388,240,48030,2,0,L|504:240,1,100,4|0,0:0|0:0,0:0:0:0:
488,140,48990,2,0,L|372:140,1,100,2|4,0:0|0:0,0:0:0:0:
312,72,49950,6,0,B|216:48|216:48|116:72,1,200,12|2,0:0|0:0,0:0:0:0:
20,96,51390,1,4,0:0:0:0:
84,172,51870,2,0,P|96:212|88:272,2,100,4|0|2,0:0|0:0|0:0,0:0:0:0:
20,96,53310,1,4,0:0:0:0:
92,28,53790,6,0,P|176:12|256:84,1,200,12|2,0:0|0:0,0:0:0:0:
256,184,55230,1,4,0:0:0:0:
200,267,55710,2,0,B|188:315|188:315|208:371,1,100,4|0,0:0|0:0,0:0:0:0:
307,363,56670,2,0,B|323:315|323:315|311:267,1,100,2|4,0:0|0:0,0:0:0:0:
256,183,57630,6,0,P|341:170|410:249,1,200,12|2,0:0|0:0,0:0:0:0:
412,350,59070,1,4,0:0:0:0:
320,312,59550,2,0,B|268:304|268:304|220:312,1,100,4|0,0:0|0:0,0:0:0:0:
124,336,60510,2,0,B|72:344|72:344|24:336,1,100,2|4,0:0|0:0,0:0:0:0:
64,244,61470,6,0,P|80:192|8:72,2,200,12|2|4,0:0|0:0|0:0,0:0:0:0:
25,336,63870,1,0,0:0:0:0:
120,368,64350,2,0,L|164:276,1,100,2|4,0:0|0:0,0:0:0:0:
200,184,65310,6,0,P|220:88|172:4,1,200,12|2,0:0|0:0,0:0:0:0:
72,12,66750,1,4,0:0:0:0:
80,112,67230,2,0,B|178:149|178:76|276:112,1,200,4|2,0:0|0:0,0:0:0:0:
228,200,68670,1,4,0:0:0:0:
184,288,69150,6,0,B|132:296|88:272|88:272|68:324|20:348,2,200,12|2|4,0:0|0:0|0:0,0:0:0:0:
280,256,71550,1,0,0:0:0:0:
340,336,72030,2,0,P|389:344|439:336,1,100,2|4,0:0|0:0,0:0:0:0:
500,255,72990,6,0,P|507:158|450:78,2,200,12|2|4,0:0|0:0|0:0,0:0:0:0:
408,300,75390,1,0,0:0:0:0:
316,256,75870,2,0,P|266:247|216:256,1,100,2|4,0:0|0:0,0:0:0:0:
128,300,76830,5,12,0:0:0:0:
36,256,77310,1,0,0:0:0:0:
92,172,77790,2,0,P|104:92|16:12,2,200,2|4|2,0:0|0:0|0:0,0:0:0:0:
36,256,80190,1,4,0:0:0:0:
88,340,80670,6,0,L|192:316,1,100,12|0,0:0|0:0,0:0:0:0:
284,292,81630,2,0,B|321:194|248:194|284:96,2,200,2|4|2,0:0|0:0|0:0,0:0:0:0:
232,380,84030,1,4,0:0:0:0:
144,332,84510,6,0,L|40:332,1,100,12|0,0:0|0:0,0:0:0:0:
20,236,85470,2,0,B|0:140|0:140|44:44,2,200,2|12|2,0:0|0:0|0:0,0:0:0:0:
44,332,87870,1,4,0:0:0:0:
124,276,88350,6,0,P|180:260|236:268,1,100,12|0,0:0|0:0,0:0:0:0:
312,308,89310,2,0,P|368:324|484:240,2,200,2|12|2,0:0|0:0|0:0,0:0:0:0:
260,220,91710,1,4,0:0:0:0:
312,136,92190,2,0,P|320:85|312:35,1,100,12|0,0:0|0:0,0:0:0:0:
216,20,93150,6,0,B|168:36|116:20|116:20|84:60|32:76,2,200,2|4|2,0:0|0:0|0:0,0:0:0:0:
276,100,95550,1,4,0:0:0:0:
208,172,96030,2,0,P|202:224|208:270,1,100,12|0,0:0|0:0,0:0:0:0:
296,320,96990,6,0,B|344:304|396:320|396:320|428:280|480:264,2,200,2|4|2,0:0|0:0|0:0,0:0:0:0:
236,240,99390,1,4,0:0:0:0:
304,168,99870,2,0,P|309:115|304:69,1,100,12|0,0:0|0:0,0:0:0:0:
212,24,100830,6,0,P|112:28|36:92,2,200,2|4|2,0:0|0:0|0:0,0:0:0:0:
304,69,103230,1,4,0:0:0:0:
352,156,103710,6,0,P|352:205|332:260,1,100,12|0,0:0|0:0,0:0:0:0:
256,312,104670,2,0,P|352:296|444:352,2,200,2|4|2,0:0|0:0|0:0,0:0:0:0:
168,360,107070,1,4,0:0:0:0:
92,296,107550,6,0,P|72:252|68:196,1,100,4|2,0:1|0:0,0:0:0:0:
72,100,108510,2,0,P|88:54|125:12,1,100,4|2,0:2|0:0,0:0:0:0:
220,44,109470,2,0,B|296:108|296:108|408:92,1,200,12|4,0:0|0:2,0:0:0:0:
496,80,110910,1,4,0:0:0:0:
452,172,111390,6,0,L|352:187,1,100,12|2,0:0|0:0,0:0:0:0:
282,257,112350,2,0,L|182:242,1,100,4|2,0:2|0:0,0:0:0:0:
136,156,113310,2,0,P|88:216|134:328,1,200,12|4,0:0|0:2,0:0:0:0:
216,364,114750,1,4,0:0:0:0:
312,332,115230,6,0,P|336:272|332:216,1,100,4|2,0:0|0:0,0:0:0:0:
265,166,116190,2,0,P|268:116|289:71,1,100,4|4,0:2|0:0,0:0:0:0:
376,24,117150,2,0,L|184:80,1,200,12|4,0:0|0:2,0:0:0:0:
88,112,118590,1,4,0:0:0:0:
158,184,119070,6,0,B|208:207|255:190|255:190|301:207|352:184,2,200,12|4|12,0:0|0:2|0:0,0:0:0:0:
176,84,121470,1,0,0:0:0:0:
256,24,121950,1,4,0:2:0:0:
336,84,122430,1,4,0:0:0:0:
352,184,122910,6,0,B|352:292|352:292|352:344|315:373,1,200,12|4,0:0|0:2,0:0:0:0:
256,297,124350,1,4,0:0:0:0:
196,373,124830,2,0,B|160:344|160:292|160:292|160:184,1,200,12|4,0:0|0:2,0:0:0:0:
256,148,126270,1,4,0:0:0:0:
352,184,126750,6,0,P|396:192|452:184,1,100,12|2,0:0|0:0,0:0:0:0:
450,84,127710,2,0,P|400:76|351:84,1,100,4|4,0:2|0:0,0:0:0:0:
264,132,128670,2,0,B|166:169|166:96|68:132,1,200,12|4,0:0|0:2,0:0:0:0:
4,208,130110,1,4,0:0:0:0:
72,280,130590,6,0,P|120:292|168:280,1,100,12|0,0:0|0:0,0:0:0:0:
256,228,131550,2,0,P|336:228|420:312,1,200,4|12,0:2|0:0,0:0:0:0:
340,368,132990,1,0,0:0:0:0:
244,336,133470,2,0,L|144:336,1,100,4|4,0:2|0:0,0:0:0:0:
88,252,134430,6,0,P|143:101|191:243,2,400,12|14|0,0:0|0:0|0:0,0:0:0:0:
264,344,139230,6,0,B|353:361|353:361|440:344,2,179.999994506836,2|0|0,0:0|0:0|0:0,0:0:0:0:
195,177,142110,6,0,L|211:87,1,89.9999972534181,2|0,0:0|0:0,0:0:0:0:
301,88,143070,2,0,L|317:177,1,89.9999972534181,2|0,0:0|0:0,0:0:0:0:
256,243,144030,1,2,0:0:0:0:
256,243,144990,1,0,0:0:0:0:
256,243,145950,6,0,P|176:219|64:243,1,200,12|2,0:0|0:0,0:0:0:0:
29,148,147390,1,4,0:0:0:0:
104,84,147870,2,0,P|152:76|204:84,1,100,4|0,0:0|0:0,0:0:0:0:
309,83,148830,2,0,P|358:75|408:84,1,100,2|0,0:0|0:0,0:0:0:0:
468,164,149790,6,0,B|488:264|488:264|448:360,1,200,12|2,0:0|0:0,0:0:0:0:
364,300,151230,1,4,0:0:0:0:
267,324,151710,2,0,L|167:324,1,100,4|0,0:0|0:0,0:0:0:0:
181,225,152670,2,0,L|281:225,1,100,2|4,0:0|0:0,0:0:0:0:
352,154,153630,5,4,0:0:0:0:
