osu file format v14

[General]
AudioFilename: The Flashbulb - Nothing Is Real - 01 Dead On The 4th Of July.mp3
AudioLeadIn: 0
PreviewTime: 46110
Countdown: 0
SampleSet: None
StackLeniency: 0.5
Mode: 0
LetterboxInBreaks: 0
WidescreenStoryboard: 1

[Editor]
Bookmarks: 15330,37410,44130,76770,107490,119010,138210,153570
DistanceSpacing: 1.2
BeatDivisor: 6
GridSize: 4
TimelineZoom: 0.9000001

[Metadata]
Title:Dead On The 4th Of July
TitleUnicode:Dead On The 4th Of July
Artist:The Flashbulb
ArtistUnicode:The Flashbulb
Creator:Mismagius
Version:Hard
Source:
Tags:nothing is real experimental idm benn jordan ambient
BeatmapID:1359229
BeatmapSetID:347882

[Difficulty]
HPDrainRate:4
CircleSize:4.5
OverallDifficulty:7
ApproachRate:8
SliderMultiplier:1.4
SliderTickRate:1

[Events]
//Background and Video events
0,0,"wallhaven-123662.jpg",0,0
//Break Periods
//Storyboard Layer 0 (Background)
//Storyboard Layer 1 (Fail)
//Storyboard Layer 2 (Pass)
//Storyboard Layer 3 (Foreground)
//Storyboard Sound Samples

[TimingPoints]
30,480,4,3,0,30,1,0
107390,-100,4,3,0,30,0,0
107550,-86.9565217391304,4,3,0,30,0,1
138270,-117.647058823529,4,2,0,15,0,0
142110,-117.647058823529,4,2,0,10,0,0
144030,-117.647058823529,4,2,0,5,0,0
145950,-100,4,3,0,30,0,0

[Colours]
Combo1 : 92,99,131
Combo2 : 182,180,205
Combo3 : 209,210,174
Combo4 : 132,130,98

[HitObjects]
39,95,15390,6,0,P|95:71|135:79,1,93.3333333333333,12|0,0:0|0:0,0:0:0:0:
192,128,15870,1,0,0:0:0:0:
192,128,16030,1,0,0:0:0:0:
192,128,16190,1,0,0:0:0:0:
192,128,16350,2,0,B|256:156|256:156|320:128,1,140,2|4,0:0|0:0,0:0:0:0:
448,64,17150,1,0,0:0:0:0:
448,64,17310,6,0,L|484:152,1,93.3333333333333,4|0,0:0|0:0,0:0:0:0:
416,172,17790,2,0,L|452:260,1,93.3333333333333,0|0,0:0|0:0,0:0:0:0:
480,322,18270,1,2,0:0:0:0:
280,376,18750,1,4,0:0:0:0:
344,176,19230,6,0,P|356:124|332:68,1,93.3333333333333,12|0,0:0|0:0,0:0:0:0:
275,86,19710,1,0,0:0:0:0:
275,86,19870,1,0,0:0:0:0:
275,86,20030,1,0,0:0:0:0:
275,86,20190,2,0,P|263:138|287:194,1,93.3333333333333,2|0,0:0|0:0,0:0:0:0:
228,228,20670,2,0,P|238:272|226:317,1,93.3333333333333,4|0,0:0|0:0,0:0:0:0:
168,356,21150,6,0,L|124:380,2,46.6666666666667,4|0|0,0:0|0:0|0:0,0:0:0:0:
124,300,21630,2,0,L|80:324,2,46.6666666666667,0|0|0,0:0|0:0|0:0,0:0:0:0:
144,232,22110,2,0,B|152:184|152:184|132:132,1,93.3333333333333,2|0,0:0|0:0,0:0:0:0:
112,76,22590,2,0,L|91:26,2,46.6666666666667,4|0|0,0:0|0:0|0:0,0:0:0:0:
180,88,23070,6,0,P|232:92|288:60,1,93.3333333333333,12|0,0:0|0:0,0:0:0:0:
320,28,23550,1,0,0:0:0:0:
320,28,23710,1,0,0:0:0:0:
320,28,23870,1,0,0:0:0:0:
320,28,24030,2,0,P|372:24|428:56,1,93.3333333333333,2|0,0:0|0:0,0:0:0:0:
456,92,24510,2,0,L|444:144,1,46.6666666666667,4|0,0:0|0:0,0:0:0:0:
422,205,24830,1,0,0:0:0:0:
396,272,24990,6,0,B|352:284|348:260|304:272,1,93.3333333333333,4|0,0:0|0:0,0:0:0:0:
248,316,25470,2,0,L|228:364,2,46.6666666666667,0|0|0,0:0|0:0|0:0,0:0:0:0:
224,248,25950,2,0,L|244:200,2,46.6666666666667,2|0|0,0:0|0:0|0:0,0:0:0:0:
152,252,26430,2,0,L|132:300,2,46.6666666666667,4|0|0,0:0|0:0|0:0,0:0:0:0:
136,184,26910,6,0,P|124:136|132:88,1,93.3333333333333,12|0,0:0|0:0,0:0:0:0:
165,37,27390,1,0,0:0:0:0:
165,37,27550,1,0,0:0:0:0:
165,37,27710,1,0,0:0:0:0:
165,37,27870,2,0,L|257:65,1,93.3333333333333,2|0,0:0|0:0,0:0:0:0:
322,80,28350,2,0,P|358:80|382:68,2,46.6666666666667,4|0|0,0:0|0:0|0:0,0:0:0:0:
274,131,28830,6,0,B|262:179|262:179|278:227,1,93.3333333333333,4|0,0:0|0:0,0:0:0:0:
302,287,29310,1,4,0:0:0:0:
167,247,29630,1,0,0:0:0:0:
167,247,29790,1,2,0:0:0:0:
207,381,30110,1,0,0:0:0:0:
207,381,30270,2,0,P|235:382|261:369,2,46.6666666666667,4|0|0,0:0|0:0|0:0,0:0:0:0:
149,340,30750,6,0,B|104:322|104:322|54:331,1,93.3333333333333,12|0,0:0|0:0,0:0:0:0:
10,380,31230,1,0,0:0:0:0:
10,380,31390,1,0,0:0:0:0:
10,380,31550,1,0,0:0:0:0:
10,380,31710,2,0,L|2:277,1,93.3333333333333,2|0,0:0|0:0,0:0:0:0:
52,237,32190,2,0,L|44:134,1,93.3333333333333,4|0,0:0|0:0,0:0:0:0:
94,94,32670,6,0,L|90:42,2,46.6666666666667,4|0|0,0:0|0:0|0:0,0:0:0:0:
158,121,33150,2,0,L|154:172,2,46.6666666666667,0|0|0,0:0|0:0|0:0,0:0:0:0:
198,64,33630,1,2,0:0:0:0:
321,130,33950,1,0,0:0:0:0:
321,130,34110,1,4,0:0:0:0:
224,231,34430,1,0,0:0:0:0:
224,231,34590,6,0,L|231:324,1,93.3333333333333,12|0,0:0|0:0,0:0:0:0:
293,380,35070,1,0,0:0:0:0:
293,380,35230,1,0,0:0:0:0:
293,380,35390,1,0,0:0:0:0:
293,380,35550,2,0,P|348:385|385:368,1,93.3333333333333,2|0,0:0|0:0,0:0:0:0:
442,333,36030,2,0,P|477:332|494:335,2,46.6666666666667,4|0|0,0:0|0:0|0:0,0:0:0:0:
380,300,36510,6,0,B|359:256|359:256|367:208,1,93.3333333333333,4|0,0:0|0:0,0:0:0:0:
416,162,36990,2,0,P|424:144|426:114,1,46.6666666666667,0|0,0:0|0:0,0:0:0:0:
356,123,37310,1,0,0:0:0:0:
356,123,37470,2,0,P|356:103|346:74,1,46.6666666666667,2|0,0:0|0:0,0:0:0:0:
285,110,37790,1,0,0:0:0:0:
285,110,37950,2,0,P|277:91|256:68,2,46.6666666666667,4|0|0,0:0|0:0|0:0,0:0:0:0:
258,174,38430,6,0,L|276:267,1,93.3333333333333,12|0,0:0|0:0,0:0:0:0:
303,344,38910,1,0,0:0:0:0:
303,344,39070,1,0,0:0:0:0:
303,344,39230,1,0,0:0:0:0:
303,344,39390,2,0,P|261:368|202:360,1,93.3333333333333,2|0,0:0|0:0,0:0:0:0:
150,345,39870,2,0,L|93:369,2,46.6666666666667,4|0|0,0:0|0:0|0:0,0:0:0:0:
177,280,40350,6,0,P|178:233|154:194,1,93.3333333333333,4|0,0:0|0:0,0:0:0:0:
90,165,40830,2,0,L|69:108,1,46.6666666666667,0|0,0:0|0:0,0:0:0:0:
143,111,41150,1,0,0:0:0:0:
143,111,41310,2,0,L|122:54,1,46.6666666666667,2|0,0:0|0:0,0:0:0:0:
196,57,41630,1,0,0:0:0:0:
196,57,41790,2,0,L|175:0,2,46.6666666666667,4|0|0,0:0|0:0|0:0,0:0:0:0:
256,92,42270,6,0,B|303:98|303:98|346:78,1,93.3333333333333,12|0,0:0|0:0,0:0:0:0:
402,38,42750,1,0,0:0:0:0:
402,38,42910,1,0,0:0:0:0:
402,38,43070,1,0,0:0:0:0:
402,38,43230,2,0,P|416:89|398:124,1,93.3333333333333,2|0,0:0|0:0,0:0:0:0:
352,175,43710,2,0,L|367:226,1,46.6666666666667,4|0,0:0|0:0,0:0:0:0:
391,285,44030,1,0,0:0:0:0:
414,350,44190,6,0,B|370:362|366:338|322:350,1,93.3333333333333,4|0,0:0|0:0,0:0:0:0:
257,376,44670,2,0,P|228:375|202:360,2,46.6666666666667,0|0|0,0:0|0:0|0:0,0:0:0:0:
248,306,45150,2,0,P|228:284|220:255,2,46.6666666666667,2|0|0,0:0|0:0|0:0,0:0:0:0:
291,250,45630,2,0,P|292:221|307:195,2,46.6666666666667,4|0|0,0:0|0:0|0:0,0:0:0:0:
360,240,46110,6,0,P|368:196|341:148,1,93.3333333333333,12|0,0:0|0:0,0:0:0:0:
278,138,46590,1,0,0:0:0:0:
278,138,46750,1,0,0:0:0:0:
278,138,46910,1,0,0:0:0:0:
278,138,47070,2,0,B|293:91|293:91|277:45,1,93.3333333333333,2|0,0:0|0:0,0:0:0:0:
220,9,47550,2,0,L|168:24,1,46.6666666666667,4|0,0:0|0:0,0:0:0:0:
110,49,47870,1,0,0:0:0:0:
110,49,48030,5,4,0:0:0:0:
195,159,48350,1,0,0:0:0:0:
195,159,48510,1,0,0:0:0:0:
59,124,48830,1,0,0:0:0:0:
59,124,48990,2,0,L|7:111,2,46.6666666666667,2|0|0,0:0|0:0|0:0,0:0:0:0:
100,180,49470,2,0,L|152:167,2,46.6666666666667,4|0|0,0:0|0:0|0:0,0:0:0:0:
50,230,49950,6,0,B|41:278|41:278|63:326,1,93.3333333333333,12|0,0:0|0:0,0:0:0:0:
115,383,50430,1,0,0:0:0:0:
115,383,50590,1,0,0:0:0:0:
115,383,50750,1,0,0:0:0:0:
115,383,50910,2,0,L|214:369,1,93.3333333333333,2|0,0:0|0:0,0:0:0:0:
256,319,51390,2,0,L|317:327,1,46.6666666666667,4|0,0:0|0:0,0:0:0:0:
370,341,51710,1,0,0:0:0:0:
349,274,51870,6,0,B|340:229|340:229|354:176,1,93.3333333333333,4|0,0:0|0:0,0:0:0:0:
377,117,52350,2,0,L|361:57,1,46.6666666666667,0|0,0:0|0:0,0:0:0:0:
344,4,52670,1,0,0:0:0:0:
281,36,52830,2,0,B|235:51|235:51|176:41,1,93.3333333333333,2|0,0:0|0:0,0:0:0:0:
121,28,53310,2,0,L|70:18,2,46.6666666666667,4|0|0,0:0|0:0|0:0,0:0:0:0:
142,94,53790,6,0,P|150:143|141:198,1,93.3333333333333,12|0,0:0|0:0,0:0:0:0:
111,250,54270,1,0,0:0:0:0:
111,250,54430,1,0,0:0:0:0:
111,250,54590,1,0,0:0:0:0:
111,250,54750,2,0,P|163:257|198:233,1,93.3333333333333,2|0,0:0|0:0,0:0:0:0:
232,176,55230,2,0,L|219:110,1,46.6666666666667,4|0,0:0|0:0,0:0:0:0:
208,61,55550,1,0,0:0:0:0:
275,80,55710,6,0,B|322:87|322:87|372:73,1,93.3333333333333,4|0,0:0|0:0,0:0:0:0:
433,52,56190,2,0,L|454:93,1,46.6666666666667,0|0,0:0|0:0,0:0:0:0:
409,147,56510,1,0,0:0:0:0:
409,147,56670,2,0,L|430:188,1,46.6666666666667,2|0,0:0|0:0,0:0:0:0:
384,240,56990,1,0,0:0:0:0:
384,240,57150,2,0,L|405:281,1,46.6666666666667,4|0,0:0|0:0,0:0:0:0:
444,344,57470,1,0,0:0:0:0:
444,344,57630,6,0,P|392:355|358:338,1,93.3333333333333,12|0,0:0|0:0,0:0:0:0:
313,291,58110,1,0,0:0:0:0:
313,291,58270,1,0,0:0:0:0:
313,291,58430,1,0,0:0:0:0:
313,291,58590,2,0,L|328:191,1,93.3333333333333,2|0,0:0|0:0,0:0:0:0:
384,156,59070,2,0,P|390:135|383:101,2,46.6666666666667,4|0|0,0:0|0:0|0:0,0:0:0:0:
319,129,59550,6,0,P|276:147|256:188,1,93.3333333333333,4|0,0:0|0:0,0:0:0:0:
226,250,60030,2,0,L|166:258,1,46.6666666666667,0|0,0:0|0:0,0:0:0:0:
113,269,60350,1,0,0:0:0:0:
113,269,60510,2,0,B|95:223|95:223|108:174,1,93.3333333333333,2|0,0:0|0:0,0:0:0:0:
130,114,60990,2,0,L|141:67,2,46.6666666666667,4|0|0,0:0|0:0|0:0,0:0:0:0:
191,146,61470,6,0,P|248:147|290:125,1,93.3333333333333,12|0,0:0|0:0,0:0:0:0:
335,88,61950,1,0,0:0:0:0:
335,88,62110,1,0,0:0:0:0:
335,88,62270,1,0,0:0:0:0:
335,88,62430,2,0,L|328:193,1,93.3333333333333,2|0,0:0|0:0,0:0:0:0:
273,223,62910,2,0,L|276:269,1,46.6666666666667,4|0,0:0|0:0,0:0:0:0:
287,343,63230,1,0,0:0:0:0:
287,343,63390,6,0,B|240:353|240:353|194:340,1,93.3333333333333,4|0,0:0|0:0,0:0:0:0:
132,312,63870,1,0,0:0:0:0:
194,186,64190,1,0,0:0:0:0:
194,186,64350,1,2,0:0:0:0:
61,139,64670,1,0,0:0:0:0:
61,139,64830,2,0,L|14:122,2,46.6666666666667,4|0|0,0:0|0:0|0:0,0:0:0:0:
106,86,65310,6,0,P|153:71|197:80,1,93.3333333333333,12|0,0:0|0:0,0:0:0:0:
263,133,65790,1,0,0:0:0:0:
263,133,65950,1,0,0:0:0:0:
263,133,66110,1,0,0:0:0:0:
263,133,66270,2,0,P|310:148|354:139,1,93.3333333333333,2|0,0:0|0:0,0:0:0:0:
393,83,66750,2,0,L|408:34,2,46.6666666666667,4|0|0,0:0|0:0|0:0,0:0:0:0:
423,145,67230,6,0,L|393:242,1,93.3333333333333,4|0,0:0|0:0,0:0:0:0:
364,297,67710,2,0,P|340:301|316:297,1,46.6666666666667,0|0,0:0|0:0,0:0:0:0:
256,263,68030,1,0,0:0:0:0:
194,229,68190,2,0,P|146:221|99:229,1,93.3333333333333,2|0,0:0|0:0,0:0:0:0:
42,263,68670,1,4,0:0:0:0:
85,130,68990,1,0,0:0:0:0:
85,130,69150,6,0,L|65:30,1,93.3333333333333,12|0,0:0|0:0,0:0:0:0:
137,11,69630,1,0,0:0:0:0:
137,11,69790,1,0,0:0:0:0:
137,11,69950,1,0,0:0:0:0:
137,11,70110,2,0,L|157:111,1,93.3333333333333,2|0,0:0|0:0,0:0:0:0:
175,169,70590,2,0,P|197:173|224:169,1,46.6666666666667,4|0,0:0|0:0,0:0:0:0:
285,141,70910,1,0,0:0:0:0:
331,88,71070,6,0,P|377:89|421:123,1,93.3333333333333,4|0,0:0|0:0,0:0:0:0:
444,178,71550,2,0,P|441:204|434:226,1,46.6666666666667,0|0,0:0|0:0,0:0:0:0:
389,276,71870,1,0,0:0:0:0:
389,276,72030,2,0,B|343:268|343:268|299:288,1,93.3333333333333,2|0,0:0|0:0,0:0:0:0:
247,333,72510,2,0,P|241:362|243:381,2,46.6666666666667,4|0|0,0:0|0:0|0:0,0:0:0:0:
300,287,72990,6,0,P|308:200|300:183,1,93.3333333333333,12|0,0:0|0:0,0:0:0:0:
256,148,73470,1,0,0:0:0:0:
256,148,73630,1,0,0:0:0:0:
256,148,73790,1,0,0:0:0:0:
256,148,73950,2,0,B|212:168|212:168|157:159,1,93.3333333333333,2|0,0:0|0:0,0:0:0:0:
101,136,74430,1,4,0:0:0:0:
134,271,74750,1,0,0:0:0:0:
134,271,74910,6,0,L|243:292,1,93.3333333333333,4|0,0:0|0:0,0:0:0:0:
277,335,75390,2,0,L|333:345,1,46.6666666666667,0|0,0:0|0:0,0:0:0:0:
393,364,75710,1,0,0:0:0:0:
393,364,75870,2,0,P|420:320|415:260,1,93.3333333333333,2|0,0:0|0:0,0:0:0:0:
380,221,76350,2,0,P|382:174|408:136,1,93.3333333333333,4|0,0:0|0:0,0:0:0:0:
458,88,76830,6,0,B|411:96|411:96|369:76,1,93.3333333333333,12|0,0:0|0:0,0:0:0:0:
320,25,77310,1,0,0:0:0:0:
320,25,77470,1,0,0:0:0:0:
320,25,77630,1,0,0:0:0:0:
320,25,77790,2,0,P|299:73|348:145,1,140,2|0,0:0|0:0,0:0:0:0:
469,306,78750,6,0,B|402:324|396:287|329:306,1,140,4|0,0:0|0:0,0:0:0:0:
181,305,79550,1,0,0:0:0:0:
181,305,79710,2,0,B|115:287|109:324|43:306,1,140,2|4,0:0|0:0,0:0:0:0:
95,175,80510,1,0,0:0:0:0:
95,175,80670,6,0,B|103:127|103:127|86:80,1,93.3333333333333,12|0,0:0|0:0,0:0:0:0:
40,33,81150,1,0,0:0:0:0:
40,33,81310,1,0,0:0:0:0:
40,33,81470,1,0,0:0:0:0:
40,33,81630,2,0,L|146:33,1,93.3333333333333,2|0,0:0|0:0,0:0:0:0:
178,86,82110,2,0,P|181:114|177:137,2,46.6666666666667,4|0|0,0:0|0:0|0:0,0:0:0:0:
244,65,82590,6,0,B|279:69|314:56|314:56|331:86|372:103,1,140,4|0,0:0|0:0,0:0:0:0:
301,300,83550,2,0,B|266:296|231:309|231:309|214:279|173:262,1,140,2|4,0:0|0:0,0:0:0:0:
113,241,84190,1,0,0:0:0:0:
46,262,84350,1,0,0:0:0:0:
46,262,84510,6,0,P|24:206|37:162,1,93.3333333333333,12|0,0:0|0:0,0:0:0:0:
71,118,84990,1,0,0:0:0:0:
71,118,85150,1,0,0:0:0:0:
71,118,85310,1,0,0:0:0:0:
71,118,85470,2,0,L|174:129,1,93.3333333333333,2|0,0:0|0:0,0:0:0:0:
208,181,85950,2,0,L|311:170,1,93.3333333333333,4|0,0:0|0:0,0:0:0:0:
368,153,86430,6,0,B|387:84|387:84|347:17,1,140,12|0,0:0|0:0,0:0:0:0:
236,104,87230,1,0,0:0:0:0:
236,104,87390,2,0,B|217:173|217:173|257:240,1,140,2|4,0:0|0:0,0:0:0:0:
432,340,88350,6,0,L|311:368,1,93.3333333333333,12|0,0:0|0:0,0:0:0:0:
277,345,88830,1,0,0:0:0:0:
277,345,88990,1,0,0:0:0:0:
277,345,89150,1,0,0:0:0:0:
277,345,89310,2,0,B|263:300|263:300|278:243,1,93.3333333333333,2|0,0:0|0:0,0:0:0:0:
303,190,89790,2,0,B|317:145|317:145|301:88,1,93.3333333333333,4|0,0:0|0:0,0:0:0:0:
247,59,90270,6,0,L|236:14,2,46.6666666666667,12|0|0,0:0|0:0|0:0,0:0:0:0:
213,120,90750,2,0,L|224:165,2,46.6666666666667,0|0|0,0:0|0:0|0:0,0:0:0:0:
143,109,91230,2,0,L|132:64,2,46.6666666666667,2|0|0,0:0|0:0|0:0,0:0:0:0:
109,170,91710,2,0,L|120:215,2,46.6666666666667,4|0|0,0:0|0:0|0:0,0:0:0:0:
44,142,92190,6,0,P|30:82|41:45,1,93.3333333333333,12|0,0:0|0:0,0:0:0:0:
106,24,92670,1,0,0:0:0:0:
106,24,92830,1,0,0:0:0:0:
106,24,92990,1,0,0:0:0:0:
106,24,93150,2,0,B|155:42|155:42|202:33,1,93.3333333333333,2|0,0:0|0:0,0:0:0:0:
263,16,93630,2,0,B|303:8|303:8|352:26,1,93.3333333333333,0|0,0:0|0:0,0:0:0:0:
400,80,94110,6,0,B|416:116|400:148|400:148|416:180|400:216,1,140,4|0,0:0|0:0,0:0:0:0:
280,288,94910,1,0,0:0:0:0:
280,288,95070,2,0,B|268:256|280:220|280:220|264:188|280:152,1,140,2|4,0:0|0:0,0:0:0:0:
400,80,95870,1,0,0:0:0:0:
400,80,96030,6,0,L|423:181,1,93.3333333333333,12|0,0:0|0:0,0:0:0:0:
452,250,96510,1,0,0:0:0:0:
452,250,96670,1,0,0:0:0:0:
452,250,96830,1,0,0:0:0:0:
452,250,96990,2,0,B|419:260|395:284|395:284|366:267|325:268,1,140,2|0,0:0|0:0,0:0:0:0:
168,127,97950,6,0,B|127:128|98:111|98:111|74:135|41:145,1,140,4|0,0:0|0:0,0:0:0:0:
7,251,98750,1,0,0:0:0:0:
7,251,98910,2,0,L|99:291,1,93.3333333333333,2|0,0:0|0:0,0:0:0:0:
155,318,99390,2,0,P|158:344|155:366,2,46.6666666666667,4|0|0,0:0|0:0|0:0,0:0:0:0:
152,248,99870,6,0,B|195:228|195:228|245:238,1,93.3333333333333,12|0,0:0|0:0,0:0:0:0:
316,272,100350,1,0,0:0:0:0:
316,272,100510,1,0,0:0:0:0:
316,272,100670,1,0,0:0:0:0:
316,272,100830,2,0,P|365:286|414:273,1,93.3333333333333,2|0,0:0|0:0,0:0:0:0:
466,243,101310,1,4,0:0:0:0:
401,43,101790,6,0,P|405:21|417:0,2,46.6666666666667,4|0|0,0:0|0:0|0:0,0:0:0:0:
335,69,102270,2,0,P|330:47|334:22,2,46.6666666666667
387,115,102750,2,0,P|391:137|389:160,2,46.6666666666667,2|0|0,0:0|0:0|0:0,0:0:0:0:
321,140,103230,2,0,P|316:162|305:182,2,46.6666666666667
269,92,103710,6,0,B|224:79|220:104|175:92,1,93.3333333333333,12|0,0:0|0:0,0:0:0:0:
129,142,104190,1,0,0:0:0:0:
129,142,104350,1,0,0:0:0:0:
129,142,104510,1,0,0:0:0:0:
129,142,104670,2,0,B|143:180|143:180|126:229,1,93.3333333333333,2|0,0:0|0:0,0:0:0:0:
89,290,105150,1,0,0:0:0:0:
291,233,105630,6,0,L|346:239,1,46.6666666666667,4|0,0:0|0:0,0:0:0:0:
406,248,105950,1,0,0:0:0:0:
406,248,106110,2,0,L|412:193,1,46.6666666666667,0|0,0:0|0:0,0:0:0:0:
421,133,106430,1,0,0:0:0:0:
421,133,106590,2,0,L|366:127,1,46.6666666666667,2|0,0:0|0:0,0:0:0:0:
306,118,106910,1,0,0:0:0:0:
306,118,107070,2,0,L|300:173,2,46.6666666666667,4|4|4,0:0|0:0|0:0,0:0:0:0:
252,56,107550,6,0,P|201:35|144:47,1,107.333335380554,4|0,0:1|0:0,0:0:0:0:
83,87,108030,1,2,0:0:0:0:
83,87,108190,1,2,0:0:0:0:
83,87,108350,1,2,0:0:0:0:
83,87,108510,2,0,L|91:148,1,53.6666676902771,4|0,0:2|0:0,0:0:0:0:
98,220,108830,1,0,0:0:0:0:
164,174,108990,2,0,B|215:159|219:187|269:174,1,107.333335380554,2|0,0:0|0:0,0:0:0:0:
331,122,109470,6,0,P|349:175|331:225,1,107.333335380554,12|0,0:0|0:0,0:0:0:0:
271,273,109950,1,0,0:0:0:0:
117,224,110270,1,0,0:0:0:0:
55,275,110430,2,0,P|39:325|57:374,1,107.333335380554,4|0,0:2|0:0,0:0:0:0:
119,323,110910,1,4,0:0:0:0:
42,181,111230,1,0,0:0:0:0:
16,104,111390,6,0,P|72:103|111:136,1,107.333335380554,12|0,0:0|0:0,0:0:0:0:
171,209,111870,1,2,0:0:0:0:
171,209,112030,1,2,0:0:0:0:
171,209,112190,1,2,0:0:0:0:
171,209,112350,2,0,L|217:108,1,107.333335380554,4|0,0:2|0:0,0:0:0:0:
296,111,112830,2,0,L|341:209,1,107.333335380554,2|0,0:0|0:0,0:0:0:0:
308,284,113310,6,0,B|280:280|256:292|256:292|232:280|204:284,1,107.333335380554,12|0,0:0|0:0,0:0:0:0:
136,328,113790,1,0,0:0:0:0:
376,328,114270,1,4,0:2:0:0:
256,120,114750,2,0,L|256:60,2,53.6666676902771,4|0|0,0:0|0:0|0:0,0:0:0:0:
208,184,115230,6,0,P|156:192|104:168,1,107.333335380554,4|0,0:0|0:0,0:0:0:0:
53,129,115710,1,2,0:0:0:0:
53,129,115870,1,2,0:0:0:0:
53,129,116030,1,2,0:0:0:0:
53,129,116190,2,0,L|93:25,1,107.333335380554,4|0,0:2|0:0,0:0:0:0:
155,77,116670,2,0,P|184:83|206:77,1,53.6666676902771,4|0,0:0|0:0,0:0:0:0:
256,13,116990,1,0,0:0:0:0:
305,76,117150,6,0,P|357:89|410:77,1,107.333335380554,12|0,0:0|0:0,0:0:0:0:
457,13,117630,1,0,0:0:0:0:
405,248,118110,1,4,0:2:0:0:
182,157,118590,2,0,P|151:157|123:169,2,53.6666676902771,4|0|0,0:0|0:0|0:0,0:0:0:0:
256,188,119070,6,0,B|272:236|236:236|255:292,1,107.333335380554,12|0,0:0|0:0,0:0:0:0:
317,365,119550,1,2,0:0:0:0:
317,365,119710,1,2,0:0:0:0:
317,365,119870,1,2,0:0:0:0:
317,365,120030,2,0,B|369:377|369:377|421:365,1,107.333335380554,4|0,0:2|0:0,0:0:0:0:
498,339,120510,1,4,0:0:0:0:
419,110,120990,6,0,P|367:91|320:110,1,107.333335380554,12|0,0:0|0:0,0:0:0:0:
320,190,121470,2,0,P|371:208|418:190,1,107.333335380554,0|0,0:0|0:0,0:0:0:0:
442,102,121950,2,0,P|364:74|294:102,1,161.000003070831,4|4,0:2|0:0,0:0:0:0:
205,326,122910,6,0,B|153:338|153:338|101:326,1,107.333335380554,12|0,0:0|0:0,0:0:0:0:
23,303,123390,1,2,0:0:0:0:
23,303,123550,1,2,0:0:0:0:
23,303,123710,1,2,0:0:0:0:
23,303,123870,2,0,L|43:189,1,107.333335380554,4|0,0:2|0:0,0:0:0:0:
59,119,124350,1,4,0:0:0:0:
296,74,124830,6,0,B|304:102|322:120|322:120|309:149|316:188,1,107.333335380554,12|0,0:0|0:0,0:0:0:0:
308,252,125310,2,0,B|256:264|256:264|204:252,1,107.333335380554,0|0,0:0|0:0,0:0:0:0:
197,172,125790,2,0,B|203:149|190:120|190:120|208:102|216:74,1,107.333335380554,4|0,0:2|0:0,0:0:0:0:
256,4,126270,1,4,0:0:0:0:
435,165,126750,6,0,L|411:277,1,107.333335380554,12|0,0:0|0:0,0:0:0:0:
400,357,127230,1,2,0:0:0:0:
400,357,127390,1,2,0:0:0:0:
400,357,127550,1,2,0:0:0:0:
400,357,127710,2,0,P|352:349|296:361,1,107.333335380554,4|0,0:2|0:0,0:0:0:0:
216,361,128190,2,0,P|164:349|112:357,1,107.333335380554,4|0,0:0|0:0,0:0:0:0:
109,277,128670,6,0,L|70:98,1,161.000003070831,12|0,0:0|0:0,0:0:0:0:
436,119,129630,2,0,L|403:277,1,161.000003070831,4|4,0:2|0:0,0:0:0:0:
176,190,130590,6,0,P|165:135|176:86,1,107.333335380554,12|0,0:0|0:0,0:0:0:0:
209,12,131070,1,2,0:0:0:0:
256,76,131230,1,2,0:0:0:0:
303,12,131390,1,2,0:0:0:0:
335,85,131550,2,0,P|347:137|336:190,1,107.333335380554,4|0,0:2|0:0,0:0:0:0:
256,205,132030,1,4,0:0:0:0:
53,72,132510,6,0,P|23:62|-2:63,2,53.6666676902771,12|0|0,0:0|0:0|0:0,0:0:0:0:
129,47,132990,2,0,P|114:18|96:1,2,53.6666676902771,0|0|0,0:0|0:0|0:0,0:0:0:0:
200,83,133470,2,0,P|209:53|208:27,2,53.6666676902771,4|0|0,0:2|0:0|0:0,0:0:0:0:
224,158,133950,2,0,P|252:143|269:125,2,53.6666676902771,4|0|0,0:0|0:0|0:0,0:0:0:0:
151,192,134430,6,0,B|136:246|136:246|157:303,1,107.333335380554,12|0,0:0|0:0,0:0:0:0:
192,365,134910,1,2,0:0:0:0:
256,316,135070,1,2,0:0:0:0:
320,365,135230,1,2,0:0:0:0:
358,294,135390,2,0,B|376:246|376:246|361:192,1,107.333335380554,4|0,0:2|0:0,0:0:0:0:
308,131,135870,2,0,B|279:130|256:138|256:138|232:130|204:131,1,107.333335380554,4|0,0:0|0:0,0:0:0:0:
140,181,136350,6,0,P|123:127|185:52,1,161.000003070831,14|12,0:0|0:0,0:0:0:0:
372,181,137310,2,0,P|389:127|327:52,1,161.000003070831,4|4,0:2|0:0,0:0:0:0:
168,132,138270,5,0,0:0:0:0:
190,248,138750,1,0,0:0:0:0:
190,248,139230,2,0,B|256:272|298:223|280:166|232:166|214:223|256:272|322:248,2,238.00000453949,2|0|0,0:0|0:0|0:0,0:0:0:0:
80,199,141630,1,0,0:0:0:0:
39,87,142110,5,2,0:0:0:0:
139,23,142590,1,0,0:0:0:0:
256,2,143070,1,2,0:0:0:0:
373,23,143550,1,0,0:0:0:0:
473,87,144030,6,0,L|447:205,1,119.000002269745,2|0,0:0|0:0,0:0:0:0:
348,136,144990,2,0,L|322:254,1,119.000002269745,0|0,0:0|0:0,0:0:0:0:
208,333,145950,6,0,B|157:340|157:340|112:322,1,93.3333333333333,12|0,0:0|0:0,0:0:0:0:
60,292,146430,1,0,0:0:0:0:
60,292,146590,1,0,0:0:0:0:
60,292,146750,1,0,0:0:0:0:
60,292,146910,2,0,P|76:248|66:196,1,93.3333333333333,2|0,0:0|0:0,0:0:0:0:
35,141,147390,1,4,0:0:0:0:
198,9,147870,5,4,0:0:0:0:
143,211,148350,1,0,0:0:0:0:
68,15,148830,1,2,0:0:0:0:
243,129,149310,1,0,0:0:0:0:
35,141,149790,6,0,B|23:186|23:186|36:237,1,93.3333333333333,12|0,0:0|0:0,0:0:0:0:
86,300,150270,1,0,0:0:0:0:
86,300,150430,1,0,0:0:0:0:
86,300,150590,1,0,0:0:0:0:
86,300,150750,2,0,L|182:275,1,93.3333333333333,2|0,0:0|0:0,0:0:0:0:
212,212,151230,2,0,B|256:228|256:228|300:212,1,93.3333333333333,4|0,0:0|0:0,0:0:0:0:
335,276,151710,6,0,L|426:300,1,93.3333333333333,4|0,0:0|0:0,0:0:0:0:
493,321,152190,1,0,0:0:0:0:
291,380,152670,1,2,0:0:0:0:
402,201,153150,1,4,0:0:0:0:
256,50,153630,5,4,0:0:0:0:
