osu file format v14

[General]
AudioFilename: The Flashbulb - Nothing Is Real - 01 Dead On The 4th Of July.mp3
AudioLeadIn: 0
PreviewTime: 46110
Countdown: 0
SampleSet: Soft
StackLeniency: 0.2
Mode: 0
LetterboxInBreaks: 0
WidescreenStoryboard: 1

[Editor]
Bookmarks: 15330,37410,76770,107490,119010,138210,153570
DistanceSpacing: 1.2
BeatDivisor: 3
GridSize: 4
TimelineZoom: 1

[Metadata]
Title:Dead On The 4th Of July
TitleUnicode:Dead On The 4th Of July
Artist:The Flashbulb
ArtistUnicode:The Flashbulb
Creator:Mismagius
Version:Afterlife
Source:
Tags:nothing is real experimental idm benn jordan ambient
BeatmapID:767594
BeatmapSetID:347882

[Difficulty]
HPDrainRate:4
CircleSize:5.5
OverallDifficulty:8
ApproachRate:8.5
SliderMultiplier:1.6
SliderTickRate:1

[Events]
//Background and Video events
0,0,"wallhaven-123662.jpg",0,0
//Break Periods
//Storyboard Layer 0 (Background)
//Storyboard Layer 1 (Fail)
//Storyboard Layer 2 (Pass)
//Storyboard Layer 3 (Foreground)
//Storyboard Sound Samples

[TimingPoints]
30,480,4,3,0,30,1,0
107390,-100,4,3,0,30,0,0
107550,-86.9565217391304,4,3,0,30,0,1
138270,-117.647058823529,4,2,0,15,0,0
142110,-117.647058823529,4,2,0,10,0,0
144030,-117.647058823529,4,2,0,5,0,0
145950,-100,4,3,0,30,0,0

[Colours]
Combo1 : 92,99,131
Combo2 : 182,180,205
Combo3 : 209,210,174
Combo4 : 132,130,98

[HitObjects]
348,56,15390,6,0,P|396:48|452:84,1,106.666666666667,12|0,0:0|0:0,0:0:0:0:
468,136,15870,1,0,0:0:0:0:
460,200,16030,1,0,0:0:0:0:
404,232,16190,1,0,0:0:0:0:
344,216,16350,2,0,L|232:232,1,106.666666666667,2|0,0:0|0:0,0:0:0:0:
172,292,16830,2,0,L|284:308,1,106.666666666667,4|0,0:0|0:0,0:0:0:0:
340,316,17310,6,0,P|358:261|344:216,1,106.666666666667,4|0,0:0|0:0,0:0:0:0:
304,168,17790,1,0,0:0:0:0:
100,116,18270,1,2,0:0:0:0:
268,72,18750,1,4,0:0:0:0:
48,16,19230,6,0,L|32:128,1,106.666666666667,12|0,0:0|0:0,0:0:0:0:
24,186,19710,1,0,0:0:0:0:
16,250,19870,1,0,0:0:0:0:
8,314,20030,1,0,0:0:0:0:
68,292,20190,2,0,P|128:284|176:308,1,106.666666666667,2|0,0:0|0:0,0:0:0:0:
216,348,20670,2,0,B|232:372|255:382|255:382|280:372|296:348,1,106.666666666667,4|0,0:0|0:0,0:0:0:0:
343,302,21150,6,0,P|392:282|444:292,1,106.666666666667,4|0,0:0|0:0,0:0:0:0:
496,328,21630,2,0,L|516:276,1,53.3333333333333
492,220,21950,1,0,0:0:0:0:
468,160,22110,2,0,L|488:108,2,53.3333333333333,2|0|0,0:0|0:0|0:0,0:0:0:0:
404,168,22590,2,0,L|384:220,2,53.3333333333333,4|0|0,0:0|0:0|0:0,0:0:0:0:
376,112,23070,6,0,P|324:84|264:96,1,106.666666666667,12|0,0:0|0:0,0:0:0:0:
220,116,23550,1,0,0:0:0:0:
156,124,23710,1,0,0:0:0:0:
92,108,23870,1,0,0:0:0:0:
48,60,24030,2,0,L|8:159,1,106.666666666667,2|0,0:0|0:0,0:0:0:0:
36,216,24510,2,0,P|40:244|32:272,2,53.3333333333333,4|0|0,0:0|0:0|0:0,0:0:0:0:
8,159,24990,6,0,P|44:116|92:108,1,106.666666666667,4|0,0:0|0:0,0:0:0:0:
156,124,25470,1,0,0:0:0:0:
256,204,25790,1,0,0:0:0:0:
256,204,25950,1,2,0:0:0:0:
184,312,26270,1,0,0:0:0:0:
128,344,26430,2,0,P|100:348|72:344,2,53.3333333333333,4|0|0,0:0|0:0|0:0,0:0:0:0:
184,312,26910,6,0,P|244:308|292:332,1,106.666666666667,12|0,0:0|0:0,0:0:0:0:
332,372,27390,1,0,0:0:0:0:
396,376,27550,1,0,0:0:0:0:
456,348,27710,1,0,0:0:0:0:
488,292,27870,2,0,L|448:176,1,106.666666666667,2|0,0:0|0:0,0:0:0:0:
432,132,28350,1,4,0:0:0:0:
436,68,28510,1,0,0:0:0:0:
492,104,28670,1,0,0:0:0:0:
432,132,28830,6,0,P|379:132|334:105,1,106.666666666667,4|0,0:0|0:0,0:0:0:0:
288,60,29310,2,0,P|272:16|272:8,2,53.3333333333333,4|0|0,0:0|0:0|0:0,0:0:0:0:
334,105,29790,2,0,P|308:151|262:176,1,106.666666666667,2|0,0:0|0:0,0:0:0:0:
196,176,30270,2,0,L|140:148,2,53.3333333333333,4|0|0,0:0|0:0|0:0,0:0:0:0:
228,232,30750,5,12,0:0:0:0:
152,56,31070,1,0,0:0:0:0:
92,36,31230,1,0,0:0:0:0:
32,16,31390,1,0,0:0:0:0:
44,80,31550,1,0,0:0:0:0:
56,144,31710,2,0,P|68:216|60:260,1,106.666666666667,2|0,0:0|0:0,0:0:0:0:
36,308,32190,1,4,0:0:0:0:
140,232,32510,1,0,0:0:0:0:
193,268,32670,6,0,L|305:280,1,106.666666666667,4|0,0:0|0:0,0:0:0:0:
364,284,33150,2,0,P|393:283|432:268,2,53.3333333333333
380,220,33630,2,0,P|350:219|312:204,2,53.3333333333333,2|0|0,0:0|0:0|0:0,0:0:0:0:
364,156,34110,2,0,P|393:155|432:140,2,53.3333333333333,4|0|0,0:0|0:0|0:0,0:0:0:0:
304,140,34590,6,0,P|276:88|280:36,1,106.666666666667,12|0,0:0|0:0,0:0:0:0:
332,8,35070,1,0,0:0:0:0:
372,57,35230,1,0,0:0:0:0:
364,120,35390,1,0,0:0:0:0:
304,140,35550,2,0,L|180:128,1,106.666666666667,2|0,0:0|0:0,0:0:0:0:
168,188,36030,2,0,L|292:200,1,106.666666666667,4|0,0:0|0:0,0:0:0:0:
332,228,36510,6,0,P|344:280|324:328,1,106.666666666667,4|0,0:0|0:0,0:0:0:0:
260,340,36990,2,0,L|206:334,1,53.3333333333333,2|0,0:0|0:0,0:0:0:0:
148,308,37310,1,0,0:0:0:0:
116,252,37470,2,0,P|104:200|124:152,1,106.666666666667,2|0,0:0|0:0,0:0:0:0:
104,92,37950,2,0,L|44:80,2,53.3333333333333,4|0|0,0:0|0:0|0:0,0:0:0:0:
232,72,38430,6,0,B|284:80|284:80|340:56,1,106.666666666667,12|0,0:0|0:0,0:0:0:0:
392,28,38910,1,0,0:0:0:0:
456,40,39070,1,0,0:0:0:0:
496,92,39230,1,0,0:0:0:0:
512,156,39390,2,0,P|512:216|488:268,1,106.666666666667,2|0,0:0|0:0,0:0:0:0:
452,304,39870,1,4,0:0:0:0:
452,304,40030,1,0,0:0:0:0:
452,304,40190,1,0,0:0:0:0:
392,280,40350,6,0,B|340:264|340:264|284:272,1,106.666666666667,4|0,0:0|0:0,0:0:0:0:
224,284,40830,2,0,L|160:296,1,53.3333333333333
108,308,41150,1,0,0:0:0:0:
132,228,41310,2,0,L|196:216,1,53.3333333333333,2|0,0:0|0:0,0:0:0:0:
248,204,41630,1,0,0:0:0:0:
272,124,41790,2,0,L|208:136,1,53.3333333333333,4|0,0:0|0:0,0:0:0:0:
156,148,42110,1,0,0:0:0:0:
64,168,42270,6,0,P|48:112|56:64,1,106.666666666667,12|0,0:0|0:0,0:0:0:0:
92,12,42750,1,0,0:0:0:0:
144,48,42910,1,0,0:0:0:0:
208,56,43070,1,0,0:0:0:0:
272,44,43230,2,0,P|336:44|376:64,1,106.666666666667,2|0,0:0|0:0,0:0:0:0:
412,112,43710,2,0,P|414:140|404:168,1,53.3333333333333,4|0,0:0|0:0,0:0:0:0:
348,132,44030,1,0,0:0:0:0:
472,84,44190,6,0,P|480:136|468:190,1,106.666666666667,4|0,0:0|0:0,0:0:0:0:
432,244,44670,1,0,0:0:0:0:
372,268,44830,1,0,0:0:0:0:
308,260,44990,1,0,0:0:0:0:
260,216,45150,2,0,L|224:172,1,53.3333333333333,2|0,0:0|0:0,0:0:0:0:
236,284,45470,1,0,0:0:0:0:
188,240,45630,2,0,L|152:196,1,53.3333333333333,4|0,0:0|0:0,0:0:0:0:
164,308,45950,1,0,0:0:0:0:
116,264,46110,6,0,L|45:177,1,106.666666666667,12|0,0:0|0:0,0:0:0:0:
8,132,46590,1,0,0:0:0:0:
68,112,46750,1,0,0:0:0:0:
112,64,46910,1,0,0:0:0:0:
132,4,47070,2,0,P|81:9|50:55,1,106.666666666667,2|0,0:0|0:0,0:0:0:0:
68,112,47550,2,0,L|103:155,1,53.3333333333333,4|0,0:0|0:0,0:0:0:0:
144,204,47870,1,0,0:0:0:0:
189,253,48030,6,0,P|245:257|288:228,1,106.666666666667,4|0,0:0|0:0,0:0:0:0:
320,176,48510,2,0,P|324:148|320:124,1,53.3333333333333
280,72,48830,1,0,0:0:0:0:
352,8,48990,2,0,P|348:36|352:60,1,53.3333333333333,2|0,0:0|0:0,0:0:0:0:
392,112,49310,1,0,0:0:0:0:
448,144,49470,2,0,L|504:136,2,53.3333333333333,4|0|0,0:0|0:0|0:0,0:0:0:0:
416,200,49950,6,0,P|412:264|424:308,1,106.666666666667,12|0,0:0|0:0,0:0:0:0:
476,344,50430,1,0,0:0:0:0:
500,284,50590,1,0,0:0:0:0:
476,224,50750,1,0,0:0:0:0:
416,200,50910,2,0,L|288:176,1,106.666666666667,2|0,0:0|0:0,0:0:0:0:
248,168,51390,2,0,P|220:176|200:196,1,53.3333333333333,4|0,0:0|0:0,0:0:0:0:
254,232,51710,1,0,0:0:0:0:
296,116,51870,6,0,P|256:83|196:86,1,106.666666666667,4|0,0:0|0:0,0:0:0:0:
152,124,52350,1,0,0:0:0:0:
132,184,52510,1,0,0:0:0:0:
148,248,52670,1,0,0:0:0:0:
188,296,52830,2,0,L|236:320,2,53.3333333333333,2|0|0,0:0|0:0|0:0,0:0:0:0:
124,308,53310,2,0,L|76:284,2,53.3333333333333,4|0|0,0:0|0:0|0:0,0:0:0:0:
188,296,53790,6,0,P|212:252|192:200,1,106.666666666667,12|0,0:0|0:0,0:0:0:0:
132,184,54270,1,0,0:0:0:0:
68,172,54430,1,0,0:0:0:0:
4,160,54590,1,0,0:0:0:0:
48,112,54750,2,0,L|152:84,1,106.666666666667,2|0,0:0|0:0,0:0:0:0:
212,64,55230,2,0,P|208:32|196:12,1,53.3333333333333,4|0,0:0|0:0,0:0:0:0:
136,4,55550,1,0,0:0:0:0:
208,132,55710,6,0,P|264:110|280:68,1,106.666666666667,4|0,0:0|0:0,0:0:0:0:
272,4,56190,1,0,0:0:0:0:
332,20,56350,1,0,0:0:0:0:
392,36,56510,1,0,0:0:0:0:
452,52,56670,2,0,L|464:104,1,53.3333333333333,2|0,0:0|0:0,0:0:0:0:
480,168,56990,1,0,0:0:0:0:
408,152,57150,2,0,L|420:204,1,53.3333333333333,4|0,0:0|0:0,0:0:0:0:
436,268,57470,1,0,0:0:0:0:
447,333,57630,6,0,P|395:361|339:357,1,106.666666666667,12|0,0:0|0:0,0:0:0:0:
292,332,58110,1,0,0:0:0:0:
264,276,58270,1,0,0:0:0:0:
272,212,58430,1,0,0:0:0:0:
304,156,58590,2,0,B|312:104|312:104|288:52,1,106.666666666667,2|0,0:0|0:0,0:0:0:0:
222,54,59070,2,0,B|200:104|200:104|208:156,1,106.666666666667,4|0,0:0|0:0,0:0:0:0:
239,211,59550,6,0,P|233:236|215:256,1,53.3333333333333,4|0,0:0|0:0,0:0:0:0:
152,268,59870,1,0,0:0:0:0:
88,256,60030,2,0,P|70:236|63:210,1,53.3333333333333
83,151,60350,1,0,0:0:0:0:
124,100,60510,2,0,P|149:94|175:100,1,53.3333333333333,2|0,0:0|0:0,0:0:0:0:
217,151,60830,1,0,0:0:0:0:
240,211,60990,2,0,L|308:199,2,53.3333333333333,4|0|0,0:0|0:0|0:0,0:0:0:0:
176,224,61470,6,0,P|176:288|200:328,1,106.666666666667,12|0,0:0|0:0,0:0:0:0:
256,348,61950,1,0,0:0:0:0:
320,336,62110,1,0,0:0:0:0:
384,324,62270,1,0,0:0:0:0:
448,312,62430,2,0,L|480:192,1,106.666666666667,2|0,0:0|0:0,0:0:0:0:
496,148,62910,2,0,P|500:112|492:92,1,53.3333333333333,4|0,0:0|0:0,0:0:0:0:
436,124,63230,1,0,0:0:0:0:
380,152,63390,6,0,B|328:168|328:168|264:156,1,106.666666666667,4|0,0:0|0:0,0:0:0:0:
212,144,63870,2,0,L|192:80,1,53.3333333333333
148,164,64190,1,0,0:0:0:0:
128,104,64350,2,0,L|108:40,1,53.3333333333333,2|0,0:0|0:0,0:0:0:0:
64,124,64670,1,0,0:0:0:0:
44,64,64830,2,0,L|24:0,2,53.3333333333333,4|0|0,0:0|0:0|0:0,0:0:0:0:
64,124,65310,6,0,P|76:180|72:240,1,106.666666666667,12|0,0:0|0:0,0:0:0:0:
56,292,65790,1,0,0:0:0:0:
120,284,65950,1,0,0:0:0:0:
180,312,66110,1,0,0:0:0:0:
212,368,66270,1,2,0:0:0:0:
277,158,66590,1,0,0:0:0:0:
277,158,66750,1,4,0:0:0:0:
128,352,67070,1,0,0:0:0:0:
128,352,67230,6,0,P|100:360|72:360,2,53.3333333333333,4|0|0,0:0|0:0|0:0,0:0:0:0:
180,312,67710,2,0,P|208:304|236:304,2,53.3333333333333
120,284,68190,2,0,P|96:240|100:172,1,106.666666666667,2|0,0:0|0:0,0:0:0:0:
124,128,68670,2,0,L|96:80,1,53.3333333333333,4|0,0:0|0:0,0:0:0:0:
60,28,68990,1,0,0:0:0:0:
124,12,69150,6,0,P|172:36|228:32,1,106.666666666667,12|0,0:0|0:0,0:0:0:0:
280,4,69630,1,0,0:0:0:0:
324,52,69790,1,0,0:0:0:0:
368,100,69950,1,0,0:0:0:0:
416,144,70110,2,0,B|468:152|468:152|512:120,1,106.666666666667,2|0,0:0|0:0,0:0:0:0:
432,212,70590,2,0,B|380:204|380:204|336:236,1,106.666666666667,4|0,0:0|0:0,0:0:0:0:
288,276,71070,6,0,P|232:276|184:240,1,106.666666666667,4|0,0:0|0:0,0:0:0:0:
160,192,71550,2,0,L|172:136,2,53.3333333333333
108,228,72030,2,0,L|96:284,2,53.3333333333333,2|0|0,0:0|0:0|0:0,0:0:0:0:
76,172,72510,2,0,L|88:116,1,53.3333333333333,4|0,0:0|0:0,0:0:0:0:
100,56,72830,1,0,0:0:0:0:
100,56,72990,6,0,P|156:64|200:40,1,106.666666666667,12|0,0:0|0:0,0:0:0:0:
252,8,73470,1,0,0:0:0:0:
312,32,73630,1,0,0:0:0:0:
336,92,73790,1,0,0:0:0:0:
320,156,73950,1,2,0:0:0:0:
200,204,74270,1,0,0:0:0:0:
136,192,74430,2,0,L|64:180,2,53.3333333333333,4|0|0,0:0|0:0|0:0,0:0:0:0:
200,204,74910,6,0,L|305:221,1,106.666666666667,4|0,0:0|0:0,0:0:0:0:
368,232,75390,2,0,P|394:232|420:220,1,53.3333333333333
382,168,75710,1,0,0:0:0:0:
382,168,75870,2,0,P|401:149|410:122,1,53.3333333333333,2|0,0:0|0:0,0:0:0:0:
346,112,76190,1,0,0:0:0:0:
346,112,76350,2,0,P|346:85|333:60,1,53.3333333333333,4|0,0:0|0:0,0:0:0:0:
276,32,76670,1,0,0:0:0:0:
212,24,76830,6,0,L|88:44,1,106.666666666667,12|0,0:0|0:0,0:0:0:0:
44,52,77310,1,0,0:0:0:0:
80,104,77470,1,0,0:0:0:0:
88,168,77630,1,0,0:0:0:0:
72,232,77790,2,0,B|96:248|109:269|109:269|132:256|161:259,1,106.666666666667,2|0,0:0|0:0,0:0:0:0:
208,304,78270,2,0,B|236:300|256:280|256:280|276:300|304:304,1,106.666666666667
350,259,78750,6,0,B|380:256|403:269|403:269|416:248|440:232,1,106.666666666667,4|0,0:0|0:0,0:0:0:0:
492,196,79230,2,0,P|492:172|476:144,1,53.3333333333333
416,140,79550,1,0,0:0:0:0:
353,133,79710,2,0,P|340:109|339:83,1,53.3333333333333,2|0,0:0|0:0,0:0:0:0:
389,45,80030,1,0,0:0:0:0:
448,20,80190,2,0,L|504:16,2,53.3333333333333,4|0|0,0:0|0:0|0:0,0:0:0:0:
389,45,80670,6,0,P|340:64|290:45,1,106.666666666667,12|0,0:0|0:0,0:0:0:0:
232,12,81150,1,0,0:0:0:0:
164,8,81310,1,0,0:0:0:0:
104,44,81470,1,0,0:0:0:0:
68,104,81630,2,0,B|52:156|52:156|68:212,1,106.666666666667,2|0,0:0|0:0,0:0:0:0:
144,264,82110,2,0,B|160:212|160:212|144:156,1,106.666666666667,4|0,0:0|0:0,0:0:0:0:
180,100,82590,6,0,L|252:88,1,53.3333333333333,4|0,0:0|0:0,0:0:0:0:
300,80,82910,1,0,0:0:0:0:
216,168,83070,2,0,L|288:156,1,53.3333333333333
336,148,83390,1,0,0:0:0:0:
428,204,83550,2,0,L|356:216,1,53.3333333333333,2|0,0:0|0:0,0:0:0:0:
308,224,83870,1,0,0:0:0:0:
464,272,84030,2,0,L|392:284,1,53.3333333333333,4|0,0:0|0:0,0:0:0:0:
344,292,84350,1,0,0:0:0:0:
276,304,84510,6,0,P|216:308|156:280,1,106.666666666667,12|0,0:0|0:0,0:0:0:0:
136,228,84990,1,0,0:0:0:0:
99,164,85150,1,0,0:0:0:0:
62,100,85310,1,0,0:0:0:0:
25,36,85470,2,0,B|79:24|79:24|128:36,1,106.666666666667,2|0,0:0|0:0,0:0:0:0:
200,56,85950,1,4,0:0:0:0:
256,104,86110,1,0,0:0:0:0:
312,56,86270,1,0,0:0:0:0:
384,36,86430,6,0,B|433:24|433:24|487:36,1,106.666666666667,12|0,0:0|0:0,0:0:0:0:
504,108,86910,2,0,L|476:156,1,53.3333333333333
437,222,87230,1,0,0:0:0:0:
400,291,87390,2,0,P|373:296|347:292,1,53.3333333333333,2|0,0:0|0:0,0:0:0:0:
280,260,87710,1,0,0:0:0:0:
212,292,87870,2,0,P|185:287|159:291,1,53.3333333333333,4|0,0:0|0:0,0:0:0:0:
91,323,88190,1,0,0:0:0:0:
24,216,88350,6,0,L|68:96,1,106.666666666667,12|0,0:0|0:0,0:0:0:0:
91,41,88830,1,0,0:0:0:0:
156,88,88990,1,0,0:0:0:0:
236,96,89150,1,0,0:0:0:0:
315,80,89310,2,0,P|375:72|419:80,1,106.666666666667,2|0,0:0|0:0,0:0:0:0:
480,188,89790,2,0,P|420:196|376:188,1,106.666666666667,4|0,0:0|0:0,0:0:0:0:
276,156,90270,6,0,L|224:200,1,53.3333333333333,12|0,0:0|0:0,0:0:0:0:
172,240,90590,1,0,0:0:0:0:
112,292,90750,2,0,L|71:326,2,53.3333333333333
172,240,91230,1,2,0:0:0:0:
172,160,91390,1,0,0:0:0:0:
140,88,91550,1,0,0:0:0:0:
72,48,91710,1,4,0:0:0:0:
140,88,91870,1,0,0:0:0:0:
220,88,92030,1,0,0:0:0:0:
296,59,92190,6,0,P|347:50|396:71,1,106.666666666667,12|0,0:0|0:0,0:0:0:0:
448,132,92670,1,0,0:0:0:0:
396,192,92830,1,0,0:0:0:0:
448,252,92990,1,0,0:0:0:0:
396,312,93150,2,0,P|244:296|212:200,1,266.666666666667,2|0,0:0|0:0,0:0:0:0:
300,203,94110,6,0,P|242:316|116:312,1,266.666666666667,4|0,0:0|0:0,0:0:0:0:
56,260,95070,1,2,0:0:0:0:
36,184,95230,1,0,0:0:0:0:
52,105,95390,1,0,0:0:0:0:
104,44,95550,1,4,0:0:0:0:
156,106,95710,1,0,0:0:0:0:
235,123,95870,1,0,0:0:0:0:
311,100,96030,6,0,P|363:87|414:99,1,106.666666666667,12|0,0:0|0:0,0:0:0:0:
468,164,96510,2,0,L|512:132,1,53.3333333333333
393,174,96830,1,0,0:0:0:0:
444,240,96990,2,0,P|448:304|296:284,1,266.666666666667,2|0,0:0|0:0,0:0:0:0:
214,294,97950,6,0,P|110:350|68:240,1,266.666666666667,4|0,0:0|0:0,0:0:0:0:
112,164,98910,1,2,0:0:0:0:
104,80,99070,1,0,0:0:0:0:
44,20,99230,1,0,0:0:0:0:
20,100,99390,1,4,0:0:0:0:
104,80,99550,1,0,0:0:0:0:
156,12,99710,1,0,0:0:0:0:
156,12,99870,6,0,L|280:32,1,106.666666666667,12|0,0:0|0:0,0:0:0:0:
344,44,100350,1,0,0:0:0:0:
276,96,100510,1,0,0:0:0:0:
360,112,100670,1,0,0:0:0:0:
292,164,100830,2,0,P|304:224|292:268,1,106.666666666667,2|0,0:0|0:0,0:0:0:0:
172,316,101310,2,0,P|160:256|172:212,1,106.666666666667,4|0,0:0|0:0,0:0:0:0:
276,96,101790,6,0,L|320:64,1,53.3333333333333,4|0,0:0|0:0,0:0:0:0:
248,20,102110,1,0,0:0:0:0:
168,160,102270,2,0,L|124:128,1,53.3333333333333
196,84,102590,1,0,0:0:0:0:
280,224,102750,2,0,L|324:192,1,53.3333333333333,2|0,0:0|0:0,0:0:0:0:
252,148,103070,1,0,0:0:0:0:
172,284,103230,2,0,L|128:252,1,53.3333333333333,4|0,0:0|0:0,0:0:0:0:
200,208,103550,1,0,0:0:0:0:
264,320,103710,6,0,P|304:292|364:292,1,106.666666666667,12|0,0:0|0:0,0:0:0:0:
432,340,104190,1,0,0:0:0:0:
464,260,104350,1,0,0:0:0:0:
432,180,104510,1,0,0:0:0:0:
464,100,104670,2,0,L|344:64,1,106.666666666667,2|0,0:0|0:0,0:0:0:0:
308,137,105150,2,0,P|255:132|203:137,1,106.666666666667
150,69,105630,6,0,L|48:100,1,106.666666666667,4|0,0:0|0:0,0:0:0:0:
8,180,106110,1,0,0:0:0:0:
24,268,106270,1,0,0:0:0:0:
100,316,106430,1,0,0:0:0:0:
184,280,106590,5,2,0:0:0:0:
256,224,106750,1,0,0:0:0:0:
328,280,106910,1,0,0:0:0:0:
412,316,107070,5,4,0:0:0:0:
488,268,107230,1,4,0:0:0:0:
504,180,107390,1,4,0:0:0:0:
472,92,107550,6,0,P|416:56|356:64,1,122.666669006348,4|0,0:1|0:0,0:0:0:0:
292,124,108030,1,2,0:0:0:0:
256,40,108190,1,2,0:0:0:0:
220,124,108350,1,2,0:0:0:0:
149,61,108510,2,0,P|89:57|40:92,1,122.666669006348,4|0,0:2|0:0,0:0:0:0:
8,180,108990,2,0,L|24:240,1,61.3333345031739,2|0,0:0|0:0,0:0:0:0:
48,328,109310,1,0,0:0:0:0:
136,356,109470,6,0,P|176:356|200:348,2,61.3333345031739,12|0|0,0:0|0:0|0:0,0:0:0:0:
184,228,109950,2,0,P|144:228|120:236,2,61.3333345031739
327,228,110430,2,0,P|358:226|388:234,2,61.3333345031739,4|0|0,0:2|0:0|0:0,0:0:0:0:
376,356,110910,2,0,P|336:356|312:348,2,61.3333345031739,4|0|0,0:0|0:0|0:0,0:0:0:0:
448,300,111390,6,0,P|477:249|464:188,1,122.666669006348,12|0,0:0|0:0,0:0:0:0:
408,116,111870,1,2,0:0:0:0:
316,100,112030,1,2,0:0:0:0:
228,128,112190,1,2,0:0:0:0:
172,200,112350,2,0,L|196:328,1,122.666669006348,4|0,0:2|0:0,0:0:0:0:
280,360,112830,2,0,P|288:324|284:296,1,61.3333345031739,2|0,0:0|0:0,0:0:0:0:
264,208,113150,1,0,0:0:0:0:
172,200,113310,6,0,L|104:192,1,61.3333345031739,12|0,0:0|0:0,0:0:0:0:
20,184,113630,1,0,0:0:0:0:
228,128,113790,2,0,L|296:120,1,61.3333345031739
380,112,114110,1,0,0:0:0:0:
172,64,114270,2,0,L|43:48,1,122.666669006348,4|0,0:2|0:0,0:0:0:0:
264,20,114750,2,0,L|392:4,1,122.666669006348,4|0,0:0|0:0,0:0:0:0:
492,136,115230,6,0,P|500:200|460:256,1,122.666669006348,4|0,0:0|0:0,0:0:0:0:
388,300,115710,1,2,0:0:0:0:
384,203,115870,1,2,0:0:0:0:
471,247,116030,1,2,0:0:0:0:
312,344,116190,2,0,B|248:356|248:356|196:320,1,122.666669006348,4|0,0:2|0:0,0:0:0:0:
168,208,116670,2,0,B|232:196|232:196|284:232,1,122.666669006348,4|0,0:0|0:0,0:0:0:0:
388,300,117150,6,0,L|440:336,2,61.3333345031739,12|0|0,0:0|0:0|0:0,0:0:0:0:
316,164,117630,2,0,L|264:128,2,61.3333345031739
460,144,118110,2,0,L|512:180,1,61.3333345031739,4|0,0:2|0:0,0:0:0:0:
510,80,118430,1,0,0:0:0:0:
424,36,118590,2,0,L|372:0,1,61.3333345031739,4|0,0:0|0:0,0:0:0:0:
280,32,118910,1,0,0:0:0:0:
186,63,119070,6,0,P|120:68|60:40,1,122.666669006348,12|0,0:0|0:0,0:0:0:0:
32,144,119550,1,2,0:0:0:0:
56,244,119710,1,2,0:0:0:0:
152,288,119870,1,2,0:0:0:0:
256,268,120030,2,0,L|388:268,1,122.666669006348,4|0,0:2|0:0,0:0:0:0:
256,116,120510,2,0,L|124:116,1,122.666669006348,4|0,0:0|0:0,0:0:0:0:
172,210,120990,6,0,P|154:268|172:326,1,122.666669006348,12|0,0:0|0:0,0:0:0:0:
340,174,121470,2,0,P|358:116|340:58,1,122.666669006348
240,28,121950,2,0,L|176:28,1,61.3333345031739,4|0,0:2|0:0,0:0:0:0:
72,28,122270,1,0,0:0:0:0:
133,116,122430,2,0,L|197:116,1,61.3333345031739,4|0,0:0|0:0,0:0:0:0:
301,116,122750,1,0,0:0:0:0:
404,116,122910,6,0,B|423:175|423:175|404:232,1,122.666669006348,12|0,0:0|0:0,0:0:0:0:
368,336,123390,1,2,0:0:0:0:
264,300,123550,1,2,0:0:0:0:
300,196,123710,1,2,0:0:0:0:
404,232,123870,2,0,P|456:272|476:328,1,122.666669006348,4|0,0:2|0:0,0:0:0:0:
264,300,124350,2,0,P|203:325|144:314,1,122.666669006348,4|0,0:0|0:0,0:0:0:0:
275,144,124830,6,0,P|283:78|322:33,1,122.666669006348,12|0,0:0|0:0,0:0:0:0:
428,20,125310,2,0,L|492:16,2,61.3333345031739
208,36,125790,2,0,L|76:28,1,122.666669006348,4|0,0:2|0:0,0:0:0:0:
12,112,126270,2,0,P|8:152|16:176,1,61.3333345031739,4|0,0:0|0:0,0:0:0:0:
120,212,126590,1,0,0:0:0:0:
168,112,126750,6,0,L|300:120,1,122.666669006348,12|0,0:0|0:0,0:0:0:0:
400,124,127230,1,2,0:0:0:0:
484,192,127390,1,2,0:0:0:0:
383,230,127550,1,2,0:0:0:0:
400,124,127710,2,0,P|408:56|376:8,1,122.666669006348,4|0,0:2|0:0,0:0:0:0:
131,11,128190,2,0,P|102:64|112:124,1,122.666669006348,4|0,0:0|0:0,0:0:0:0:
196,316,128670,6,0,B|256:332|256:332|316:316,1,122.666669006348,12|0,0:0|0:0,0:0:0:0:
383,230,129150,1,0,0:0:0:0:
96,64,129470,1,0,0:0:0:0:
96,64,129630,1,4,0:2:0:0:
416,64,129950,1,0,0:0:0:0:
416,64,130110,1,4,0:0:0:0:
129,230,130430,1,0,0:0:0:0:
129,230,130590,6,0,P|121:298|153:346,1,122.666669006348,12|0,0:0|0:0,0:0:0:0:
256,368,131070,1,2,0:0:0:0:
364,341,131230,1,2,0:0:0:0:
383,230,131390,1,2,0:0:0:0:
316,140,131550,2,0,B|256:128|256:128|196:140,1,122.666669006348,4|0,0:2|0:0,0:0:0:0:
196,28,132030,2,0,B|256:40|256:40|316:28,1,122.666669006348,4|0,0:0|0:0,0:0:0:0:
424,4,132510,6,0,L|464:64,1,61.3333345031739,12|0,0:0|0:0,0:0:0:0:
512,152,132830,1,0,0:0:0:0:
400,148,132990,2,0,L|440:208,1,61.3333345031739
488,296,133310,1,0,0:0:0:0:
376,292,133470,2,0,L|336:232,1,61.3333345031739,4|0,0:2|0:0,0:0:0:0:
288,144,133790,1,0,0:0:0:0:
400,148,133950,2,0,L|360:88,1,61.3333345031739,4|0,0:0|0:0,0:0:0:0:
312,0,134270,1,0,0:0:0:0:
220,59,134430,6,0,P|161:76|103:59,1,122.666669006348,12|0,0:0|0:0,0:0:0:0:
12,0,134910,1,2,0:0:0:0:
36,108,135070,1,2,0:0:0:0:
60,216,135230,1,2,0:0:0:0:
84,324,135390,2,0,P|142:307|200:324,1,122.666669006348,4|0,0:2|0:0,0:0:0:0:
311,324,135870,2,0,P|369:307|428:324,1,122.666669006348,4|0,0:0|0:0,0:0:0:0:
472,224,136350,6,0,L|496:152,1,61.3333345031739,14|0,0:0|0:0,0:0:0:0:
336,192,136670,1,0,0:0:0:0:
344,96,136830,2,0,L|348:20,1,61.3333345031739,12|0,0:0|0:0,0:0:0:0:
176,192,137150,1,0,0:0:0:0:
168,96,137310,2,0,L|163:20,1,61.3333345031739,4|0,0:2|0:0,0:0:0:0:
40,224,137630,1,0,0:0:0:0:
40,224,137790,2,0,L|16:152,2,61.3333345031739,4|4|4,0:0|0:0|0:0,0:0:0:0:
80,328,138270,6,0,P|148:336|196:292,1,136.000002593994
188,184,139230,2,0,B|256:212|296:160|292:116|256:92|220:116|216:160|256:212|324:184,2,272.000005187988,2|0|0,0:0|0:0|0:0,0:0:0:0:
92,132,141630,1,0,0:0:0:0:
152,44,142110,5,2,0:0:0:0:
256,12,142590,1,0,0:0:0:0:
360,44,143070,1,2,0:0:0:0:
420,132,143550,1,0,0:0:0:0:
396,236,144030,2,0,P|383:302|396:369,1,136.000002593994,2|0,0:0|0:0,0:0:0:0:
286,369,144990,2,0,P|298:302|286:235,1,136.000002593994
200,140,145950,6,0,L|96:114,1,106.666666666667,12|0,0:0|0:0,0:0:0:0:
34,131,146430,1,0,0:0:0:0:
15,192,146590,1,0,0:0:0:0:
34,253,146750,1,0,0:0:0:0:
96,270,146910,2,0,L|199:244,1,106.666666666667,2|0,0:0|0:0,0:0:0:0:
261,228,147390,2,0,L|364:202,1,106.666666666667,4|0,0:0|0:0,0:0:0:0:
426,184,147870,6,0,P|454:252|426:331,1,160,4|0,0:0|0:0,0:0:0:0:
261,226,148830,2,0,P|233:158|261:78,1,160,2|0,0:0|0:0,0:0:0:0:
452,16,149790,5,12,0:0:0:0:
485,204,150270,1,0,0:0:0:0:
422,213,150430,1,0,0:0:0:0:
359,222,150590,1,0,0:0:0:0:
296,231,150750,1,2,0:0:0:0:
263,49,151230,1,4,0:0:0:0:
136,28,151550,1,0,0:0:0:0:
72,16,151710,6,0,P|56:76|72:116,1,106.666666666667,4|0,0:0|0:0,0:0:0:0:
130,142,152190,2,0,P|146:192|130:242,1,106.666666666667
71,268,152670,2,0,P|55:318|72:368,1,106.666666666667,2|0,0:0|0:0,0:0:0:0:
136,356,153150,1,4,0:0:0:0:
376,356,153630,5,4,0:0:0:0:
