osu file format v14

[General]
AudioFilename: audio.mp3
AudioLeadIn: 0
PreviewTime: 42738
Countdown: 1
SampleSet: Normal
StackLeniency: 0.7
Mode: 1
LetterboxInBreaks: 0
WidescreenStoryboard: 0

[Editor]
Bookmarks: 150,7261,14372,21483,28594,35705,54816,82154
DistanceSpacing: 0.8
BeatDivisor: 4
GridSize: 32
TimelineZoom: 2.999999

[Metadata]
Title:DIDJ PVC
TitleUnicode:DIDJ PVC
Artist:The Flashbulb
ArtistUnicode:The Flashbulb
Creator:tasuke912
Version:TAIKO-HOLIC
Source:osu!
Tags:featured artist Nardoxyribonucleic That Missing Week Electronic
BeatmapID:2020455
BeatmapSetID:965178

[Difficulty]
HPDrainRate:6.5
CircleSize:2
OverallDifficulty:7.7
ApproachRate:5
SliderMultiplier:1.4
SliderTickRate:1

[Events]
//Background and Video events
0,0,"bg.jpg",0,0
//Break Periods
//Storyboard Layer 0 (Background)
//Storyboard Layer 1 (Fail)
//Storyboard Layer 2 (Pass)
//Storyboard Layer 3 (Foreground)
//Storyboard Sound Samples

[TimingPoints]
155,444.444444444444,4,1,0,60,1,0
42821,375,4,1,0,60,1,0
54821,-66.6666666666667,4,1,0,60,0,1
66821,417.246175243394,4,1,0,60,1,0
66821,-60,4,1,0,60,0,0
67029,-60,4,1,0,20,0,0
68490,-76.9230769230769,4,1,0,20,0,0
70050,-90.9090909090909,4,1,0,60,0,0
70158,375,4,1,0,60,1,0

[HitObjects]
256,192,155,5,0,0:0:0:0:
256,192,377,1,2,0:0:0:0:
256,192,488,1,2,0:0:0:0:
256,192,599,1,2,0:0:0:0:
256,192,710,1,2,0:0:0:0:
256,192,932,1,2,0:0:0:0:
256,192,1043,1,2,0:0:0:0:
256,192,1154,1,0,0:0:0:0:
256,192,1266,1,0,0:0:0:0:
256,192,1377,1,2,0:0:0:0:
256,192,1488,1,2,0:0:0:0:
256,192,1710,1,0,0:0:0:0:
256,192,1932,1,0,0:0:0:0:
256,192,2154,1,0,0:0:0:0:
256,192,2210,1,0,0:0:0:0:
256,192,2266,1,0,0:0:0:0:
256,192,2377,1,0,0:0:0:0:
256,192,2488,1,0,0:0:0:0:
256,192,2710,1,2,0:0:0:0:
256,192,2821,1,0,0:0:0:0:
256,192,2932,1,0,0:0:0:0:
256,192,3043,1,0,0:0:0:0:
256,192,3154,1,2,0:0:0:0:
256,192,3266,1,0,0:0:0:0:
256,192,3488,1,0,0:0:0:0:
256,192,3599,1,2,0:0:0:0:
256,192,3654,1,2,0:0:0:0:
256,192,3710,1,0,0:0:0:0:
256,192,3877,1,0,0:0:0:0:
256,192,3932,1,0,0:0:0:0:
256,192,4043,1,0,0:0:0:0:
256,192,4154,1,0,0:0:0:0:
256,192,4266,1,0,0:0:0:0:
256,192,4377,1,2,0:0:0:0:
256,192,4488,1,0,0:0:0:0:
256,192,4599,1,2,0:0:0:0:
256,192,4710,1,0,0:0:0:0:
256,192,4821,1,0,0:0:0:0:
256,192,4932,1,2,0:0:0:0:
256,192,5043,1,2,0:0:0:0:
256,192,5154,1,0,0:0:0:0:
256,192,5266,1,2,0:0:0:0:
256,192,5321,1,0,0:0:0:0:
256,192,5377,1,2,0:0:0:0:
256,192,5432,1,2,0:0:0:0:
256,192,5488,1,0,0:0:0:0:
256,192,5710,1,0,0:0:0:0:
256,192,5766,1,0,0:0:0:0:
256,192,5821,1,0,0:0:0:0:
256,192,5932,1,0,0:0:0:0:
256,192,6043,1,0,0:0:0:0:
256,192,6154,1,2,0:0:0:0:
256,192,6266,1,2,0:0:0:0:
256,192,6377,1,0,0:0:0:0:
256,192,6488,1,0,0:0:0:0:
256,192,6599,1,0,0:0:0:0:
256,192,6710,1,2,0:0:0:0:
256,192,6766,1,2,0:0:0:0:
256,192,6821,1,0,0:0:0:0:
256,192,6932,1,2,0:0:0:0:
256,192,6988,1,2,0:0:0:0:
256,192,7043,1,0,0:0:0:0:
256,192,7266,5,0,0:0:0:0:
256,192,7377,1,0,0:0:0:0:
256,192,7488,1,0,0:0:0:0:
256,192,7599,1,2,0:0:0:0:
256,192,7710,1,0,0:0:0:0:
256,192,7821,1,0,0:0:0:0:
256,192,7932,1,2,0:0:0:0:
256,192,8043,1,0,0:0:0:0:
256,192,8154,1,2,0:0:0:0:
256,192,8266,1,0,0:0:0:0:
256,192,8377,1,0,0:0:0:0:
256,192,8488,1,2,0:0:0:0:
256,192,8599,1,2,0:0:0:0:
256,192,8710,1,0,0:0:0:0:
256,192,8821,1,2,0:0:0:0:
256,192,8932,1,0,0:0:0:0:
256,192,9043,1,0,0:0:0:0:
256,192,9266,1,0,0:0:0:0:
256,192,9321,1,0,0:0:0:0:
256,192,9377,1,0,0:0:0:0:
256,192,9488,1,0,0:0:0:0:
256,192,9599,1,2,0:0:0:0:
256,192,9710,1,0,0:0:0:0:
256,192,9766,1,0,0:0:0:0:
256,192,9821,1,2,0:0:0:0:
256,192,9877,1,2,0:0:0:0:
256,192,9932,1,0,0:0:0:0:
256,192,10043,1,2,0:0:0:0:
256,192,10099,1,0,0:0:0:0:
256,192,10210,1,2,0:0:0:0:
256,192,10266,1,0,0:0:0:0:
256,192,10377,1,2,0:0:0:0:
256,192,10488,1,0,0:0:0:0:
256,192,10599,1,2,0:0:0:0:
256,192,10710,1,2,0:0:0:0:
256,192,10766,1,2,0:0:0:0:
256,192,10821,1,0,0:0:0:0:
256,192,10932,1,2,0:0:0:0:
256,192,11043,1,0,0:0:0:0:
256,192,11154,1,0,0:0:0:0:
256,192,11266,1,0,0:0:0:0:
256,192,11377,1,0,0:0:0:0:
256,192,11432,1,0,0:0:0:0:
256,192,11488,1,0,0:0:0:0:
256,192,11543,1,2,0:0:0:0:
256,192,11599,1,2,0:0:0:0:
256,192,11710,1,0,0:0:0:0:
256,192,11821,1,0,0:0:0:0:
256,192,11932,1,0,0:0:0:0:
256,192,12043,1,2,0:0:0:0:
256,192,12154,1,2,0:0:0:0:
256,192,12266,1,2,0:0:0:0:
256,192,12377,1,0,0:0:0:0:
256,192,12488,1,2,0:0:0:0:
256,192,12599,1,0,0:0:0:0:
256,192,12710,1,2,0:0:0:0:
256,192,12766,1,2,0:0:0:0:
256,192,12821,1,0,0:0:0:0:
256,192,12877,1,0,0:0:0:0:
256,192,12932,1,0,0:0:0:0:
256,192,13043,1,0,0:0:0:0:
256,192,13154,1,0,0:0:0:0:
256,192,13266,1,2,0:0:0:0:
256,192,13377,1,2,0:0:0:0:
256,192,13488,1,0,0:0:0:0:
256,192,13599,1,0,0:0:0:0:
256,192,13710,1,0,0:0:0:0:
256,192,13821,1,2,0:0:0:0:
256,192,13932,1,2,0:0:0:0:
256,192,13988,1,2,0:0:0:0:
256,192,14043,1,0,0:0:0:0:
256,192,14099,1,0,0:0:0:0:
256,192,14154,1,2,0:0:0:0:
256,192,14210,1,0,0:0:0:0:
256,192,14266,1,2,0:0:0:0:
256,192,14321,1,2,0:0:0:0:
256,192,14377,5,0,0:0:0:0:
256,192,14488,1,0,0:0:0:0:
256,192,14599,1,0,0:0:0:0:
256,192,14710,1,2,0:0:0:0:
256,192,14821,1,0,0:0:0:0:
256,192,14932,1,0,0:0:0:0:
256,192,15043,1,2,0:0:0:0:
256,192,15154,1,2,0:0:0:0:
256,192,15266,1,0,0:0:0:0:
256,192,15377,1,2,0:0:0:0:
256,192,15488,1,0,0:0:0:0:
256,192,15599,1,2,0:0:0:0:
256,192,15710,1,2,0:0:0:0:
256,192,15821,1,0,0:0:0:0:
256,192,15932,1,2,0:0:0:0:
256,192,16043,1,2,0:0:0:0:
256,192,16154,1,0,0:0:0:0:
256,192,16266,1,0,0:0:0:0:
256,192,16377,1,0,0:0:0:0:
256,192,16432,1,0,0:0:0:0:
256,192,16488,1,0,0:0:0:0:
256,192,16543,1,0,0:0:0:0:
256,192,16599,1,0,0:0:0:0:
256,192,16710,1,0,0:0:0:0:
256,192,16821,1,0,0:0:0:0:
256,192,16932,1,2,0:0:0:0:
256,192,17043,1,0,0:0:0:0:
256,192,17154,1,0,0:0:0:0:
256,192,17266,1,0,0:0:0:0:
256,192,17377,1,2,0:0:0:0:
256,192,17488,1,2,0:0:0:0:
256,192,17599,1,0,0:0:0:0:
256,192,17710,1,2,0:0:0:0:
256,192,17821,1,0,0:0:0:0:
256,192,17932,1,0,0:0:0:0:
256,192,18043,1,2,0:0:0:0:
256,192,18099,1,2,0:0:0:0:
256,192,18154,1,0,0:0:0:0:
256,192,18210,1,0,0:0:0:0:
256,192,18266,1,0,0:0:0:0:
256,192,18377,1,0,0:0:0:0:
256,192,18488,1,0,0:0:0:0:
256,192,18599,1,2,0:0:0:0:
256,192,18710,1,2,0:0:0:0:
256,192,18821,1,0,0:0:0:0:
256,192,18932,1,0,0:0:0:0:
256,192,19043,1,0,0:0:0:0:
256,192,19154,1,2,0:0:0:0:
256,192,19266,1,2,0:0:0:0:
256,192,19377,1,2,0:0:0:0:
256,192,19432,1,2,0:0:0:0:
256,192,19488,1,0,0:0:0:0:
256,192,19599,1,2,0:0:0:0:
256,192,19710,1,0,0:0:0:0:
256,192,19821,1,0,0:0:0:0:
256,192,19932,1,0,0:0:0:0:
256,192,19988,1,0,0:0:0:0:
256,192,20043,1,0,0:0:0:0:
256,192,20154,1,0,0:0:0:0:
256,192,20266,1,0,0:0:0:0:
256,192,20377,1,2,0:0:0:0:
256,192,20432,1,2,0:0:0:0:
256,192,20488,1,2,0:0:0:0:
256,192,20599,1,2,0:0:0:0:
256,192,20710,1,0,0:0:0:0:
256,192,20821,1,2,0:0:0:0:
256,192,20877,1,2,0:0:0:0:
256,192,20932,1,0,0:0:0:0:
256,192,21043,1,2,0:0:0:0:
256,192,21154,1,0,0:0:0:0:
256,192,21266,1,2,0:0:0:0:
256,192,21377,1,2,0:0:0:0:
256,192,21488,5,0,0:0:0:0:
256,192,21599,1,2,0:0:0:0:
256,192,21710,1,0,0:0:0:0:
256,192,21821,1,0,0:0:0:0:
256,192,21877,1,0,0:0:0:0:
256,192,21932,1,0,0:0:0:0:
256,192,22043,1,0,0:0:0:0:
256,192,22154,1,0,0:0:0:0:
256,192,22266,1,2,0:0:0:0:
256,192,22377,1,0,0:0:0:0:
256,192,22488,1,0,0:0:0:0:
256,192,22543,1,2,0:0:0:0:
256,192,22599,1,0,0:0:0:0:
256,192,22654,1,2,0:0:0:0:
256,192,22710,1,2,0:0:0:0:
256,192,22766,1,2,0:0:0:0:
256,192,22821,1,0,0:0:0:0:
256,192,22932,1,0,0:0:0:0:
256,192,23043,1,2,0:0:0:0:
256,192,23154,1,0,0:0:0:0:
256,192,23266,1,0,0:0:0:0:
256,192,23377,1,2,0:0:0:0:
256,192,23488,1,0,0:0:0:0:
256,192,23543,1,0,0:0:0:0:
256,192,23599,1,2,0:0:0:0:
256,192,23710,1,0,0:0:0:0:
256,192,23821,1,0,0:0:0:0:
256,192,23932,1,2,0:0:0:0:
256,192,24043,1,2,0:0:0:0:
256,192,24154,1,0,0:0:0:0:
256,192,24266,1,0,0:0:0:0:
256,192,24377,1,2,0:0:0:0:
256,192,24488,1,2,0:0:0:0:
256,192,24599,1,0,0:0:0:0:
256,192,24710,1,2,0:0:0:0:
256,192,24821,1,2,0:0:0:0:
256,192,24877,1,0,0:0:0:0:
256,192,24932,1,2,0:0:0:0:
256,192,24988,1,2,0:0:0:0:
256,192,25043,1,0,0:0:0:0:
256,192,25154,1,0,0:0:0:0:
256,192,25266,1,0,0:0:0:0:
256,192,25377,1,2,0:0:0:0:
256,192,25488,1,0,0:0:0:0:
256,192,25599,1,0,0:0:0:0:
256,192,25710,1,2,0:0:0:0:
256,192,25821,1,2,0:0:0:0:
256,192,25932,1,0,0:0:0:0:
256,192,26043,1,0,0:0:0:0:
256,192,26154,1,2,0:0:0:0:
256,192,26266,1,0,0:0:0:0:
256,192,26377,1,2,0:0:0:0:
256,192,26488,1,0,0:0:0:0:
256,192,26599,1,0,0:0:0:0:
256,192,26710,1,2,0:0:0:0:
256,192,26821,1,0,0:0:0:0:
256,192,26932,1,2,0:0:0:0:
256,192,27043,1,0,0:0:0:0:
256,192,27154,1,2,0:0:0:0:
256,192,27210,1,2,0:0:0:0:
256,192,27266,1,0,0:0:0:0:
256,192,27377,1,0,0:0:0:0:
256,192,27432,1,0,0:0:0:0:
256,192,27488,1,0,0:0:0:0:
256,192,27599,1,2,0:0:0:0:
256,192,27710,1,0,0:0:0:0:
256,192,27821,1,0,0:0:0:0:
256,192,27932,1,0,0:0:0:0:
256,192,28043,1,2,0:0:0:0:
256,192,28154,1,2,0:0:0:0:
256,192,28210,1,2,0:0:0:0:
256,192,28266,1,0,0:0:0:0:
256,192,28321,1,2,0:0:0:0:
256,192,28377,1,0,0:0:0:0:
256,192,28432,1,0,0:0:0:0:
256,192,28488,1,2,0:0:0:0:
256,192,28543,1,2,0:0:0:0:
256,192,28599,5,0,0:0:0:0:
256,192,28710,1,0,0:0:0:0:
256,192,28821,1,0,0:0:0:0:
256,192,28932,1,0,0:0:0:0:
256,192,29043,1,2,0:0:0:0:
256,192,29154,1,0,0:0:0:0:
256,192,29266,1,2,0:0:0:0:
256,192,29377,1,2,0:0:0:0:
256,192,29432,1,2,0:0:0:0:
256,192,29488,1,0,0:0:0:0:
256,192,29599,1,0,0:0:0:0:
256,192,29710,1,0,0:0:0:0:
256,192,29821,1,2,0:0:0:0:
256,192,29932,1,2,0:0:0:0:
256,192,30043,1,0,0:0:0:0:
256,192,30154,1,2,0:0:0:0:
256,192,30266,1,2,0:0:0:0:
256,192,30377,1,0,0:0:0:0:
256,192,30599,1,0,0:0:0:0:
256,192,30654,1,0,0:0:0:0:
256,192,30710,1,0,0:0:0:0:
256,192,30821,1,2,0:0:0:0:
256,192,30932,1,2,0:0:0:0:
256,192,31043,1,0,0:0:0:0:
256,192,31154,1,2,0:0:0:0:
256,192,31266,1,2,0:0:0:0:
256,192,31377,1,0,0:0:0:0:
256,192,31488,1,0,0:0:0:0:
256,192,31599,1,2,0:0:0:0:
256,192,31710,1,2,0:0:0:0:
256,192,31932,1,2,0:0:0:0:
256,192,32043,1,2,0:0:0:0:
256,192,32154,1,0,0:0:0:0:
256,192,32321,1,0,0:0:0:0:
256,192,32377,1,0,0:0:0:0:
256,192,32488,1,0,0:0:0:0:
256,192,32543,1,0,0:0:0:0:
256,192,32599,1,0,0:0:0:0:
256,192,32710,1,2,0:0:0:0:
256,192,32821,1,0,0:0:0:0:
256,192,32877,1,0,0:0:0:0:
256,192,32932,1,2,0:0:0:0:
256,192,33043,1,0,0:0:0:0:
256,192,33154,1,2,0:0:0:0:
256,192,33210,1,2,0:0:0:0:
256,192,33266,1,0,0:0:0:0:
256,192,33321,1,2,0:0:0:0:
256,192,33377,1,0,0:0:0:0:
256,192,33488,1,2,0:0:0:0:
256,192,33599,1,2,0:0:0:0:
256,192,33654,1,0,0:0:0:0:
256,192,33710,1,2,0:0:0:0:
256,192,33766,1,2,0:0:0:0:
256,192,33821,1,0,0:0:0:0:
256,192,33877,1,0,0:0:0:0:
256,192,33932,1,0,0:0:0:0:
256,192,34043,1,2,0:0:0:0:
256,192,34154,1,0,0:0:0:0:
256,192,34210,1,0,0:0:0:0:
256,192,34266,1,2,0:0:0:0:
256,192,34377,1,2,0:0:0:0:
256,192,34488,1,0,0:0:0:0:
256,192,34599,1,2,0:0:0:0:
256,192,34710,1,2,0:0:0:0:
256,192,34821,1,0,0:0:0:0:
256,192,34877,1,0,0:0:0:0:
256,192,34932,1,0,0:0:0:0:
256,192,35043,1,0,0:0:0:0:
256,192,35154,1,2,0:0:0:0:
256,192,35266,1,2,0:0:0:0:
256,192,35377,1,2,0:0:0:0:
256,192,35488,1,0,0:0:0:0:
256,192,35710,5,4,0:0:0:0:
256,192,35932,1,0,0:0:0:0:
256,192,36043,1,0,0:0:0:0:
256,192,36154,1,2,0:0:0:0:
256,192,36266,1,2,0:0:0:0:
256,192,36377,1,0,0:0:0:0:
256,192,36488,1,2,0:0:0:0:
256,192,36599,1,2,0:0:0:0:
256,192,36710,1,0,0:0:0:0:
256,192,36821,1,0,0:0:0:0:
256,192,36932,1,0,0:0:0:0:
256,192,37043,1,2,0:0:0:0:
256,192,37182,1,2,0:0:0:0:
256,192,37321,1,0,0:0:0:0:
256,192,37488,1,2,0:0:0:0:
256,192,37599,1,2,0:0:0:0:
256,192,37710,1,0,0:0:0:0:
256,192,37766,1,0,0:0:0:0:
256,192,37821,1,2,0:0:0:0:
256,192,37932,1,0,0:0:0:0:
256,192,38043,1,2,0:0:0:0:
256,192,38154,1,2,0:0:0:0:
256,192,38266,1,2,0:0:0:0:
256,192,38377,1,0,0:0:0:0:
256,192,38432,1,2,0:0:0:0:
256,192,38488,1,0,0:0:0:0:
256,192,38543,1,2,0:0:0:0:
256,192,38599,1,0,0:0:0:0:
256,192,38654,1,0,0:0:0:0:
256,192,38710,1,2,0:0:0:0:
256,192,38766,1,0,0:0:0:0:
256,192,38821,1,2,0:0:0:0:
256,192,38932,1,2,0:0:0:0:
256,192,38988,1,2,0:0:0:0:
256,192,39043,1,0,0:0:0:0:
256,192,39154,1,2,0:0:0:0:
256,192,39266,1,0,0:0:0:0:
256,192,39377,1,0,0:0:0:0:
256,192,39488,1,0,0:0:0:0:
256,192,39599,1,0,0:0:0:0:
256,192,39710,1,2,0:0:0:0:
256,192,39821,1,0,0:0:0:0:
256,192,39932,1,2,0:0:0:0:
256,192,40043,1,2,0:0:0:0:
256,192,40154,1,0,0:0:0:0:
256,192,40266,1,2,0:0:0:0:
256,192,40377,1,0,0:0:0:0:
256,192,40488,1,2,0:0:0:0:
256,192,40599,1,2,0:0:0:0:
256,192,40710,1,0,0:0:0:0:
256,192,40821,1,2,0:0:0:0:
256,192,40932,1,2,0:0:0:0:
256,192,41043,1,0,0:0:0:0:
256,192,41099,1,0,0:0:0:0:
256,192,41154,1,0,0:0:0:0:
256,192,41210,1,0,0:0:0:0:
256,192,41266,1,2,0:0:0:0:
256,192,41321,1,2,0:0:0:0:
256,192,41377,1,2,0:0:0:0:
256,192,41432,1,2,0:0:0:0:
256,192,41488,1,0,0:0:0:0:
256,192,41599,1,0,0:0:0:0:
256,192,41654,1,0,0:0:0:0:
256,192,41710,1,2,0:0:0:0:
256,192,41766,1,0,0:0:0:0:
256,192,41821,1,2,0:0:0:0:
256,192,41877,1,2,0:0:0:0:
256,192,41932,1,0,0:0:0:0:
256,192,42043,1,0,0:0:0:0:
256,192,42154,1,0,0:0:0:0:
256,192,42266,1,2,0:0:0:0:
256,192,42377,1,2,0:0:0:0:
256,192,42432,1,2,0:0:0:0:
256,192,42488,1,2,0:0:0:0:
256,192,42543,1,2,0:0:0:0:
256,192,42599,1,0,0:0:0:0:
256,192,42821,5,4,0:0:0:0:
256,192,43008,1,2,0:0:0:0:
256,192,43102,1,2,0:0:0:0:
256,192,43196,1,0,0:0:0:0:
256,192,43289,1,2,0:0:0:0:
256,192,43477,1,2,0:0:0:0:
256,192,43571,1,0,0:0:0:0:
256,192,43664,1,0,0:0:0:0:
256,192,43758,1,2,0:0:0:0:
256,192,43852,1,0,0:0:0:0:
256,192,43946,1,2,0:0:0:0:
256,192,44133,1,0,0:0:0:0:
256,192,44227,1,2,0:0:0:0:
256,192,44321,1,0,0:0:0:0:
256,192,44508,1,0,0:0:0:0:
256,192,44555,1,0,0:0:0:0:
256,192,44602,1,0,0:0:0:0:
256,192,44696,1,0,0:0:0:0:
256,192,44789,1,2,0:0:0:0:
256,192,44836,1,2,0:0:0:0:
256,192,44883,1,2,0:0:0:0:
256,192,44930,1,2,0:0:0:0:
256,192,44977,1,0,0:0:0:0:
256,192,45071,1,2,0:0:0:0:
256,192,45164,1,0,0:0:0:0:
256,192,45258,1,2,0:0:0:0:
256,192,45305,1,2,0:0:0:0:
256,192,45352,1,2,0:0:0:0:
256,192,45446,1,0,0:0:0:0:
256,192,45492,1,2,0:0:0:0:
256,192,45539,1,2,0:0:0:0:
256,192,45586,1,2,0:0:0:0:
256,192,45633,1,0,0:0:0:0:
256,192,45727,1,2,0:0:0:0:
256,192,45821,5,0,0:0:0:0:
256,192,45961,1,0,0:0:0:0:
256,192,46008,1,0,0:0:0:0:
256,192,46102,1,0,0:0:0:0:
256,192,46196,1,2,0:0:0:0:
256,192,46336,1,0,0:0:0:0:
256,192,46383,1,2,0:0:0:0:
256,192,46477,1,2,0:0:0:0:
256,192,46571,1,0,0:0:0:0:
256,192,46633,1,2,0:0:0:0:
256,192,46696,1,2,0:0:0:0:
256,192,46758,1,0,0:0:0:0:
256,192,46852,1,0,0:0:0:0:
256,192,46946,1,2,0:0:0:0:
256,192,47086,1,2,0:0:0:0:
256,192,47133,1,0,0:0:0:0:
256,192,47227,1,2,0:0:0:0:
256,192,47274,1,2,0:0:0:0:
256,192,47321,1,0,0:0:0:0:
256,192,47414,1,0,0:0:0:0:
256,192,47508,1,2,0:0:0:0:
256,192,47555,1,2,0:0:0:0:
256,192,47602,1,2,0:0:0:0:
256,192,47696,1,2,0:0:0:0:
256,192,47789,1,0,0:0:0:0:
256,192,47883,1,2,0:0:0:0:
256,192,47977,1,0,0:0:0:0:
256,192,48071,1,0,0:0:0:0:
256,192,48164,1,2,0:0:0:0:
256,192,48258,1,0,0:0:0:0:
256,192,48352,1,2,0:0:0:0:
256,192,48446,1,2,0:0:0:0:
256,192,48539,1,2,0:0:0:0:
256,192,48633,1,0,0:0:0:0:
256,192,48821,1,0,0:0:0:0:
256,192,48852,1,2,0:0:0:0:
256,192,48883,1,2,0:0:0:0:
256,192,49196,1,2,0:0:0:0:
256,192,49242,1,2,0:0:0:0:
256,192,49289,1,2,0:0:0:0:
256,192,49336,1,2,0:0:0:0:
256,192,49383,1,0,0:0:0:0:
256,192,49430,1,0,0:0:0:0:
256,192,49477,1,0,0:0:0:0:
256,192,49524,1,0,0:0:0:0:
256,192,49571,1,0,0:0:0:0:
256,192,49664,1,0,0:0:0:0:
256,192,49758,1,2,0:0:0:0:
256,192,49852,1,0,0:0:0:0:
256,192,49946,1,2,0:0:0:0:
256,192,50133,1,0,0:0:0:0:
256,192,50180,1,2,0:0:0:0:
256,192,50227,1,2,0:0:0:0:
256,192,50321,1,0,0:0:0:0:
256,192,50461,1,0,0:0:0:0:
256,192,50555,1,2,0:0:0:0:
256,192,50696,1,2,0:0:0:0:
256,192,50742,1,2,0:0:0:0:
256,192,50789,1,0,0:0:0:0:
256,192,50883,1,2,0:0:0:0:
256,192,50977,1,2,0:0:0:0:
256,192,51024,1,2,0:0:0:0:
256,192,51071,1,0,0:0:0:0:
256,192,51164,1,2,0:0:0:0:
256,192,51258,1,0,0:0:0:0:
256,192,51305,1,0,0:0:0:0:
256,192,51352,1,2,0:0:0:0:
256,192,51446,1,2,0:0:0:0:
256,192,51586,1,0,0:0:0:0:
256,192,51633,1,2,0:0:0:0:
256,192,51680,1,2,0:0:0:0:
256,192,51821,1,0,0:0:0:0:
256,192,51914,1,2,0:0:0:0:
256,192,51961,1,0,0:0:0:0:
256,192,52008,1,0,0:0:0:0:
256,192,52055,1,2,0:0:0:0:
256,192,52102,1,0,0:0:0:0:
256,192,52196,1,2,0:0:0:0:
256,192,52289,1,0,0:0:0:0:
256,192,52336,1,0,0:0:0:0:
256,192,52383,1,2,0:0:0:0:
256,192,52477,1,2,0:0:0:0:
256,192,52571,1,0,0:0:0:0:
256,192,52602,1,0,0:0:0:0:
256,192,52633,1,0,0:0:0:0:
256,192,52664,1,0,0:0:0:0:
256,192,52696,1,2,0:0:0:0:
256,192,52758,1,2,0:0:0:0:
256,192,52883,1,0,0:0:0:0:
256,192,52946,1,2,0:0:0:0:
256,192,53039,1,0,0:0:0:0:
256,192,53133,1,0,0:0:0:0:
256,192,53321,1,0,0:0:0:0:
256,192,53508,1,2,0:0:0:0:
256,192,53602,1,0,0:0:0:0:
256,192,53696,1,2,0:0:0:0:
256,192,53789,1,2,0:0:0:0:
256,192,53883,1,2,0:0:0:0:
256,192,53977,1,2,0:0:0:0:
256,192,54071,1,0,0:0:0:0:
256,192,54164,1,2,0:0:0:0:
256,192,54258,1,0,0:0:0:0:
256,192,54352,1,2,0:0:0:0:
256,192,54446,1,2,0:0:0:0:
256,192,54539,1,0,0:0:0:0:
256,192,54633,1,2,0:0:0:0:
256,192,54821,5,4,0:0:0:0:
256,192,55008,1,0,0:0:0:0:
256,192,55102,1,0,0:0:0:0:
256,192,55196,1,2,0:0:0:0:
256,192,55383,1,0,0:0:0:0:
256,192,55477,1,0,0:0:0:0:
256,192,55571,1,0,0:0:0:0:
256,192,55664,1,2,0:0:0:0:
256,192,55758,1,0,0:0:0:0:
256,192,55852,1,2,0:0:0:0:
256,192,55946,1,2,0:0:0:0:
256,192,56039,1,0,0:0:0:0:
256,192,56133,1,2,0:0:0:0:
256,192,56227,1,2,0:0:0:0:
256,192,56321,1,0,0:0:0:0:
256,192,56508,1,2,0:0:0:0:
256,192,56539,1,2,0:0:0:0:
256,192,56571,1,2,0:0:0:0:
256,192,56602,1,2,0:0:0:0:
256,192,56633,5,0,0:0:0:0:
256,192,56696,1,0,0:0:0:0:
256,192,56789,1,2,0:0:0:0:
256,192,56977,1,2,0:0:0:0:
256,192,57071,1,0,0:0:0:0:
256,192,57164,1,2,0:0:0:0:
256,192,57258,1,2,0:0:0:0:
256,192,57352,1,0,0:0:0:0:
256,192,57446,1,2,0:0:0:0:
256,192,57633,1,2,0:0:0:0:
256,192,57727,1,2,0:0:0:0:
256,192,57821,1,0,0:0:0:0:
256,192,58008,1,2,0:0:0:0:
256,192,58196,1,0,0:0:0:0:
256,192,58289,1,2,0:0:0:0:
256,192,58477,1,2,0:0:0:0:
256,192,58571,1,0,0:0:0:0:
256,192,58664,1,2,0:0:0:0:
256,192,58758,1,0,0:0:0:0:
256,192,58946,1,2,0:0:0:0:
256,192,59133,1,2,0:0:0:0:
256,192,59227,1,2,0:0:0:0:
256,192,59321,1,0,0:0:0:0:
256,192,59508,1,2,0:0:0:0:
256,192,59571,1,2,0:0:0:0:
256,192,59633,1,2,0:0:0:0:
256,192,59696,1,0,0:0:0:0:
256,192,59789,1,0,0:0:0:0:
256,192,59883,1,2,0:0:0:0:
256,192,60071,1,2,0:0:0:0:
256,192,60164,1,2,0:0:0:0:
256,192,60258,1,0,0:0:0:0:
256,192,60352,1,0,0:0:0:0:
256,192,60446,1,2,0:0:0:0:
256,192,60539,1,0,0:0:0:0:
256,192,60586,1,0,0:0:0:0:
256,192,60633,1,2,0:0:0:0:
256,192,60821,1,4,0:0:0:0:
256,192,61008,1,0,0:0:0:0:
256,192,61102,1,0,0:0:0:0:
256,192,61196,1,2,0:0:0:0:
256,192,61383,1,2,0:0:0:0:
256,192,61477,1,2,0:0:0:0:
256,192,61571,1,0,0:0:0:0:
256,192,61696,1,0,0:0:0:0:
256,192,61758,1,2,0:0:0:0:
256,192,61852,1,0,0:0:0:0:
256,192,61946,1,2,0:0:0:0:
256,192,62133,1,2,0:0:0:0:
256,192,62227,1,2,0:0:0:0:
256,192,62321,1,0,0:0:0:0:
256,192,62414,1,0,0:0:0:0:
256,192,62602,1,0,0:0:0:0:
256,192,62696,1,2,0:0:0:0:
256,192,62789,1,0,0:0:0:0:
256,192,62883,1,2,0:0:0:0:
256,192,62977,1,2,0:0:0:0:
256,192,63071,1,0,0:0:0:0:
256,192,63164,1,2,0:0:0:0:
256,192,63211,1,2,0:0:0:0:
256,192,63258,1,2,0:0:0:0:
256,192,63352,1,0,0:0:0:0:
256,192,63446,1,2,0:0:0:0:
256,192,63539,1,2,0:0:0:0:
256,192,63633,1,0,0:0:0:0:
256,192,63821,1,0,0:0:0:0:
256,192,63914,1,0,0:0:0:0:
256,192,64008,1,0,0:0:0:0:
256,192,64102,1,2,0:0:0:0:
256,192,64196,1,2,0:0:0:0:
256,192,64289,1,0,0:0:0:0:
256,192,64383,1,2,0:0:0:0:
256,192,64508,1,2,0:0:0:0:
256,192,64571,1,0,0:0:0:0:
256,192,64664,1,2,0:0:0:0:
256,192,64758,1,0,0:0:0:0:
256,192,64852,1,2,0:0:0:0:
256,192,64946,1,2,0:0:0:0:
256,192,64992,1,2,0:0:0:0:
256,192,65039,1,2,0:0:0:0:
256,192,65086,1,2,0:0:0:0:
256,192,65133,1,2,0:0:0:0:
256,192,65321,1,4,0:0:0:0:
256,192,65508,1,2,0:0:0:0:
256,192,65696,1,2,0:0:0:0:
256,192,65789,1,0,0:0:0:0:
256,192,65977,1,2,0:0:0:0:
256,192,66071,1,0,0:0:0:0:
256,192,66164,1,0,0:0:0:0:
256,192,66258,1,2,0:0:0:0:
256,192,66352,1,0,0:0:0:0:
256,192,66446,1,2,0:0:0:0:
256,192,66539,1,2,0:0:0:0:
256,192,66633,1,0,0:0:0:0:
256,192,66821,5,4,0:0:0:0:
256,192,67029,12,0,69950,0:0:0:0:
256,192,70158,5,0,0:0:0:0:
256,192,70345,1,0,0:0:0:0:
256,192,70439,1,0,0:0:0:0:
256,192,70533,1,2,0:0:0:0:
256,192,70908,1,0,0:0:0:0:
256,192,71001,1,2,0:0:0:0:
256,192,71095,1,0,0:0:0:0:
256,192,71189,1,2,0:0:0:0:
256,192,71283,1,2,0:0:0:0:
256,192,71329,1,2,0:0:0:0:
256,192,71376,1,2,0:0:0:0:
256,192,71423,1,2,0:0:0:0:
256,192,71470,1,0,0:0:0:0:
256,192,71658,1,0,0:0:0:0:
256,192,71704,1,0,0:0:0:0:
256,192,71751,1,0,0:0:0:0:
256,192,71798,1,0,0:0:0:0:
256,192,71845,1,0,0:0:0:0:
256,192,71908,1,2,0:0:0:0:
256,192,71970,1,2,0:0:0:0:
256,192,72033,1,0,0:0:0:0:
256,192,72126,1,2,0:0:0:0:
256,192,72314,1,2,0:0:0:0:
256,192,72361,1,2,0:0:0:0:
256,192,72408,1,0,0:0:0:0:
256,192,72501,1,0,0:0:0:0:
256,192,72548,1,0,0:0:0:0:
256,192,72595,1,0,0:0:0:0:
256,192,72642,1,0,0:0:0:0:
256,192,72689,1,2,0:0:0:0:
256,192,72783,1,2,0:0:0:0:
256,192,72970,1,0,0:0:0:0:
256,192,73064,1,2,0:0:0:0:
256,192,73111,1,2,0:0:0:0:
256,192,73158,1,0,0:0:0:0:
256,192,73298,1,0,0:0:0:0:
256,192,73345,1,0,0:0:0:0:
256,192,73439,1,2,0:0:0:0:
256,192,73533,1,2,0:0:0:0:
256,192,73579,1,2,0:0:0:0:
256,192,73626,1,2,0:0:0:0:
256,192,73720,1,0,0:0:0:0:
256,192,73767,1,0,0:0:0:0:
256,192,73814,1,2,0:0:0:0:
256,192,73908,1,2,0:0:0:0:
256,192,74001,1,0,0:0:0:0:
256,192,74095,1,2,0:0:0:0:
256,192,74189,1,2,0:0:0:0:
256,192,74283,1,0,0:0:0:0:
256,192,74376,1,2,0:0:0:0:
256,192,74470,1,2,0:0:0:0:
256,192,74517,1,2,0:0:0:0:
256,192,74564,1,0,0:0:0:0:
256,192,74611,1,0,0:0:0:0:
256,192,74658,1,0,0:0:0:0:
256,192,74845,1,0,0:0:0:0:
256,192,74892,1,0,0:0:0:0:
256,192,74939,1,2,0:0:0:0:
256,192,75033,1,0,0:0:0:0:
256,192,75126,1,2,0:0:0:0:
256,192,75220,1,2,0:0:0:0:
256,192,75314,1,2,0:0:0:0:
256,192,75408,1,0,0:0:0:0:
256,192,75501,1,0,0:0:0:0:
256,192,75595,1,0,0:0:0:0:
256,192,75689,1,2,0:0:0:0:
256,192,75736,1,2,0:0:0:0:
256,192,75783,1,2,0:0:0:0:
256,192,75876,1,2,0:0:0:0:
256,192,75923,1,2,0:0:0:0:
256,192,75970,1,0,0:0:0:0:
256,192,76033,1,0,0:0:0:0:
256,192,76095,1,0,0:0:0:0:
256,192,76158,1,0,0:0:0:0:
256,192,76345,1,2,0:0:0:0:
256,192,76439,1,2,0:0:0:0:
256,192,76533,1,0,0:0:0:0:
256,192,76908,1,0,0:0:0:0:
256,192,77001,1,0,0:0:0:0:
256,192,77095,1,0,0:0:0:0:
256,192,77189,1,2,0:0:0:0:
256,192,77283,1,2,0:0:0:0:
256,192,77376,1,0,0:0:0:0:
256,192,77470,1,2,0:0:0:0:
256,192,77564,1,2,0:0:0:0:
256,192,77658,1,0,0:0:0:0:
256,192,77845,1,0,0:0:0:0:
256,192,77892,1,0,0:0:0:0:
256,192,77939,1,0,0:0:0:0:
256,192,78033,1,0,0:0:0:0:
256,192,78126,1,0,0:0:0:0:
256,192,78220,1,0,0:0:0:0:
256,192,78267,1,0,0:0:0:0:
256,192,78314,1,2,0:0:0:0:
256,192,78361,1,2,0:0:0:0:
256,192,78408,1,0,0:0:0:0:
256,192,78501,1,2,0:0:0:0:
256,192,78548,1,0,0:0:0:0:
256,192,78642,1,2,0:0:0:0:
256,192,78689,1,0,0:0:0:0:
256,192,78783,1,2,0:0:0:0:
256,192,78876,1,0,0:0:0:0:
256,192,78970,1,2,0:0:0:0:
256,192,79064,1,2,0:0:0:0:
256,192,79111,1,2,0:0:0:0:
256,192,79158,1,0,0:0:0:0:
256,192,79251,1,2,0:0:0:0:
256,192,79345,1,0,0:0:0:0:
256,192,79439,1,0,0:0:0:0:
256,192,79533,1,2,0:0:0:0:
256,192,79626,1,2,0:0:0:0:
256,192,79673,1,2,0:0:0:0:
256,192,79720,1,0,0:0:0:0:
256,192,79767,1,2,0:0:0:0:
256,192,79814,1,2,0:0:0:0:
256,192,79908,1,0,0:0:0:0:
256,192,80001,1,0,0:0:0:0:
256,192,80095,1,0,0:0:0:0:
256,192,80189,1,2,0:0:0:0:
256,192,80283,1,2,0:0:0:0:
256,192,80376,1,2,0:0:0:0:
256,192,80470,1,0,0:0:0:0:
256,192,80564,1,2,0:0:0:0:
256,192,80658,1,0,0:0:0:0:
256,192,80751,1,2,0:0:0:0:
256,192,80798,1,2,0:0:0:0:
256,192,80845,1,0,0:0:0:0:
256,192,80892,1,0,0:0:0:0:
256,192,80939,1,0,0:0:0:0:
256,192,81033,1,0,0:0:0:0:
256,192,81126,1,0,0:0:0:0:
256,192,81220,1,2,0:0:0:0:
256,192,81314,1,2,0:0:0:0:
256,192,81408,1,0,0:0:0:0:
256,192,81501,1,0,0:0:0:0:
256,192,81595,1,0,0:0:0:0:
256,192,81689,1,2,0:0:0:0:
256,192,81783,1,2,0:0:0:0:
256,192,81876,1,2,0:0:0:0:
256,192,81923,1,2,0:0:0:0:
256,192,81970,1,0,0:0:0:0:
256,192,82017,1,2,0:0:0:0:
256,192,82064,1,2,0:0:0:0:
256,192,82111,1,2,0:0:0:0:
256,192,82158,1,0,0:0:0:0:
256,192,82322,1,6,0:0:0:0:
256,192,82790,1,0,0:0:0:0:
256,192,83001,1,6,0:0:0:0:
256,192,83470,1,6,0:0:0:0:
256,192,84126,1,6,0:0:0:0:
256,192,84431,1,4,0:0:0:0:
256,192,85368,1,6,0:0:0:0:
256,192,86072,1,6,0:0:0:0:
