osu file format v14

[General]
AudioFilename: audio.mp3
AudioLeadIn: 0
PreviewTime: 42738
Countdown: 1
SampleSet: Normal
StackLeniency: 0.7
Mode: 1
LetterboxInBreaks: 0
WidescreenStoryboard: 1

[Editor]
Bookmarks: 150,7261,14372,21483,28594,35705,54816
DistanceSpacing: 0.8
BeatDivisor: 4
GridSize: 32
TimelineZoom: 1.9

[Metadata]
Title:DIDJ PVC
TitleUnicode:DIDJ PVC
Artist:The Flashbulb
ArtistUnicode:The Flashbulb
Creator:tasuke912
Version:Muzukashii
Source:osu!
Tags:featured artist Nardoxyribonucleic That Missing Week Electronic
BeatmapID:2020498
BeatmapSetID:965178

[Difficulty]
HPDrainRate:7
CircleSize:2
OverallDifficulty:5.5
ApproachRate:5
SliderMultiplier:1.4
SliderTickRate:1

[Events]
//Background and Video events
0,0,"bg.jpg",0,0
//Break Periods
//Storyboard Layer 0 (Background)
//Storyboard Layer 1 (Fail)
//Storyboard Layer 2 (Pass)
//Storyboard Layer 3 (Foreground)
//Storyboard Sound Samples

[TimingPoints]
155,444.444444444444,4,1,0,60,1,0
42821,375,4,1,0,60,1,0
54821,-80,4,1,0,60,0,1
66821,417.246175243394,4,1,0,60,1,0
66821,-72,4,1,0,60,0,0
67029,-72,4,1,0,20,0,0
68490,-83.3333333333333,4,1,0,20,0,0
70050,-90.9090909090909,4,1,0,60,0,0
70158,375,4,1,0,60,1,0

[HitObjects]
256,192,155,5,0,0:0:0:0:
256,192,377,1,2,0:0:0:0:
256,192,599,1,2,0:0:0:0:
256,192,710,1,2,0:0:0:0:
256,192,1043,1,0,0:0:0:0:
256,192,1266,1,0,0:0:0:0:
256,192,1488,1,2,0:0:0:0:
256,192,1932,1,0,0:0:0:0:
256,192,2154,1,2,0:0:0:0:
256,192,2377,1,2,0:0:0:0:
256,192,2488,1,2,0:0:0:0:
256,192,2821,1,0,0:0:0:0:
256,192,3043,1,0,0:0:0:0:
256,192,3266,1,2,0:0:0:0:
256,192,3710,1,0,0:0:0:0:
256,192,3932,1,2,0:0:0:0:
256,192,4154,1,2,0:0:0:0:
256,192,4266,1,2,0:0:0:0:
256,192,4377,1,2,0:0:0:0:
256,192,4599,1,0,0:0:0:0:
256,192,4821,1,0,0:0:0:0:
256,192,5043,1,2,0:0:0:0:
256,192,5488,1,0,0:0:0:0:
256,192,5710,1,2,0:0:0:0:
256,192,5932,1,2,0:0:0:0:
256,192,6043,1,2,0:0:0:0:
256,192,6154,1,2,0:0:0:0:
256,192,6377,1,0,0:0:0:0:
256,192,6710,1,2,0:0:0:0:
256,192,6932,1,2,0:0:0:0:
256,192,7043,1,0,0:0:0:0:
256,192,7266,1,0,0:0:0:0:
256,192,7488,1,2,0:0:0:0:
256,192,7710,1,2,0:0:0:0:
256,192,7821,1,2,0:0:0:0:
256,192,8154,1,0,0:0:0:0:
256,192,8377,1,0,0:0:0:0:
256,192,8599,1,2,0:0:0:0:
256,192,9043,1,0,0:0:0:0:
256,192,9266,1,2,0:0:0:0:
256,192,9488,1,2,0:0:0:0:
256,192,9599,1,2,0:0:0:0:
256,192,9932,1,0,0:0:0:0:
256,192,10154,1,0,0:0:0:0:
256,192,10377,1,2,0:0:0:0:
256,192,10821,1,0,0:0:0:0:
256,192,11043,1,2,0:0:0:0:
256,192,11266,1,2,0:0:0:0:
256,192,11377,1,2,0:0:0:0:
256,192,11488,1,2,0:0:0:0:
256,192,11710,1,0,0:0:0:0:
256,192,11932,1,0,0:0:0:0:
256,192,12154,1,2,0:0:0:0:
256,192,12599,1,0,0:0:0:0:
256,192,12821,1,2,0:0:0:0:
256,192,13043,1,2,0:0:0:0:
256,192,13154,1,2,0:0:0:0:
256,192,13266,1,2,0:0:0:0:
256,192,13488,1,0,0:0:0:0:
256,192,13710,1,0,0:0:0:0:
256,192,13932,1,2,0:0:0:0:
256,192,14377,1,4,0:0:0:0:
256,192,14821,1,2,0:0:0:0:
256,192,15043,1,2,0:0:0:0:
256,192,15266,1,0,0:0:0:0:
256,192,15377,1,0,0:0:0:0:
256,192,15488,1,0,0:0:0:0:
256,192,15710,1,2,0:0:0:0:
256,192,15932,1,2,0:0:0:0:
256,192,16154,1,0,0:0:0:0:
256,192,16599,1,2,0:0:0:0:
256,192,16821,1,0,0:0:0:0:
256,192,17043,1,2,0:0:0:0:
256,192,17154,1,2,0:0:0:0:
256,192,17266,1,2,0:0:0:0:
256,192,17488,1,0,0:0:0:0:
256,192,17710,1,2,0:0:0:0:
256,192,17932,1,0,0:0:0:0:
256,192,18377,1,0,0:0:0:0:
256,192,18599,1,2,0:0:0:0:
256,192,18821,1,0,0:0:0:0:
256,192,18932,1,0,0:0:0:0:
256,192,19043,1,0,0:0:0:0:
256,192,19266,1,2,0:0:0:0:
256,192,19488,1,2,0:0:0:0:
256,192,19710,1,0,0:0:0:0:
256,192,20154,1,2,0:0:0:0:
256,192,20377,1,2,0:0:0:0:
256,192,20821,1,2,0:0:0:0:
256,192,21043,1,2,0:0:0:0:
256,192,21154,1,2,0:0:0:0:
256,192,21266,1,2,0:0:0:0:
256,192,21488,5,0,0:0:0:0:
256,192,21932,1,2,0:0:0:0:
256,192,22154,1,2,0:0:0:0:
256,192,22377,1,0,0:0:0:0:
256,192,22488,1,0,0:0:0:0:
256,192,22599,1,0,0:0:0:0:
256,192,22821,1,2,0:0:0:0:
256,192,23043,1,2,0:0:0:0:
256,192,23265,1,0,0:0:0:0:
256,192,23710,1,2,0:0:0:0:
256,192,23932,1,0,0:0:0:0:
256,192,24154,1,2,0:0:0:0:
256,192,24265,1,2,0:0:0:0:
256,192,24377,1,2,0:0:0:0:
256,192,24599,1,0,0:0:0:0:
256,192,24821,1,2,0:0:0:0:
256,192,25043,1,0,0:0:0:0:
256,192,25488,1,0,0:0:0:0:
256,192,25710,1,2,0:0:0:0:
256,192,25932,1,0,0:0:0:0:
256,192,26043,1,0,0:0:0:0:
256,192,26154,1,0,0:0:0:0:
256,192,26377,1,2,0:0:0:0:
256,192,26599,1,2,0:0:0:0:
256,192,26821,1,0,0:0:0:0:
256,192,27266,1,2,0:0:0:0:
256,192,27488,1,2,0:0:0:0:
256,192,27932,1,2,0:0:0:0:
256,192,28154,1,2,0:0:0:0:
256,192,28266,1,2,0:0:0:0:
256,192,28377,1,2,0:0:0:0:
256,192,28599,1,4,0:0:0:0:
256,192,29043,1,2,0:0:0:0:
256,192,29266,1,0,0:0:0:0:
256,192,29488,1,2,0:0:0:0:
256,192,29710,1,0,0:0:0:0:
256,192,29821,1,0,0:0:0:0:
256,192,29932,1,2,0:0:0:0:
256,192,30154,1,2,0:0:0:0:
256,192,30377,1,0,0:0:0:0:
256,192,30821,1,2,0:0:0:0:
256,192,31043,1,0,0:0:0:0:
256,192,31266,1,2,0:0:0:0:
256,192,31377,1,2,0:0:0:0:
256,192,31488,1,0,0:0:0:0:
256,192,31710,1,2,0:0:0:0:
256,192,32154,1,0,0:0:0:0:
256,192,32599,1,2,0:0:0:0:
256,192,32821,1,0,0:0:0:0:
256,192,33043,1,2,0:0:0:0:
256,192,33266,1,0,0:0:0:0:
256,192,33377,1,0,0:0:0:0:
256,192,33488,1,2,0:0:0:0:
256,192,33710,1,2,0:0:0:0:
256,192,33932,1,0,0:0:0:0:
256,192,34377,1,2,0:0:0:0:
256,192,34599,1,0,0:0:0:0:
256,192,34821,1,2,0:0:0:0:
256,192,35266,1,2,0:0:0:0:
256,192,35488,1,2,0:0:0:0:
256,192,35710,1,4,0:0:0:0:
256,192,36154,1,2,0:0:0:0:
256,192,36377,1,0,0:0:0:0:
256,192,36599,1,2,0:0:0:0:
256,192,36821,1,0,0:0:0:0:
256,192,36932,1,0,0:0:0:0:
256,192,37043,1,2,0:0:0:0:
256,192,37266,1,2,0:0:0:0:
256,192,37488,1,0,0:0:0:0:
256,192,37932,1,2,0:0:0:0:
256,192,38154,1,0,0:0:0:0:
256,192,38377,1,2,0:0:0:0:
256,192,38488,1,2,0:0:0:0:
256,192,38599,1,0,0:0:0:0:
256,192,38821,1,2,0:0:0:0:
256,192,39266,1,0,0:0:0:0:
256,192,39710,1,2,0:0:0:0:
256,192,39932,1,0,0:0:0:0:
256,192,40154,1,2,0:0:0:0:
256,192,40377,1,0,0:0:0:0:
256,192,40488,1,0,0:0:0:0:
256,192,40599,1,2,0:0:0:0:
256,192,40821,1,2,0:0:0:0:
14,145,41043,2,0,L|452:67,1,420
256,192,42821,5,4,0:0:0:0:
256,192,43008,1,2,0:0:0:0:
256,192,43196,1,0,0:0:0:0:
256,192,43289,1,0,0:0:0:0:
256,192,43571,1,0,0:0:0:0:
256,192,43758,1,2,0:0:0:0:
256,192,43852,1,2,0:0:0:0:
256,192,43946,1,0,0:0:0:0:
256,192,44321,1,0,0:0:0:0:
256,192,44508,1,2,0:0:0:0:
256,192,44696,1,0,0:0:0:0:
256,192,44789,1,2,0:0:0:0:
256,192,45071,1,0,0:0:0:0:
256,192,45258,1,2,0:0:0:0:
256,192,45446,1,2,0:0:0:0:
256,192,45821,1,0,0:0:0:0:
256,192,46008,1,0,0:0:0:0:
256,192,46102,1,0,0:0:0:0:
256,192,46196,1,0,0:0:0:0:
256,192,46383,1,2,0:0:0:0:
256,192,46571,1,0,0:0:0:0:
256,192,46758,1,2,0:0:0:0:
256,192,46852,1,2,0:0:0:0:
256,192,46946,1,2,0:0:0:0:
256,192,47133,1,2,0:0:0:0:
256,192,47321,1,0,0:0:0:0:
256,192,47696,1,2,0:0:0:0:
256,192,47789,1,2,0:0:0:0:
256,192,47883,1,2,0:0:0:0:
256,192,48071,1,0,0:0:0:0:
256,192,48164,1,2,0:0:0:0:
256,192,48352,1,2,0:0:0:0:
256,192,48539,1,2,0:0:0:0:
256,192,48633,1,2,0:0:0:0:
256,192,48821,1,4,0:0:0:0:
256,192,49196,1,2,0:0:0:0:
256,192,49289,1,2,0:0:0:0:
256,192,49383,1,2,0:0:0:0:
256,192,49571,1,0,0:0:0:0:
256,192,49758,1,0,0:0:0:0:
256,192,49946,1,2,0:0:0:0:
256,192,50321,1,0,0:0:0:0:
256,192,50696,1,2,0:0:0:0:
256,192,50789,1,2,0:0:0:0:
256,192,50883,1,2,0:0:0:0:
256,192,51071,1,0,0:0:0:0:
256,192,51258,1,2,0:0:0:0:
256,192,51446,1,2,0:0:0:0:
256,192,51821,1,0,0:0:0:0:
256,192,52008,1,2,0:0:0:0:
256,192,52196,1,0,0:0:0:0:
256,192,52383,1,2,0:0:0:0:
256,192,52571,1,0,0:0:0:0:
256,192,52664,1,0,0:0:0:0:
256,192,52758,1,0,0:0:0:0:
256,192,52946,1,0,0:0:0:0:
256,192,53133,1,0,0:0:0:0:
256,192,53321,1,0,0:0:0:0:
256,192,53696,1,2,0:0:0:0:
256,192,53789,1,2,0:0:0:0:
256,192,53883,1,2,0:0:0:0:
256,192,54071,1,0,0:0:0:0:
256,192,54258,1,2,0:0:0:0:
256,192,54446,1,2,0:0:0:0:
256,192,54539,1,2,0:0:0:0:
256,192,54633,1,2,0:0:0:0:
256,192,54821,5,4,0:0:0:0:
256,192,55196,1,2,0:0:0:0:
256,192,55571,1,2,0:0:0:0:
256,192,55758,1,0,0:0:0:0:
256,192,55946,1,2,0:0:0:0:
256,192,56321,1,0,0:0:0:0:
256,192,56508,1,2,0:0:0:0:
256,192,56696,1,0,0:0:0:0:
256,192,56789,1,2,0:0:0:0:
256,192,57071,1,0,0:0:0:0:
256,192,57164,1,0,0:0:0:0:
256,192,57258,1,0,0:0:0:0:
256,192,57446,1,2,0:0:0:0:
256,192,57821,1,0,0:0:0:0:
256,192,58196,1,2,0:0:0:0:
256,192,58571,1,2,0:0:0:0:
256,192,58664,1,2,0:0:0:0:
256,192,58758,1,0,0:0:0:0:
256,192,58946,1,2,0:0:0:0:
256,192,59321,1,0,0:0:0:0:
256,192,59508,1,2,0:0:0:0:
256,192,59602,1,2,0:0:0:0:
256,192,59696,1,2,0:0:0:0:
256,192,59883,1,0,0:0:0:0:
256,192,60071,1,2,0:0:0:0:
256,192,60258,1,0,0:0:0:0:
256,192,60446,1,2,0:0:0:0:
256,192,60539,1,2,0:0:0:0:
256,192,60633,1,2,0:0:0:0:
256,192,60821,1,4,0:0:0:0:
256,192,61196,1,2,0:0:0:0:
256,192,61571,1,2,0:0:0:0:
256,192,61664,1,2,0:0:0:0:
256,192,61758,1,0,0:0:0:0:
256,192,61946,1,2,0:0:0:0:
256,192,62321,1,0,0:0:0:0:
256,192,62696,1,2,0:0:0:0:
256,192,62883,1,0,0:0:0:0:
256,192,63071,1,0,0:0:0:0:
256,192,63164,1,0,0:0:0:0:
256,192,63258,1,0,0:0:0:0:
256,192,63446,1,2,0:0:0:0:
256,192,63821,1,0,0:0:0:0:
256,192,63914,1,0,0:0:0:0:
256,192,64008,1,0,0:0:0:0:
256,192,64196,1,2,0:0:0:0:
256,192,64383,1,2,0:0:0:0:
256,192,64571,1,0,0:0:0:0:
256,192,64758,1,0,0:0:0:0:
256,192,64946,1,2,0:0:0:0:
256,192,65039,1,2,0:0:0:0:
256,192,65133,1,2,0:0:0:0:
256,192,65321,1,0,0:0:0:0:
256,192,65508,1,2,0:0:0:0:
256,192,65696,1,2,0:0:0:0:
256,192,65789,1,2,0:0:0:0:
256,192,66071,1,0,0:0:0:0:
256,192,66258,1,2,0:0:0:0:
256,192,66446,1,2,0:0:0:0:
256,192,66539,1,2,0:0:0:0:
256,192,66633,1,0,0:0:0:0:
256,192,66821,1,4,0:0:0:0:
256,192,67029,12,0,69950,0:0:0:0:
256,192,70158,5,0,0:0:0:0:
256,192,70345,1,0,0:0:0:0:
256,192,70439,1,0,0:0:0:0:
256,192,70533,1,2,0:0:0:0:
256,192,70908,1,0,0:0:0:0:
256,192,71001,1,0,0:0:0:0:
256,192,71095,1,0,0:0:0:0:
256,192,71283,1,2,0:0:0:0:
256,192,71470,1,0,0:0:0:0:
256,192,71658,1,0,0:0:0:0:
256,192,71845,1,2,0:0:0:0:
256,192,72033,1,0,0:0:0:0:
256,192,72126,1,2,0:0:0:0:
256,192,72408,1,0,0:0:0:0:
256,192,72595,1,2,0:0:0:0:
256,192,72689,1,2,0:0:0:0:
256,192,72783,1,2,0:0:0:0:
256,192,73158,1,0,0:0:0:0:
256,192,73345,1,0,0:0:0:0:
256,192,73533,1,2,0:0:0:0:
256,192,73626,1,2,0:0:0:0:
256,192,73720,1,2,0:0:0:0:
256,192,73908,1,0,0:0:0:0:
256,192,74001,1,0,0:0:0:0:
256,192,74095,1,0,0:0:0:0:
256,192,74283,1,2,0:0:0:0:
256,192,74470,1,0,0:0:0:0:
256,192,74658,1,0,0:0:0:0:
256,192,75033,1,0,0:0:0:0:
256,192,75126,1,0,0:0:0:0:
256,192,75220,1,0,0:0:0:0:
256,192,75408,1,0,0:0:0:0:
256,192,75595,1,0,0:0:0:0:
256,192,75783,1,2,0:0:0:0:
256,192,76158,1,0,0:0:0:0:
256,192,76345,1,2,0:0:0:0:
256,192,76439,1,2,0:0:0:0:
256,192,76533,1,0,0:0:0:0:
256,192,76908,1,0,0:0:0:0:
256,192,77001,1,0,0:0:0:0:
256,192,77095,1,0,0:0:0:0:
256,192,77283,1,2,0:0:0:0:
256,192,77470,1,2,0:0:0:0:
256,192,77658,1,0,0:0:0:0:
256,192,78033,1,0,0:0:0:0:
256,192,78220,1,2,0:0:0:0:
256,192,78408,1,0,0:0:0:0:
256,192,78595,1,0,0:0:0:0:
256,192,78783,1,2,0:0:0:0:
256,192,78876,1,2,0:0:0:0:
256,192,78970,1,2,0:0:0:0:
256,192,79158,1,0,0:0:0:0:
256,192,79533,1,2,0:0:0:0:
256,192,79720,1,2,0:0:0:0:
256,192,79908,1,0,0:0:0:0:
256,192,80001,1,0,0:0:0:0:
256,192,80095,1,0,0:0:0:0:
256,192,80283,1,2,0:0:0:0:
256,192,80470,1,0,0:0:0:0:
256,192,80658,1,0,0:0:0:0:
256,192,81033,1,2,0:0:0:0:
256,192,81220,1,2,0:0:0:0:
256,192,81408,1,0,0:0:0:0:
256,192,81595,1,2,0:0:0:0:
256,192,81689,1,2,0:0:0:0:
256,192,81783,1,2,0:0:0:0:
256,192,82158,1,0,0:0:0:0:
256,192,82322,1,2,0:0:0:0:
256,192,82790,1,0,0:0:0:0:
256,192,83001,1,2,0:0:0:0:
256,192,83470,1,6,0:0:0:0:
256,192,84126,1,2,0:0:0:0:
256,192,84431,1,4,0:0:0:0:
256,192,85368,1,6,0:0:0:0:
256,192,86072,1,6,0:0:0:0:
