osu file format v14

[General]
AudioFilename: audio.mp3
AudioLeadIn: 0
PreviewTime: 25073
Countdown: 1
SampleSet: Soft
StackLeniency: 0.7
Mode: 3
LetterboxInBreaks: 0
SpecialStyle: 0
WidescreenStoryboard: 0

[Editor]
DistanceSpacing: 1.2
BeatDivisor: 4
GridSize: 4
TimelineZoom: 1.1

[Metadata]
Title:Coinage
TitleUnicode:Coinage
Artist:The Flashbulb
ArtistUnicode:The Flashbulb
Creator:Tidek
Version:Confusion
Source:
Tags:SV
BeatmapID:1212126
BeatmapSetID:572000

[Difficulty]
HPDrainRate:7
CircleSize:4
OverallDifficulty:9
ApproachRate:5
SliderMultiplier:1.4
SliderTickRate:1

[Events]
//Background and Video events
0,0,"coinaage.png",0,0
//Break Periods
2,101393,106165
//Storyboard Layer 0 (Background)
//Storyboard Layer 1 (Fail)
//Storyboard Layer 2 (Pass)
//Storyboard Layer 3 (Foreground)
//Storyboard Sound Samples

[TimingPoints]
3129,457.177689728741,3,2,0,15,1,0
3129,-200,3,2,0,15,0,0
3300,-50,3,2,0,15,0,0
3357,-200,3,2,0,15,0,0
3500,-50,3,2,0,15,0,0
3557,-200,3,2,0,15,0,0
3614,-50,3,2,0,15,0,0
3643,-100,3,2,0,15,0,0
3814,-33.3333333333333,3,2,0,30,0,0
3929,-400,3,2,0,30,0,0
4043,-303.030303030303,3,2,0,30,0,0
4157,-238.095238095238,3,2,0,30,0,0
4271,-200,3,2,0,30,0,0
4386,-169.491525423729,3,2,0,30,0,0
4500,-149.253731343284,3,2,0,30,0,0
4614,-131.578947368421,3,2,0,30,0,0
4729,-119.047619047619,3,2,0,30,0,0
4843,-108.695652173913,3,2,0,30,0,0
4957,-100,3,2,0,30,0,0
5186,-33.3333333333333,3,2,0,30,0,0
5300,-400,3,2,0,30,0,0
5414,-303.030303030303,3,2,0,30,0,0
5529,-238.095238095238,3,2,0,30,0,0
5643,-200,3,2,0,30,0,0
5757,-169.491525423729,3,2,0,30,0,0
5872,-149.253731343284,3,2,0,30,0,0
5986,-131.578947368421,3,2,0,30,0,0
6100,-119.047619047619,3,2,0,30,0,0
6214,-108.695652173913,3,2,0,30,0,0
6329,-100,3,2,0,30,0,0
6557,-33.3333333333333,3,2,0,30,0,0
6672,-400,3,2,0,30,0,0
6786,-303.030303030303,3,2,0,30,0,0
6900,-238.095238095238,3,2,0,30,0,0
7014,-200,3,2,0,30,0,0
7129,-169.491525423729,3,2,0,30,0,0
7243,-149.253731343284,3,2,0,30,0,0
7357,-131.578947368421,3,2,0,30,0,0
7472,-119.047619047619,3,2,0,30,0,0
7586,-108.695652173913,3,2,0,30,0,0
7700,-100,3,2,0,30,0,0
7757,-133.333333333333,3,2,0,30,0,0
7815,-200,3,2,0,30,0,0
7872,-400,3,2,0,30,0,0
7929,-33.3333333333333,3,2,0,30,0,0
8043,-400,3,2,0,30,0,0
8157,-303.030303030303,3,2,0,30,0,0
8272,-238.095238095238,3,2,0,30,0,0
8386,-200,3,2,0,30,0,0
8500,-169.491525423729,3,2,0,30,0,0
8615,-149.253731343284,3,2,0,30,0,0
8729,-131.578947368421,3,2,0,30,0,0
8843,-119.047619047619,3,2,0,30,0,0
8958,-108.695652173913,3,2,0,30,0,0
9072,-100,3,2,0,30,0,0
9300,-33.3333333333333,3,2,0,30,0,0
9415,-200,3,2,0,30,0,0
9529,-232.558139534884,3,2,0,30,0,0
9643,-277.777777777778,3,2,0,30,0,0
9758,-344.827586206897,3,2,0,30,0,0
9872,-454.545454545455,3,2,0,30,0,0
9986,-149.253731343284,3,2,0,30,0,0
10100,-131.578947368421,3,2,0,30,0,0
10215,-119.047619047619,3,2,0,30,0,0
10329,-108.695652173913,3,2,0,30,0,0
10443,-100,3,2,0,30,0,0
10500,-66.6666666666667,3,2,0,30,0,0
10615,-100,3,2,0,30,0,0
10672,-33.3333333333333,3,2,0,30,0,0
10786,-400,3,2,0,30,0,0
10901,-303.030303030303,3,2,0,30,0,0
11015,-238.095238095238,3,2,0,30,0,0
11129,-200,3,2,0,30,0,0
11243,-169.491525423729,3,2,0,30,0,0
11358,-1000,3,2,0,30,0,0
11472,-131.578947368421,3,2,0,30,0,0
11586,-119.047619047619,3,2,0,30,0,0
11701,-108.695652173913,3,2,0,30,0,0
11815,-100,3,2,0,30,0,0
11872,-66.6666666666667,3,2,0,30,0,0
12043,-33.3333333333333,3,2,0,30,0,0
12158,-400,3,2,0,30,0,0
12272,-303.030303030303,3,2,0,30,0,0
12386,-238.095238095238,3,2,0,30,0,0
12501,-200,3,2,0,30,0,0
12615,-169.491525423729,3,2,0,30,0,0
12729,-20,3,2,0,30,0,0
12844,-131.578947368421,3,2,0,30,0,0
12958,-119.047619047619,3,2,0,30,0,0
13072,-108.695652173913,3,2,0,30,0,0
13186,-100,3,2,0,30,0,0
13415,-20,3,2,0,30,0,0
13529,-1000,3,2,0,30,0,0
13644,-666.666666666667,3,2,0,30,0,0
13758,-526.315789473684,3,2,0,30,0,0
13872,-416.666666666667,3,2,0,30,0,0
13986,-357.142857142857,3,2,0,30,0,0
14101,-303.030303030303,3,2,0,30,0,0
14215,-270.27027027027,3,2,0,30,0,0
14329,-238.095238095238,3,2,0,30,0,0
14444,-217.391304347826,3,2,0,30,0,0
14558,-200,3,2,0,30,0,0
14787,-33.3333333333333,3,2,0,30,0,0
14901,-400,3,2,0,30,0,0
15015,-303.030303030303,3,2,0,30,0,0
15129,-238.095238095238,3,2,0,30,0,0
15244,-200,3,2,0,30,0,0
15358,-169.491525423729,3,2,0,30,0,0
15472,-100,3,2,0,30,0,0
15529,-111.111111111111,3,2,0,30,0,0
15587,-125,3,2,0,30,0,0
15644,-142.857142857143,3,2,0,30,0,0
15701,-166.666666666667,3,2,0,30,0,0
15758,-200,3,2,0,30,0,0
15815,-250,3,2,0,30,0,0
15872,-333.333333333333,3,2,0,30,0,0
15929,-500,3,2,0,30,0,0
15987,-100,3,2,0,30,0,0
16158,-57.1428571428571,3,2,0,30,0,0
16272,-400,3,2,0,30,0,0
16387,-100,3,2,0,30,0,0
16444,-112.359550561798,3,2,0,30,0,0
16501,-129.87012987013,3,2,0,30,0,0
16558,-151.515151515152,3,2,0,30,0,0
16615,-185.185185185185,3,2,0,30,0,0
16672,-232.558139534884,3,2,0,30,0,0
16730,-322.58064516129,3,2,0,30,0,0
16787,-500,3,2,0,30,0,0
16844,-149.253731343284,3,2,0,30,0,0
16958,-131.578947368421,3,2,0,30,0,0
17072,-119.047619047619,3,2,0,30,0,0
17187,-108.695652173913,3,2,0,30,0,0
17301,-100,3,2,0,30,0,0
17358,-111.111111111111,3,2,0,30,0,0
17415,-125,3,2,0,30,0,0
17472,-142.857142857143,3,2,0,30,0,0
17530,-33.3333333333333,3,2,0,30,0,0
17644,-400,3,2,0,30,0,0
17758,-303.030303030303,3,2,0,30,0,0
17872,-238.095238095238,3,2,0,30,0,0
17987,-200,3,2,0,30,0,0
18101,-169.491525423729,3,2,0,30,0,0
18215,-250,3,2,0,30,0,0
18330,-200,3,2,0,30,0,0
18444,-166.666666666667,3,2,0,30,0,0
18558,-142.857142857143,3,2,0,30,0,0
18673,-125,3,2,0,30,0,0
18901,-33.3333333333333,3,2,0,30,0,0
19015,-400,3,2,0,30,0,0
19130,-303.030303030303,3,2,0,30,0,0
19244,-238.095238095238,3,2,0,30,0,0
19358,-200,3,2,0,30,0,0
19473,-169.491525423729,3,2,0,30,0,0
19587,-133.333333333333,3,2,0,30,0,0
19701,-111.111111111111,3,2,0,30,0,0
19815,-95.2380952380952,3,2,0,30,0,0
19930,-83.3333333333333,3,2,0,30,0,0
20044,-74.0740740740741,3,2,0,30,0,0
20101,-100,3,2,0,30,0,0
20273,-33.3333333333333,3,2,0,30,0,0
20387,-400,3,2,0,30,0,0
20501,-303.030303030303,3,2,0,30,0,0
20616,-238.095238095238,3,2,0,30,0,0
20730,-200,3,2,0,30,0,0
20844,-169.491525423729,3,2,0,30,0,0
20958,-588.235294117647,3,2,0,30,0,0
21016,-149.253731343284,3,2,0,30,0,0
21073,-400,3,2,0,30,0,0
21130,-131.578947368421,3,2,0,30,0,0
21187,-303.030303030303,3,2,0,30,0,0
21244,-119.047619047619,3,2,0,30,0,0
21301,-238.095238095238,3,2,0,30,0,0
21358,-108.695652173913,3,2,0,30,0,0
21416,-200,3,2,0,30,0,0
21473,-100,3,2,0,30,0,0
21644,-33.3333333333333,3,2,0,30,0,0
21758,-1000,3,2,0,30,0,0
21873,-769.230769230769,3,2,0,30,0,0
21987,-625,3,2,0,30,0,0
22101,-526.315789473684,3,2,0,30,0,0
22216,-454.545454545455,3,2,0,30,0,0
22330,-149.253731343284,3,2,0,30,0,0
22444,-131.578947368421,3,2,0,30,0,0
22559,-119.047619047619,3,2,0,30,0,0
22673,-108.695652173913,3,2,0,30,0,0
22787,-100,3,2,0,30,0,0
23016,-33.3333333333333,3,2,0,30,0,0
23130,-400,3,2,0,30,0,0
23244,-303.030303030303,3,2,0,30,0,0
23359,-238.095238095238,3,2,0,30,0,0
23473,-200,3,2,0,30,0,0
23587,-169.491525423729,3,2,0,30,0,0
23701,-149.253731343284,3,2,0,30,0,0
23816,-166.666666666667,3,2,0,30,0,0
23930,-200,3,2,0,30,0,0
24044,-250,3,2,0,30,0,0
24159,-333.333333333333,3,2,0,30,0,0
24273,-500,3,2,0,30,0,0
24387,-1000,3,2,0,30,0,0
24502,-400,3,2,0,30,0,0
24616,-250,3,2,0,30,0,0
24730,-181.818181818182,3,2,0,30,0,0
24844,-142.857142857143,3,2,0,30,0,0
24959,-117.647058823529,3,2,0,30,0,0
25073,-200,3,2,0,30,0,0
25330,-50,3,2,0,30,0,0
25416,-200,3,2,0,30,0,0
25502,-50,3,2,0,30,0,0
25530,-100,3,2,0,30,0,0
25759,-33.3333333333333,3,2,0,30,0,0
25873,-1000,3,2,0,30,0,0
25987,-100,3,2,0,30,0,0
26102,-400,3,2,0,30,0,0
26216,-303.030303030303,3,2,0,30,0,0
26330,-238.095238095238,3,2,0,30,0,0
26445,-200,3,2,0,30,0,0
26559,-169.491525423729,3,2,0,30,0,0
26673,-149.253731343284,3,2,0,30,0,0
26787,-131.578947368421,3,2,0,30,0,0
26902,-119.047619047619,3,2,0,30,0,0
27130,-33.3333333333333,3,2,0,30,0,0
27245,-400,3,2,0,30,0,0
27359,-303.030303030303,3,2,0,30,0,0
27473,-238.095238095238,3,2,0,30,0,0
27588,-200,3,2,0,30,0,0
27702,-169.491525423729,3,2,0,30,0,0
27816,-149.253731343284,3,2,0,30,0,0
27930,-131.578947368421,3,2,0,30,0,0
28045,-119.047619047619,3,2,0,30,0,0
28159,-108.695652173913,3,2,0,30,0,0
28273,-100,3,2,0,30,0,0
28502,-33.3333333333333,3,2,0,30,0,0
28616,-400,3,2,0,30,0,0
28730,-303.030303030303,3,2,0,30,0,0
28845,-238.095238095238,3,2,0,30,0,0
28959,-200,3,2,0,30,0,0
29073,-169.491525423729,3,2,0,30,0,0
29188,-149.253731343284,3,2,0,30,0,0
29302,-131.578947368421,3,2,0,30,0,0
29416,-119.047619047619,3,2,0,30,0,0
29531,-108.695652173913,3,2,0,30,0,0
29645,-100,3,2,0,30,0,0
29873,-20,3,2,0,30,0,0
29988,-1000,3,2,0,30,0,0
30102,-833.333333333333,3,2,0,30,0,0
30216,-714.285714285714,3,2,0,30,0,0
30331,-666.666666666667,3,2,0,30,0,0
30445,-588.235294117647,3,2,0,30,0,0
30559,-526.315789473684,3,2,0,30,0,0
30673,-500,3,2,0,30,0,0
30788,-454.545454545455,3,2,0,30,0,0
30902,-416.666666666667,3,2,0,30,0,0
31016,-400,3,2,0,30,0,0
31131,-370.37037037037,3,2,0,30,0,0
31245,-344.827586206897,3,2,0,30,0,0
31359,-333.333333333333,3,2,0,30,0,0
31474,-312.5,3,2,0,30,0,0
31588,-294.117647058824,3,2,0,30,0,0
31702,-285.714285714286,3,2,0,30,0,0
31816,-270.27027027027,3,2,0,30,0,0
31931,-256.410256410256,3,2,0,30,0,0
32045,-250,3,2,0,30,0,0
32159,-238.095238095238,3,2,0,30,0,0
32274,-227.272727272727,3,2,0,30,0,0
32388,-217.391304347826,3,2,0,30,0,0
32445,-277.777777777778,3,2,0,30,0,0
32502,-384.615384615385,3,2,0,30,0,0
32559,-625,3,2,0,30,0,0
32616,-33.3333333333333,3,2,0,30,0,0
32731,-400,3,2,0,30,0,0
32845,-303.030303030303,3,2,0,30,0,0
32959,-238.095238095238,3,2,0,30,0,0
33074,-200,3,2,0,30,0,0
33188,-169.491525423729,3,2,0,30,0,0
33302,-149.253731343284,3,2,0,30,0,0
33417,-131.578947368421,3,2,0,30,0,0
33531,-119.047619047619,3,2,0,30,0,0
33645,-108.695652173913,3,2,0,30,0,0
33759,-100,3,2,0,30,0,0
33988,-33.3333333333333,3,2,0,30,0,0
34102,-400,3,2,0,30,0,0
34217,-303.030303030303,3,2,0,30,0,0
34331,-238.095238095238,3,2,0,30,0,0
34445,-200,3,2,0,30,0,0
34559,-169.491525423729,3,2,0,30,0,0
34674,-149.253731343284,3,2,0,30,0,0
34731,-1000,3,2,0,30,0,0
34788,-131.578947368421,3,2,0,30,0,0
34845,-1000,3,2,0,30,0,0
34902,-119.047619047619,3,2,0,30,0,0
35017,-108.695652173913,3,2,0,30,0,0
35131,-100,3,2,0,30,0,0
35360,-33.3333333333333,3,2,0,30,0,0
35474,-400,3,2,0,30,0,0
35588,-303.030303030303,3,2,0,30,0,0
35702,-238.095238095238,3,2,0,30,0,0
35817,-200,3,2,0,30,0,0
35931,-169.491525423729,3,2,0,30,0,0
36045,-149.253731343284,3,2,0,30,0,0
36160,-131.578947368421,3,2,0,30,0,0
36274,-119.047619047619,3,2,0,30,0,0
36302,-75.187969924812,3,2,0,30,0,0
36388,-200,3,2,0,30,0,0
36474,-50,3,2,0,30,0,0
36502,-100,3,2,0,30,0,0
36731,-33.3333333333333,3,2,0,30,0,0
36845,-1000,3,2,0,30,0,0
36960,-100,3,2,0,30,0,0
37074,-400,3,2,0,30,0,0
37188,-303.030303030303,3,2,0,30,0,0
37303,-238.095238095238,3,2,0,30,0,0
37417,-200,3,2,0,30,0,0
37531,-169.491525423729,3,2,0,30,0,0
37645,-149.253731343284,3,2,0,30,0,0
37760,-131.578947368421,3,2,0,30,0,0
37874,-119.047619047619,3,2,0,30,0,0
38103,-33.3333333333333,3,2,0,30,0,0
38217,-400,3,2,0,30,0,0
38331,-303.030303030303,3,2,0,30,0,0
38445,-238.095238095238,3,2,0,30,0,0
38560,-200,3,2,0,30,0,0
38674,-169.491525423729,3,2,0,30,0,0
38788,-1000,3,2,0,30,0,0
38903,-131.578947368421,3,2,0,30,0,0
39017,-119.047619047619,3,2,0,30,0,0
39131,-108.695652173913,3,2,0,30,0,0
39246,-100,3,2,0,30,0,0
39474,-33.3333333333333,3,2,0,30,0,0
39588,-400,3,2,0,30,0,0
39703,-303.030303030303,3,2,0,30,0,0
39817,-238.095238095238,3,2,0,30,0,0
39931,-200,3,2,0,30,0,0
40046,-169.491525423729,3,2,0,30,0,0
40160,-149.253731343284,3,2,0,30,0,0
40274,-131.578947368421,3,2,0,30,0,0
40388,-119.047619047619,3,2,0,30,0,0
40503,-108.695652173913,3,2,0,30,0,0
40617,-100,3,2,0,30,0,0
40846,-20,3,2,0,30,0,0
40960,-1000,3,2,0,30,0,0
41074,-666.666666666667,3,2,0,30,0,0
41189,-526.315789473684,3,2,0,30,0,0
41303,-416.666666666667,3,2,0,30,0,0
41417,-357.142857142857,3,2,0,30,0,0
41531,-303.030303030303,3,2,0,30,0,0
41646,-270.27027027027,3,2,0,30,0,0
41760,-238.095238095238,3,2,0,30,0,0
41874,-217.391304347826,3,2,0,30,0,0
41989,-200,3,2,0,30,0,0
42217,-63.2911392405063,3,2,0,30,0,0
42303,-238.095238095238,3,2,0,30,0,0
42674,-200,3,2,0,30,0,0
42789,-169.491525423729,3,2,0,30,0,0
42903,-149.253731343284,3,2,0,30,0,0
43017,-131.578947368421,3,2,0,30,0,0
43074,-43.4782608695652,3,2,0,30,0,0
43132,-1000,3,2,0,30,0,0
43189,-43.4782608695652,3,2,0,30,0,0
43246,-1000,3,2,0,30,0,0
43303,-43.4782608695652,3,2,0,30,0,0
43360,-1000,3,2,0,30,0,0
43417,-100,3,2,0,30,0,0
43589,-33.3333333333333,3,2,0,30,0,0
43703,-400,3,2,0,30,0,0
43817,-303.030303030303,3,2,0,30,0,0
43932,-238.095238095238,3,2,0,30,0,0
44046,-200,3,2,0,30,0,0
44160,-169.491525423729,3,2,0,30,0,0
44274,-149.253731343284,3,2,0,30,0,0
44389,-131.578947368421,3,2,0,30,0,0
44446,-1000,3,2,0,30,0,0
44503,-119.047619047619,3,2,0,30,0,0
44617,-1000,3,2,0,30,0,0
44675,-108.695652173913,3,2,0,30,0,0
44732,-100,3,2,0,30,0,0
44846,-1000,3,2,0,30,0,0
44903,-100,3,2,0,30,0,0
44960,-33.3333333333333,3,2,0,30,0,0
45075,-400,3,2,0,30,0,0
45189,-303.030303030303,3,2,0,30,0,0
45246,-1000,3,2,0,30,0,0
45303,-238.095238095238,3,2,0,30,0,0
45417,-1000,3,2,0,30,0,0
45475,-200,3,2,0,30,0,0
45532,-169.491525423729,3,2,0,30,0,0
45646,-1000,3,2,0,30,0,0
45703,-149.253731343284,3,2,0,30,0,0
45760,-131.578947368421,3,2,0,30,0,0
45817,-1000,3,2,0,30,0,0
45875,-119.047619047619,3,2,0,30,0,0
45989,-108.695652173913,3,2,0,30,0,0
46046,-1000,3,2,0,30,0,0
46103,-100,3,2,0,30,0,0
46217,-1000,3,2,0,30,0,0
46275,-100,3,2,0,30,0,0
46332,-20,3,2,0,30,0,0
46446,-1000,3,2,0,30,0,0
46560,-666.666666666667,3,2,0,30,0,0
46675,-526.315789473684,3,2,0,30,0,0
46789,-416.666666666667,3,2,0,30,0,0
46903,-357.142857142857,3,2,0,30,0,0
47018,-303.030303030303,3,2,0,30,0,0
47132,-270.27027027027,3,2,0,30,0,0
47246,-238.095238095238,3,2,0,30,0,0
47275,-79.3650793650794,3,2,0,30,0,0
47360,-200,3,2,0,30,0,0
47446,-50,3,2,0,30,0,0
47475,-100,3,2,0,30,0,0
47703,-33.3333333333333,3,2,0,30,0,0
47818,-400,3,2,0,30,0,0
47932,-100,3,2,0,30,0,0
48046,-400,3,2,0,30,0,0
48161,-303.030303030303,3,2,0,30,0,0
48275,-238.095238095238,3,2,0,30,0,0
48389,-200,3,2,0,30,0,0
48503,-169.491525423729,3,2,0,30,0,0
48618,-149.253731343284,3,2,0,30,0,0
48732,-131.578947368421,3,2,0,30,0,0
48846,-119.047619047619,3,2,0,30,0,0
49075,-33.3333333333333,3,2,0,30,0,0
49189,-400,3,2,0,30,0,0
49303,-303.030303030303,3,2,0,30,0,0
49418,-238.095238095238,3,2,0,30,0,0
49532,-200,3,2,0,30,0,0
49646,-169.491525423729,3,2,0,30,0,0
49761,-149.253731343284,3,2,0,30,0,0
49875,-131.578947368421,3,2,0,30,0,0
49989,-119.047619047619,3,2,0,30,0,0
50104,-108.695652173913,3,2,0,30,0,0
50218,-100,3,2,0,30,0,0
50446,-20,3,2,0,30,0,0
50561,-400,3,2,0,30,0,0
50675,-303.030303030303,3,2,0,30,0,0
50789,-238.095238095238,3,2,0,30,0,0
50904,-200,3,2,0,30,0,0
51018,-169.491525423729,3,2,0,30,0,0
51132,-149.253731343284,3,2,0,30,0,0
51246,-131.578947368421,3,2,0,30,0,0
51361,-119.047619047619,3,2,0,30,0,0
51475,-108.695652173913,3,2,0,30,0,0
51589,-100,3,2,0,30,0,0
51818,-105.263157894737,3,2,0,30,0,0
51932,-111.111111111111,3,2,0,30,0,0
52047,-119.047619047619,3,2,0,30,0,0
52161,-126.582278481013,3,2,0,30,0,0
52275,-135.135135135135,3,2,0,30,0,0
52389,-147.058823529412,3,2,0,30,0,0
52504,-158.730158730159,3,2,0,30,0,0
52618,-172.413793103448,3,2,0,30,0,0
52732,-188.679245283019,3,2,0,30,0,0
52847,-212.765957446809,3,2,0,30,0,0
52961,-238.095238095238,3,2,0,30,0,0
53075,-277.777777777778,3,2,0,30,0,0
53189,-322.58064516129,3,2,0,30,0,0
53304,-400,3,2,0,30,0,0
53418,-500,3,2,0,30,0,0
55247,-10,3,2,0,30,0,0
55475,-400,3,2,0,30,0,0
55761,-100,3,2,0,30,0,0
55933,-33.3333333333333,3,2,0,30,0,0
56047,-400,3,2,0,30,0,0
56161,-303.030303030303,3,2,0,30,0,0
56275,-238.095238095238,3,2,0,30,0,0
56390,-200,3,2,0,30,0,0
56504,-169.491525423729,3,2,0,30,0,0
56618,-149.253731343284,3,2,0,30,0,0
56733,-131.578947368421,3,2,0,30,0,0
56847,-119.047619047619,3,2,0,30,0,0
56961,-108.695652173913,3,2,0,30,0,0
57075,-100,3,2,0,30,0,0
57133,-133.333333333333,3,2,0,30,0,0
57190,-200,3,2,0,30,0,0
57247,-400,3,2,0,30,0,0
57304,-33.3333333333333,3,2,0,30,0,0
57418,-400,3,2,0,30,0,0
57533,-303.030303030303,3,2,0,30,0,0
57647,-238.095238095238,3,2,0,30,0,0
57761,-200,3,2,0,30,0,0
57876,-169.491525423729,3,2,0,30,0,0
57990,-149.253731343284,3,2,0,30,0,0
58104,-131.578947368421,3,2,0,30,0,0
58218,-119.047619047619,3,2,0,30,0,0
58333,-108.695652173913,3,2,0,30,0,0
58447,-100,3,2,0,30,0,0
58504,-133.333333333333,3,2,0,30,0,0
58561,-200,3,2,0,30,0,0
58618,-400,3,2,0,30,0,0
58676,-33.3333333333333,3,2,0,30,0,0
58790,-1000,3,2,0,30,0,0
58904,-769.230769230769,3,2,0,30,0,0
59018,-625,3,2,0,30,0,0
59133,-526.315789473684,3,2,0,30,0,0
59247,-454.545454545455,3,2,0,30,0,0
59361,-20,3,2,0,30,0,0
59476,-131.578947368421,3,2,0,30,0,0
59590,-119.047619047619,3,2,0,30,0,0
59704,-108.695652173913,3,2,0,30,0,0
59819,-100,3,2,0,30,0,0
60047,-33.3333333333333,3,2,0,30,0,0
60161,-400,3,2,0,30,0,0
60276,-303.030303030303,3,2,0,30,0,0
60390,-238.095238095238,3,2,0,30,0,0
60504,-200,3,2,0,30,0,0
60619,-169.491525423729,3,2,0,30,0,0
60733,-74.0740740740741,3,2,0,30,0,0
61247,-100,3,2,0,30,0,0
61419,-50,3,2,0,30,0,0
61504,-500,3,2,0,30,0,0
61762,-454.545454545455,3,2,0,30,0,0
61876,-416.666666666667,3,2,0,30,0,0
61990,-384.615384615385,3,2,0,30,0,0
62104,-357.142857142857,3,2,0,30,0,0
62219,-333.333333333333,3,2,0,30,0,0
62333,-312.5,3,2,0,30,0,0
62447,-294.117647058824,3,2,0,30,0,0
62562,-277.777777777778,3,2,0,30,0,0
62676,-263.157894736842,3,2,0,30,0,0
62790,-250,3,2,0,30,0,0
62904,-238.095238095238,3,2,0,30,0,0
63019,-227.272727272727,3,2,0,30,0,0
63133,-217.391304347826,3,2,0,30,0,0
63247,-208.333333333333,3,2,0,30,0,0
63362,-200,3,2,0,30,0,0
63476,-33.3333333333333,3,2,0,30,0,0
63505,-1000,3,2,0,30,0,0
63590,-33.3333333333333,3,2,0,30,0,0
63619,-1000,3,2,0,30,0,0
63705,-33.3333333333333,3,2,0,30,0,0
63733,-1000,3,2,0,30,0,0
63819,-33.3333333333333,3,2,0,30,0,0
63847,-1000,3,2,0,30,0,0
63933,-33.3333333333333,3,2,0,30,0,0
63962,-1000,3,2,0,30,0,0
64047,-33.3333333333333,3,2,0,30,0,0
64076,-1000,3,2,0,30,0,0
64162,-10,3,2,0,30,0,0
64219,-1000,3,2,0,30,0,0
64276,-33.3333333333333,3,2,0,30,0,0
64305,-1000,3,2,0,30,0,0
64390,-33.3333333333333,3,2,0,30,0,0
64419,-1000,3,2,0,30,0,0
64505,-33.3333333333333,3,2,0,30,0,0
64533,-1000,3,2,0,30,0,0
64619,-33.3333333333333,3,2,0,30,0,0
64647,-1000,3,2,0,30,0,0
64733,-33.3333333333333,3,2,0,30,0,0
64762,-1000,3,2,0,30,0,0
64847,-33.3333333333333,3,2,0,30,0,0
64876,-1000,3,2,0,30,0,0
64962,-33.3333333333333,3,2,0,30,0,0
64990,-1000,3,2,0,30,0,0
65076,-33.3333333333333,3,2,0,30,0,0
65105,-1000,3,2,0,30,0,0
65190,-33.3333333333333,3,2,0,30,0,0
65219,-1000,3,2,0,30,0,0
65305,-33.3333333333333,3,2,0,30,0,0
65333,-1000,3,2,0,30,0,0
65419,-33.3333333333333,3,2,0,30,0,0
65448,-1000,3,2,0,30,0,0
65533,-10,3,2,0,30,0,0
65590,-1000,3,2,0,30,0,0
65648,-33.3333333333333,3,2,0,30,0,0
65676,-1000,3,2,0,30,0,0
65762,-33.3333333333333,3,2,0,30,0,0
65790,-1000,3,2,0,30,0,0
65876,-33.3333333333333,3,2,0,30,0,0
65905,-1000,3,2,0,30,0,0
65990,-33.3333333333333,3,2,0,30,0,0
66019,-1000,3,2,0,30,0,0
66105,-33.3333333333333,3,2,0,30,0,0
66133,-1000,3,2,0,30,0,0
66219,-33.3333333333333,3,2,0,30,0,0
66248,-1000,3,2,0,30,0,0
66333,-33.3333333333333,3,2,0,30,0,0
66362,-1000,3,2,0,30,0,0
66448,-33.3333333333333,3,2,0,30,0,0
66476,-1000,3,2,0,30,0,0
66562,-33.3333333333333,3,2,0,30,0,0
66590,-1000,3,2,0,30,0,0
66676,-33.3333333333333,3,2,0,30,0,0
66705,-1000,3,2,0,30,0,0
66790,-33.3333333333333,3,2,0,30,0,0
66819,-1000,3,2,0,30,0,0
66905,-10,3,2,0,30,0,0
66962,-1000,3,2,0,30,0,0
67019,-33.3333333333333,3,2,0,30,0,0
67048,-1000,3,2,0,30,0,0
67133,-33.3333333333333,3,2,0,30,0,0
67162,-1000,3,2,0,30,0,0
67248,-33.3333333333333,3,2,0,30,0,0
67276,-1000,3,2,0,30,0,0
67362,-33.3333333333333,3,2,0,30,0,0
67391,-1000,3,2,0,30,0,0
67476,-33.3333333333333,3,2,0,30,0,0
67505,-1000,3,2,0,30,0,0
67591,-33.3333333333333,3,2,0,30,0,0
67619,-1000,3,2,0,30,0,0
67705,-33.3333333333333,3,2,0,30,0,0
67733,-1000,3,2,0,30,0,0
67819,-50,3,2,0,30,0,0
67848,-1000,3,2,0,30,0,0
67933,-50,3,2,0,30,0,0
67962,-1000,3,2,0,30,0,0
68048,-50,3,2,0,30,0,0
68076,-1000,3,2,0,30,0,0
68162,-50,3,2,0,30,0,0
68191,-1000,3,2,0,30,0,0
68276,-33.3333333333333,3,2,0,30,0,0
68333,-1000,3,2,0,30,0,0
68391,-66.6666666666667,3,2,0,30,0,0
68419,-1000,3,2,0,30,0,0
68505,-66.6666666666667,3,2,0,30,0,0
68533,-1000,3,2,0,30,0,0
68619,-66.6666666666667,3,2,0,30,0,0
68648,-1000,3,2,0,30,0,0
68733,-66.6666666666667,3,2,0,30,0,0
68762,-1000,3,2,0,30,0,0
68848,-66.6666666666667,3,2,0,30,0,0
68876,-1000,3,2,0,30,0,0
68962,-149.253731343284,3,2,0,30,0,0
69076,-131.578947368421,3,2,0,30,0,0
69191,-119.047619047619,3,2,0,30,0,0
69305,-108.695652173913,3,2,0,30,0,0
69419,-100,3,2,0,30,0,0
69648,-33.3333333333333,3,2,0,30,0,0
69762,-400,3,2,0,30,0,0
69876,-303.030303030303,3,2,0,30,0,0
69991,-238.095238095238,3,2,0,30,0,0
70105,-200,3,2,0,30,0,0
70219,-169.491525423729,3,2,0,30,0,0
70334,-149.253731343284,3,2,0,30,0,0
70448,-131.578947368421,3,2,0,30,0,0
70562,-119.047619047619,3,2,0,30,0,0
70677,-108.695652173913,3,2,0,30,0,0
70791,-100,3,2,0,30,0,0
71019,-33.3333333333333,3,2,0,30,0,0
71134,-400,3,2,0,30,0,0
71248,-303.030303030303,3,2,0,30,0,0
71362,-238.095238095238,3,2,0,30,0,0
71477,-200,3,2,0,30,0,0
71591,-169.491525423729,3,2,0,30,0,0
71705,-149.253731343284,3,2,0,30,0,0
71819,-131.578947368421,3,2,0,30,0,0
71934,-119.047619047619,3,2,0,30,0,0
72048,-108.695652173913,3,2,0,30,0,0
72162,-100,3,2,0,30,0,0
72391,-33.3333333333333,3,2,0,30,0,0
72505,-400,3,2,0,30,0,0
72620,-303.030303030303,3,2,0,30,0,0
72734,-238.095238095238,3,2,0,30,0,0
72848,-200,3,2,0,30,0,0
72962,-169.491525423729,3,2,0,30,0,0
73077,-149.253731343284,3,2,0,30,0,0
73191,-131.578947368421,3,2,0,30,0,0
73305,-119.047619047619,3,2,0,30,0,0
73334,-75.187969924812,3,2,0,30,0,0
73420,-200,3,2,0,30,0,0
73505,-50,3,2,0,30,0,0
73534,-100,3,2,0,30,0,0
73762,-33.3333333333333,3,2,0,30,0,0
73877,-400,3,2,0,30,0,0
73991,-100,3,2,0,30,0,0
74105,-400,3,2,0,30,0,0
74220,-303.030303030303,3,2,0,30,0,0
74334,-238.095238095238,3,2,0,30,0,0
74448,-200,3,2,0,30,0,0
74563,-169.491525423729,3,2,0,30,0,0
74677,-149.253731343284,3,2,0,30,0,0
74791,-131.578947368421,3,2,0,30,0,0
74905,-119.047619047619,3,2,0,30,0,0
75134,-33.3333333333333,3,2,0,30,0,0
75248,-400,3,2,0,30,0,0
75363,-303.030303030303,3,2,0,30,0,0
75477,-238.095238095238,3,2,0,30,0,0
75591,-200,3,2,0,30,0,0
75705,-169.491525423729,3,2,0,30,0,0
75820,-149.253731343284,3,2,0,30,0,0
75934,-131.578947368421,3,2,0,30,0,0
76048,-119.047619047619,3,2,0,30,0,0
76163,-108.695652173913,3,2,0,30,0,0
76277,-100,3,2,0,30,0,0
76334,-133.333333333333,3,2,0,30,0,0
76391,-200,3,2,0,30,0,0
76448,-400,3,2,0,30,0,0
76506,-33.3333333333333,3,2,0,30,0,0
76620,-400,3,2,0,30,0,0
76734,-303.030303030303,3,2,0,30,0,0
76848,-238.095238095238,3,2,0,30,0,0
76963,-200,3,2,0,30,0,0
77077,-169.491525423729,3,2,0,30,0,0
77191,-149.253731343284,3,2,0,30,0,0
77306,-131.578947368421,3,2,0,30,0,0
77420,-119.047619047619,3,2,0,30,0,0
77534,-108.695652173913,3,2,0,30,0,0
77591,-161.290322580645,3,2,0,30,0,0
77648,-312.5,3,2,0,30,0,0
77706,-100,3,2,0,30,0,0
77877,-33.3333333333333,3,2,0,30,0,0
77991,-400,3,2,0,30,0,0
78106,-303.030303030303,3,2,0,30,0,0
78220,-238.095238095238,3,2,0,30,0,0
78334,-200,3,2,0,30,0,0
78449,-169.491525423729,3,2,0,30,0,0
78563,-149.253731343284,3,2,0,30,0,0
78677,-131.578947368421,3,2,0,30,0,0
78791,-119.047619047619,3,2,0,30,0,0
78906,-108.695652173913,3,2,0,30,0,0
79020,-100,3,2,0,30,0,0
79106,-1000,3,2,0,30,0,0
79134,-100,3,2,0,30,0,0
79163,-1000,3,2,0,30,0,0
79191,-100,3,2,0,30,0,0
79220,-1000,3,2,0,30,0,0
79249,-33.3333333333333,3,2,0,30,0,0
79277,-1000,3,2,0,30,0,0
79306,-33.3333333333333,3,2,0,30,0,0
79334,-1000,3,2,0,30,0,0
79363,-400,3,2,0,30,0,0
79391,-1000,3,2,0,30,0,0
79420,-400,3,2,0,30,0,0
79449,-1000,3,2,0,30,0,0
79477,-303.030303030303,3,2,0,30,0,0
79506,-1000,3,2,0,30,0,0
79534,-303.030303030303,3,2,0,30,0,0
79563,-1000,3,2,0,30,0,0
79591,-238.095238095238,3,2,0,30,0,0
79620,-1000,3,2,0,30,0,0
79649,-238.095238095238,3,2,0,30,0,0
79677,-1000,3,2,0,30,0,0
79706,-200,3,2,0,30,0,0
79734,-1000,3,2,0,30,0,0
79763,-200,3,2,0,30,0,0
79791,-1000,3,2,0,30,0,0
79820,-169.491525423729,3,2,0,30,0,0
79849,-1000,3,2,0,30,0,0
79877,-169.491525423729,3,2,0,30,0,0
79906,-1000,3,2,0,30,0,0
79934,-149.253731343284,3,2,0,30,0,0
80049,-131.578947368421,3,2,0,30,0,0
80163,-119.047619047619,3,2,0,30,0,0
80277,-108.695652173913,3,2,0,30,0,0
80392,-100,3,2,0,30,0,0
80620,-20,3,2,0,30,0,0
80734,-1000,3,2,0,30,0,0
80849,-666.666666666667,3,2,0,30,0,0
80963,-526.315789473684,3,2,0,30,0,0
81077,-416.666666666667,3,2,0,30,0,0
81192,-357.142857142857,3,2,0,30,0,0
81306,-303.030303030303,3,2,0,30,0,0
81420,-270.27027027027,3,2,0,30,0,0
81534,-238.095238095238,3,2,0,30,0,0
81649,-217.391304347826,3,2,0,30,0,0
81763,-200,3,2,0,30,0,0
81992,-33.3333333333333,3,2,0,30,0,0
82106,-400,3,2,0,30,0,0
82220,-303.030303030303,3,2,0,30,0,0
82335,-238.095238095238,3,2,0,30,0,0
82449,-200,3,2,0,30,0,0
82563,-169.491525423729,3,2,0,30,0,0
82677,-149.253731343284,3,2,0,30,0,0
82792,-131.578947368421,3,2,0,30,0,0
82906,-119.047619047619,3,2,0,30,0,0
83020,-108.695652173913,3,2,0,30,0,0
83135,-100,3,2,0,30,0,0
83192,-25,3,2,0,30,0,0
83306,-1000,3,2,0,30,0,0
83363,-100,3,2,0,30,0,0
83477,-400,3,2,0,30,0,0
83592,-303.030303030303,3,2,0,30,0,0
83706,-238.095238095238,3,2,0,30,0,0
83820,-200,3,2,0,30,0,0
83935,-169.491525423729,3,2,0,30,0,0
84049,-149.253731343284,3,2,0,30,0,0
84163,-131.578947368421,3,2,0,30,0,0
84278,-119.047619047619,3,2,0,30,0,0
84392,-108.695652173913,3,2,0,30,0,0
84506,-100,3,2,0,30,0,0
84735,-33.3333333333333,3,2,0,30,0,0
84849,-400,3,2,0,30,0,0
84963,-303.030303030303,3,2,0,30,0,0
85078,-238.095238095238,3,2,0,30,0,0
85192,-200,3,2,0,30,0,0
85306,-169.491525423729,3,2,0,30,0,0
85420,-1000,3,2,0,30,0,0
85535,-131.578947368421,3,2,0,30,0,0
85649,-119.047619047619,3,2,0,30,0,0
85763,-108.695652173913,3,2,0,30,0,0
85878,-100,3,2,0,30,0,0
85935,-1000,3,2,0,30,0,0
86049,-100,3,2,0,30,0,0
86106,-33.3333333333333,3,2,0,30,0,0
86221,-400,3,2,0,30,0,0
86335,-303.030303030303,3,2,0,30,0,0
86449,-238.095238095238,3,2,0,30,0,0
86563,-200,3,2,0,30,0,0
86678,-169.491525423729,3,2,0,30,0,0
86792,-1000,3,2,0,30,0,0
86906,-131.578947368421,3,2,0,30,0,0
87021,-119.047619047619,3,2,0,30,0,0
87135,-108.695652173913,3,2,0,30,0,0
87249,-100,3,2,0,30,0,0
87306,-1000,3,2,0,30,0,0
87421,-100,3,2,0,30,0,0
87478,-33.3333333333333,3,2,0,30,0,0
87592,-400,3,2,0,30,0,0
87706,-303.030303030303,3,2,0,30,0,0
87821,-238.095238095238,3,2,0,30,0,0
87935,-200,3,2,0,30,0,0
88049,-169.491525423729,3,2,0,30,0,0
88164,-1000,3,2,0,30,0,0
88278,-263.157894736842,3,2,0,30,0,0
88392,-238.095238095238,3,2,0,30,0,0
88506,-217.391304347826,3,2,0,30,0,0
88621,-200,3,2,0,30,0,0
88678,-1000,3,2,0,30,0,0
88792,-200,3,2,0,30,0,0
88849,-66.6666666666667,3,2,0,30,0,0
88964,-833.333333333333,3,2,0,30,0,0
89078,-625,3,2,0,30,0,0
89192,-476.190476190476,3,2,0,30,0,0
89306,-400,3,2,0,30,0,0
89421,-344.827586206897,3,2,0,30,0,0
89535,-1000,3,2,0,30,0,0
89649,-263.157894736842,3,2,0,30,0,0
89764,-238.095238095238,3,2,0,30,0,0
89878,-217.391304347826,3,2,0,30,0,0
89992,-200,3,2,0,30,0,0
90049,-1000,3,2,0,30,0,0
90164,-200,3,2,0,30,0,0
90221,-66.6666666666667,3,2,0,30,0,0
90335,-833.333333333333,3,2,0,30,0,0
90449,-625,3,2,0,30,0,0
90564,-476.190476190476,3,2,0,30,0,0
90678,-400,3,2,0,30,0,0
90792,-344.827586206897,3,2,0,30,0,0
90907,-285.714285714286,3,2,0,30,0,0
91249,-333.333333333333,3,2,0,30,0,0
91307,-500,3,2,0,30,0,0
91364,-1000,3,2,0,30,0,0
91421,-285.714285714286,3,2,0,30,0,0
91821,-238.095238095238,3,2,0,30,0,0
91935,-200,3,2,0,30,0,0
92050,-169.491525423729,3,2,0,30,0,0
92107,-200,3,2,0,30,0,0
92164,-285.714285714286,3,2,0,30,0,0
92221,-500,3,2,0,30,0,0
92278,-1000,3,2,0,30,0,0
92392,-333.333333333333,3,2,0,30,0,0
92507,-200,3,2,0,30,0,0
92621,-285.714285714286,3,2,0,30,0,0
92678,-500,3,2,0,30,0,0
92735,-1000,3,2,0,30,0,0
92792,-200,3,2,0,30,0,0
92964,-33.3333333333333,3,2,0,30,0,0
93078,-400,3,2,0,30,0,0
93193,-303.030303030303,3,2,0,30,0,0
93307,-238.095238095238,3,2,0,30,0,0
93421,-200,3,2,0,30,0,0
93535,-169.491525423729,3,2,0,30,0,0
93650,-149.253731343284,3,2,0,30,0,0
93764,-131.578947368421,3,2,0,30,0,0
93878,-119.047619047619,3,2,0,30,0,0
93993,-108.695652173913,3,2,0,30,0,0
94107,-100,3,2,0,30,0,0
94335,-33.3333333333333,3,2,0,30,0,0
94450,-400,3,2,0,30,0,0
94564,-303.030303030303,3,2,0,30,0,0
94678,-238.095238095238,3,2,0,30,0,0
94793,-200,3,2,0,30,0,0
94907,-169.491525423729,3,2,0,30,0,0
95021,-149.253731343284,3,2,0,30,0,0
95136,-131.578947368421,3,2,0,30,0,0
95250,-119.047619047619,3,2,0,30,0,0
95364,-108.695652173913,3,2,0,30,0,0
95478,-100,3,2,0,30,0,0
95564,-1000,3,2,0,30,0,0
95593,-100,3,2,0,30,0,0
95621,-1000,3,2,0,30,0,0
95650,-100,3,2,0,30,0,0
95678,-1000,3,2,0,30,0,0
95707,-33.3333333333333,3,2,0,30,0,0
95736,-1000,3,2,0,30,0,0
95764,-33.3333333333333,3,2,0,30,0,0
95793,-1000,3,2,0,30,0,0
95821,-400,3,2,0,30,0,0
95850,-1000,3,2,0,30,0,0
95878,-400,3,2,0,30,0,0
95907,-1000,3,2,0,30,0,0
95936,-303.030303030303,3,2,0,30,0,0
95964,-1000,3,2,0,30,0,0
95993,-303.030303030303,3,2,0,30,0,0
96021,-1000,3,2,0,30,0,0
96050,-238.095238095238,3,2,0,30,0,0
96078,-1000,3,2,0,30,0,0
96107,-238.095238095238,3,2,0,30,0,0
96136,-1000,3,2,0,30,0,0
96164,-200,3,2,0,30,0,0
96193,-1000,3,2,0,30,0,0
96221,-200,3,2,0,30,0,0
96250,-1000,3,2,0,30,0,0
96278,-169.491525423729,3,2,0,30,0,0
96307,-1000,3,2,0,30,0,0
96336,-169.491525423729,3,2,0,30,0,0
96364,-1000,3,2,0,30,0,0
96393,-149.253731343284,3,2,0,30,0,0
96507,-131.578947368421,3,2,0,25,0,0
96621,-119.047619047619,3,2,0,25,0,0
96736,-108.695652173913,3,2,0,25,0,0
96850,-100,3,2,0,25,0,0
97079,-33.3333333333333,3,2,0,25,0,0
97193,-400,3,2,0,25,0,0
97307,-303.030303030303,3,2,0,25,0,0
97421,-238.095238095238,3,2,0,25,0,0
97536,-200,3,2,0,25,0,0
97650,-169.491525423729,3,2,0,25,0,0
97764,-149.253731343284,3,2,0,25,0,0
97879,-120.481927710843,3,2,0,25,0,0
97993,-100,3,2,0,25,0,0
98050,-133.333333333333,3,2,0,25,0,0
98107,-200,3,2,0,25,0,0
98164,-400,3,2,0,25,0,0
98221,-100,3,2,0,25,0,0
98450,-33.3333333333333,3,2,0,25,0,0
98564,-400,3,2,0,25,0,0
98679,-303.030303030303,3,2,0,25,0,0
98793,-238.095238095238,3,2,0,25,0,0
98907,-200,3,2,0,25,0,0
99022,-169.491525423729,3,2,0,25,0,0
99136,-149.253731343284,3,2,0,25,0,0
99250,-131.578947368421,3,2,0,25,0,0
99364,-119.047619047619,3,2,0,25,0,0
99479,-108.695652173913,3,2,0,25,0,0
99593,-100,3,2,0,25,0,0
99822,-33.3333333333333,3,2,0,25,0,0
99936,-400,3,2,0,25,0,0
100050,-303.030303030303,3,2,0,25,0,0
100164,-238.095238095238,3,2,0,25,0,0
100279,-200,3,2,0,25,0,0
100393,-169.491525423729,3,2,0,25,0,0
100507,-149.253731343284,3,2,0,25,0,0
100622,-131.578947368421,3,2,0,25,0,0
100736,-119.047619047619,3,2,0,25,0,0
100850,-108.695652173913,3,2,0,25,0,0
100965,-100,3,2,0,25,0,0
101193,-20,3,2,0,25,0,0
101307,-1000,3,2,0,25,0,0
101422,-833.333333333333,3,2,0,25,0,0
101536,-714.285714285714,3,2,0,25,0,0
101650,-625,3,2,0,25,0,0
101765,-555.555555555556,3,2,0,25,0,0
101879,-500,3,2,0,25,0,0
101993,-476.190476190476,3,2,0,25,0,0
102107,-434.782608695652,3,2,0,25,0,0
102222,-416.666666666667,3,2,0,25,0,0
102336,-384.615384615385,3,2,0,25,0,0
102450,-370.37037037037,3,2,0,25,0,0
102565,-344.827586206897,3,2,0,25,0,0
102679,-333.333333333333,3,2,0,25,0,0
102793,-312.5,3,2,0,25,0,0
102908,-303.030303030303,3,2,0,25,0,0
103022,-285.714285714286,3,2,0,25,0,0
103136,-277.777777777778,3,2,0,25,0,0
103250,-263.157894736842,3,2,0,25,0,0
103365,-256.410256410256,3,2,0,25,0,0
103479,-243.90243902439,3,2,0,25,0,0
103593,-238.095238095238,3,2,0,25,0,0
103708,-227.272727272727,3,2,0,25,0,0
103822,-222.222222222222,3,2,0,25,0,0
103936,-212.765957446809,3,2,0,25,0,0
104050,-208.333333333333,3,2,0,25,0,0
104165,-200,3,2,0,25,0,0
107365,-400,3,2,0,25,0,0
107422,-133.333333333333,3,2,0,25,0,0
107479,-400,3,2,0,25,0,0
107536,-133.333333333333,3,2,0,25,0,0
107594,-400,3,2,0,25,0,0
107651,-133.333333333333,3,2,0,25,0,0
107708,-400,3,2,0,25,0,0
107765,-133.333333333333,3,2,0,25,0,0
107822,-400,3,2,0,25,0,0
107879,-100,3,2,0,25,0,0
108051,-33.3333333333333,3,2,0,25,0,0
108165,-400,3,2,0,25,0,0
108279,-322.58064516129,3,2,0,25,0,0
108394,-270.27027027027,3,2,0,25,0,0
108508,-232.558139534884,3,2,0,25,0,0
108622,-204.081632653061,3,2,0,25,0,0
108737,-185.185185185185,3,2,0,25,0,0
108851,-166.666666666667,3,2,0,25,0,0
108965,-151.515151515152,3,2,0,25,0,0
109079,-138.888888888889,3,2,0,25,0,0
109194,-128.205128205128,3,2,0,25,0,0
109308,-119.047619047619,3,2,0,25,0,0
109422,-111.111111111111,3,2,0,25,0,0
109537,-105.263157894737,3,2,0,25,0,0
109651,-100,3,2,0,25,0,0
111708,-400,3,2,0,25,0,0
112794,-200,3,2,0,25,0,0
112851,-100,3,2,0,25,0,0
113537,-33.3333333333333,3,2,0,25,0,0
113651,-400,3,2,0,25,0,0
113766,-303.030303030303,3,2,0,25,0,0
113880,-238.095238095238,3,2,0,25,0,0
113994,-200,3,2,0,25,0,0
114108,-169.491525423729,3,2,0,25,0,0
114223,-149.253731343284,3,2,0,25,0,0
114337,-131.578947368421,3,2,0,25,0,0
114451,-119.047619047619,3,2,0,25,0,0
114566,-131.578947368421,3,2,0,25,0,0
114680,-149.253731343284,3,2,0,25,0,0
114737,-208.333333333333,3,2,0,25,0,0
114794,-344.827586206897,3,2,0,25,0,0
114851,-1000,3,2,0,25,0,0
114908,-33.3333333333333,3,2,0,25,0,0
115023,-400,3,2,0,25,0,0
115137,-303.030303030303,3,2,0,25,0,0
115251,-238.095238095238,3,2,0,25,0,0
115366,-200,3,2,0,25,0,0
115480,-169.491525423729,3,2,0,25,0,0
115594,-149.253731343284,3,2,0,25,0,0
115709,-131.578947368421,3,2,0,25,0,0
115823,-119.047619047619,3,2,0,25,0,0
115937,-108.695652173913,3,2,0,25,0,0
116051,-100,3,2,0,25,0,0
116109,-133.333333333333,3,2,0,25,0,0
116166,-200,3,2,0,25,0,0
116223,-400,3,2,0,25,0,0
116280,-20,3,2,0,25,0,0
116394,-1000,3,2,0,25,0,0
116509,-833.333333333333,3,2,0,25,0,0
116623,-714.285714285714,3,2,0,25,0,0
116737,-625,3,2,0,25,0,0
116851,-555.555555555556,3,2,0,25,0,0
116966,-500,3,2,0,25,0,0
117080,-454.545454545455,3,2,0,25,0,0
117194,-416.666666666667,3,2,0,25,0,0
117309,-400,3,2,0,25,0,0
117423,-370.37037037037,3,2,0,25,0,0
117537,-344.827586206897,3,2,0,25,0,0
117652,-322.58064516129,3,2,0,25,0,0
117766,-303.030303030303,3,2,0,25,0,0
117880,-285.714285714286,3,2,0,25,0,0
117994,-277.777777777778,3,2,0,25,0,0
118109,-263.157894736842,3,2,0,25,0,0
118223,-250,3,2,0,25,0,0
118337,-238.095238095238,3,2,0,25,0,0
118452,-227.272727272727,3,2,0,25,0,0
118566,-217.391304347826,3,2,0,25,0,0
118680,-208.333333333333,3,2,0,25,0,0
118794,-200,3,2,0,25,0,0
119023,-33.3333333333333,3,2,0,25,0,0
119137,-400,3,2,0,25,0,0
119252,-303.030303030303,3,2,0,25,0,0
119366,-238.095238095238,3,2,0,25,0,0
119480,-200,3,2,0,25,0,0
119595,-169.491525423729,3,2,0,25,0,0
119709,-149.253731343284,3,2,0,25,0,0
119823,-131.578947368421,3,2,0,25,0,0
119937,-119.047619047619,3,2,0,25,0,0
120052,-108.695652173913,3,2,0,25,0,0
120166,-100,3,2,0,25,0,0
120223,-50,3,2,0,25,0,0
120309,-200,3,2,0,25,0,0
120395,-33.3333333333333,3,2,0,25,0,0
120509,-400,3,2,0,25,0,0
120623,-303.030303030303,3,2,0,25,0,0
120737,-238.095238095238,3,2,0,25,0,0
120852,-200,3,2,0,25,0,0
120966,-169.491525423729,3,2,0,25,0,0
121080,-149.253731343284,3,2,0,25,0,0
121195,-131.578947368421,3,2,0,25,0,0
121309,-119.047619047619,3,2,0,25,0,0
121423,-108.695652173913,3,2,0,25,0,0
121538,-100,3,2,0,25,0,0
121766,-33.3333333333333,3,2,0,25,0,0
121880,-400,3,2,0,25,0,0
121995,-303.030303030303,3,2,0,25,0,0
122109,-238.095238095238,3,2,0,25,0,0
122223,-200,3,2,0,25,0,0
122338,-169.491525423729,3,2,0,25,0,0
122452,-149.253731343284,3,2,0,25,0,0
122566,-131.578947368421,3,2,0,25,0,0
122680,-119.047619047619,3,2,0,25,0,0
122795,-108.695652173913,3,2,0,25,0,0
122909,-100,3,2,0,25,0,0
122966,-133.333333333333,3,2,0,25,0,0
123023,-200,3,2,0,25,0,0
123080,-400,3,2,0,25,0,0
123138,-33.3333333333333,3,2,0,25,0,0
123252,-400,3,2,0,25,0,0
123366,-322.58064516129,3,2,0,25,0,0
123481,-270.27027027027,3,2,0,25,0,0
123595,-232.558139534884,3,2,0,25,0,0
123709,-204.081632653061,3,2,0,25,0,0
123823,-185.185185185185,3,2,0,25,0,0
123938,-166.666666666667,3,2,0,25,0,0
124052,-151.515151515152,3,2,0,25,0,0
124166,-138.888888888889,3,2,0,25,0,0
124281,-128.205128205128,3,2,0,25,0,0
124395,-119.047619047619,3,2,0,25,0,0
124509,-111.111111111111,3,2,0,25,0,0
124623,-105.263157894737,3,2,0,25,0,0
124738,-133.333333333333,3,2,0,25,0,0
125195,-200,3,2,0,25,0,0
125881,-66.6666666666667,3,2,0,25,0,0
125995,-833.333333333333,3,2,0,25,0,0
126109,-625,3,2,0,25,0,0
126224,-476.190476190476,3,2,0,25,0,0
126338,-400,3,2,0,25,0,0
126452,-344.827586206897,3,2,0,25,0,0
126566,-144.927536231884,3,2,0,25,0,0
126624,-66.6666666666667,3,2,0,25,0,0
126681,-131.578947368421,3,2,0,25,0,0
126795,-119.047619047619,3,2,0,25,0,0
126909,-108.695652173913,3,2,0,25,0,0
127024,-100,3,2,0,25,0,0
127138,-66.6666666666667,3,2,0,25,0,0
127195,-100,3,2,0,25,0,0
127252,-66.6666666666667,3,2,0,25,0,0
127367,-400,3,2,0,25,0,0
127481,-303.030303030303,3,2,0,25,0,0
127595,-238.095238095238,3,2,0,25,0,0
127709,-200,3,2,0,25,0,0
127824,-169.491525423729,3,2,0,25,0,0
127938,-149.253731343284,3,2,0,25,0,0
127995,-66.6666666666667,3,2,0,25,0,0
128052,-131.578947368421,3,2,0,25,0,0
128167,-119.047619047619,3,2,0,25,0,0
128281,-108.695652173913,3,2,0,25,0,0
128338,-66.6666666666667,3,2,0,25,0,0
128395,-100,3,2,0,25,0,0
128452,-66.6666666666667,3,2,0,25,0,0
128509,-100,3,2,0,25,0,0
128738,-400,3,2,0,25,0,0
128852,-133.333333333333,3,2,0,25,0,0
128967,-400,3,2,0,25,0,0
129081,-303.030303030303,3,2,0,25,0,0
129195,-238.095238095238,3,2,0,25,0,0
129310,-200,3,2,0,25,0,0
129424,-133.333333333333,3,2,0,25,0,0
129538,-400,3,2,0,25,0,0
129652,-303.030303030303,3,2,0,25,0,0
129767,-133.333333333333,3,2,0,25,0,0
129881,-400,3,2,0,25,0,0
129995,-303.030303030303,3,2,0,25,0,0
130110,-238.095238095238,3,2,0,25,0,0
130224,-133.333333333333,3,2,0,25,0,0
130338,-400,3,2,0,25,0,0
130452,-303.030303030303,3,2,0,25,0,0
130567,-133.333333333333,3,2,0,25,0,0
130681,-100,3,2,0,25,0,0
131195,-133.333333333333,3,2,0,25,0,0
131253,-200,3,2,0,25,0,0
131310,-400,3,2,0,25,0,0
131367,-33.3333333333333,3,2,0,25,0,0
131481,-400,3,2,0,25,0,0
131595,-303.030303030303,3,2,0,25,0,0
131710,-238.095238095238,3,2,0,25,0,0
131824,-200,3,2,0,25,0,0
131938,-169.491525423729,3,2,0,25,0,0
132053,-149.253731343284,3,2,0,25,0,0
132167,-131.578947368421,3,2,0,25,0,0
132281,-119.047619047619,3,2,0,25,0,0
132395,-108.695652173913,3,2,0,25,0,0
132510,-100,3,2,0,25,0,0
132738,-33.3333333333333,3,2,0,25,0,0
132796,-1000,3,2,0,25,0,0
132853,-400,3,2,0,25,0,0
132967,-250,3,2,0,25,0,0
133081,-181.818181818182,3,2,0,25,0,0
133196,-142.857142857143,3,2,0,25,0,0
133310,-117.647058823529,3,2,0,25,0,0
133424,-149.253731343284,3,2,0,25,0,0
133538,-131.578947368421,3,2,0,25,0,0
133653,-119.047619047619,3,2,0,25,0,0
133767,-108.695652173913,3,2,0,25,0,0
133881,-100,3,2,0,25,0,0
134110,-33.3333333333333,3,2,0,25,0,0
134224,-400,3,2,0,25,0,0
134338,-303.030303030303,3,2,0,25,0,0
134453,-238.095238095238,3,2,0,25,0,0
134567,-200,3,2,0,25,0,0
134681,-169.491525423729,3,2,0,25,0,0
134796,-250,3,2,0,25,0,0
134910,-500,3,2,0,25,0,0
135024,-250,3,2,0,25,0,0
135139,-166.666666666667,3,2,0,25,0,0
135253,-125,3,2,0,25,0,0
135310,-100,3,2,0,25,0,0
135481,-33.3333333333333,3,2,0,25,0,0
135596,-400,3,2,0,25,0,0
135710,-322.58064516129,3,2,0,25,0,0
135824,-270.27027027027,3,2,0,25,0,0
135939,-232.558139534884,3,2,0,25,0,0
136053,-204.081632653061,3,2,0,25,0,0
136167,-185.185185185185,3,2,0,25,0,0
136282,-166.666666666667,3,2,0,25,0,0
136396,-151.515151515152,3,2,0,25,0,0
136510,-138.888888888889,3,2,0,25,0,0
136624,-128.205128205128,3,2,0,25,0,0
136739,-119.047619047619,3,2,0,25,0,0
136853,-111.111111111111,3,2,0,25,0,0
136967,-105.263157894737,3,2,0,25,0,0
137082,-100,3,2,0,25,0,0
137767,-117.647058823529,3,2,0,25,0,0
137824,-142.857142857143,3,2,0,25,0,0
137882,-181.818181818182,3,2,0,25,0,0
137939,-250,3,2,0,25,0,0
137996,-400,3,2,0,25,0,0
138053,-50,3,2,0,25,0,0
138148,-200,3,2,0,25,0,0
138253,-1000,3,2,0,25,0,0

[HitObjects]
448,192,3129,128,0,8615:0:0:0:0:
64,192,3129,1,0,0:0:0:0:
320,192,3357,1,0,0:0:0:0:
192,192,3557,1,0,0:0:0:0:
320,192,3643,1,0,0:0:0:0:
64,192,3814,1,0,0:0:0:0:
192,192,3814,1,0,0:0:0:0:
320,192,4500,1,0,0:0:0:0:
320,192,5014,1,0,0:0:0:0:
64,192,5186,1,0,0:0:0:0:
192,192,5186,1,0,0:0:0:0:
320,192,5872,1,0,0:0:0:0:
320,192,6386,1,0,0:0:0:0:
64,192,6557,1,0,0:0:0:0:
192,192,6557,1,0,0:0:0:0:
320,192,7243,1,0,0:0:0:0:
64,192,7929,1,0,0:0:0:0:
192,192,7929,1,0,0:0:0:0:
320,192,8615,1,0,0:0:0:0:
64,192,8615,128,0,14101:0:0:0:0:
192,192,9129,1,0,0:0:0:0:
320,192,9300,1,0,0:0:0:0:
448,192,9300,1,0,0:0:0:0:
192,192,9986,1,0,0:0:0:0:
320,192,10500,1,0,0:0:0:0:
192,192,10672,1,0,0:0:0:0:
448,192,10672,1,0,0:0:0:0:
448,192,11358,1,0,0:0:0:0:
320,192,11872,128,0,12043:0:0:0:0:
192,192,12043,1,0,0:0:0:0:
448,192,12043,1,0,0:0:0:0:
192,192,12729,1,0,0:0:0:0:
320,192,12729,1,0,0:0:0:0:
192,192,13244,1,0,0:0:0:0:
448,192,13415,1,0,0:0:0:0:
320,192,13415,1,0,0:0:0:0:
448,192,14101,128,0,19587:0:0:0:0:
192,192,14101,1,0,0:0:0:0:
320,192,14615,1,0,0:0:0:0:
64,192,14787,1,0,0:0:0:0:
192,192,14787,1,0,0:0:0:0:
192,192,15472,128,0,15987:0:0:0:0:
320,192,15987,1,0,0:0:0:0:
64,192,16158,1,0,0:0:0:0:
192,192,16387,128,0,16844:0:0:0:0:
320,192,16844,1,0,0:0:0:0:
320,192,17358,1,0,0:0:0:0:
64,192,17530,1,0,0:0:0:0:
192,192,17530,1,0,0:0:0:0:
320,192,18730,1,0,0:0:0:0:
64,192,18901,1,0,0:0:0:0:
192,192,18901,1,0,0:0:0:0:
320,192,19587,1,0,0:0:0:0:
192,192,19587,128,0,25073:0:0:0:0:
64,192,20101,1,0,0:0:0:0:
320,192,20273,1,0,0:0:0:0:
448,192,20273,1,0,0:0:0:0:
320,192,20958,128,0,21473:0:0:0:0:
64,192,21473,1,0,0:0:0:0:
320,192,21644,1,0,0:0:0:0:
448,192,21644,1,0,0:0:0:0:
64,192,22330,1,0,0:0:0:0:
64,192,22844,1,0,0:0:0:0:
320,192,23016,1,0,0:0:0:0:
448,192,23016,1,0,0:0:0:0:
64,192,23701,128,0,24216:0:0:0:0:
320,192,24216,1,0,0:0:0:0:
64,192,25073,1,0,0:0:0:0:
448,192,25073,128,0,26445:0:0:0:0:
320,192,25416,1,0,0:0:0:0:
64,192,25530,1,0,0:0:0:0:
320,192,25587,1,0,0:0:0:0:
64,192,25759,1,0,0:0:0:0:
192,192,25759,1,0,0:0:0:0:
64,192,26445,1,0,0:0:0:0:
320,192,26445,128,0,27816:0:0:0:0:
192,192,26959,1,0,0:0:0:0:
64,192,27130,1,0,0:0:0:0:
448,192,27130,1,0,0:0:0:0:
192,192,27816,128,0,29188:0:0:0:0:
448,192,27816,1,0,0:0:0:0:
320,192,28330,1,0,0:0:0:0:
64,192,28502,1,0,0:0:0:0:
448,192,28502,1,0,0:0:0:0:
64,192,29188,1,0,0:0:0:0:
320,192,29188,128,0,30559:0:0:0:0:
448,192,29702,1,0,0:0:0:0:
64,192,29873,1,0,0:0:0:0:
192,192,29873,1,0,0:0:0:0:
448,192,30559,128,0,31931:0:0:0:0:
64,192,31588,128,0,36045:0:0:0:0:
192,192,31931,1,0,0:0:0:0:
320,192,32616,1,0,0:0:0:0:
448,192,32616,1,0,0:0:0:0:
192,192,33302,1,0,0:0:0:0:
192,192,33817,1,0,0:0:0:0:
320,192,33988,1,0,0:0:0:0:
448,192,33988,1,0,0:0:0:0:
192,192,34674,1,0,0:0:0:0:
192,192,35188,1,0,0:0:0:0:
320,192,35360,1,0,0:0:0:0:
448,192,35360,1,0,0:0:0:0:
192,192,36045,1,0,0:0:0:0:
448,192,36045,128,0,38788:0:0:0:0:
320,192,36388,1,0,0:0:0:0:
64,192,36502,1,0,0:0:0:0:
320,192,36560,1,0,0:0:0:0:
64,192,36731,1,0,0:0:0:0:
192,192,36731,1,0,0:0:0:0:
320,192,37417,1,0,0:0:0:0:
320,192,37931,1,0,0:0:0:0:
64,192,38103,1,0,0:0:0:0:
192,192,38103,1,0,0:0:0:0:
320,192,38788,1,0,0:0:0:0:
64,192,38788,128,0,41531:0:0:0:0:
192,192,39303,1,0,0:0:0:0:
320,192,39474,1,0,0:0:0:0:
448,192,39474,1,0,0:0:0:0:
192,192,40160,1,0,0:0:0:0:
192,192,40674,1,0,0:0:0:0:
320,192,40846,1,0,0:0:0:0:
448,192,40846,1,0,0:0:0:0:
448,192,41531,1,0,0:0:0:0:
192,192,41531,128,0,42560:0:0:0:0:
320,192,42046,1,0,0:0:0:0:
64,192,42217,1,0,0:0:0:0:
448,192,42217,1,0,0:0:0:0:
320,192,42560,128,0,47018:0:0:0:0:
448,192,42903,128,0,47018:0:0:0:0:
64,192,42903,1,0,0:0:0:0:
192,192,43074,128,0,43417:0:0:0:0:
64,192,43417,1,0,0:0:0:0:
64,192,43589,1,0,0:0:0:0:
192,192,43589,1,0,0:0:0:0:
192,192,44274,1,0,0:0:0:0:
192,192,44789,1,0,0:0:0:0:
64,192,44960,1,0,0:0:0:0:
192,192,44960,1,0,0:0:0:0:
192,192,45646,1,0,0:0:0:0:
192,192,46160,1,0,0:0:0:0:
64,192,46332,1,0,0:0:0:0:
192,192,46332,1,0,0:0:0:0:
192,192,47018,1,0,0:0:0:0:
64,192,47018,128,0,52504:0:0:0:0:
448,192,47360,1,0,0:0:0:0:
192,192,47475,1,0,0:0:0:0:
448,192,47532,1,0,0:0:0:0:
320,192,47703,1,0,0:0:0:0:
192,192,47703,1,0,0:0:0:0:
448,192,48389,1,0,0:0:0:0:
448,192,48903,1,0,0:0:0:0:
192,192,49075,1,0,0:0:0:0:
320,192,49075,1,0,0:0:0:0:
448,192,49761,1,0,0:0:0:0:
448,192,50275,1,0,0:0:0:0:
192,192,50446,1,0,0:0:0:0:
320,192,50446,1,0,0:0:0:0:
448,192,51132,1,0,0:0:0:0:
448,192,51646,1,0,0:0:0:0:
192,192,51818,128,0,53418:0:0:0:0:
320,192,52504,128,0,54904:0:0:0:0:
64,192,53418,128,0,55247:0:0:0:0:
448,192,54904,128,0,57990:0:0:0:0:
192,192,55247,128,0,55475:0:0:0:0:
320,192,55761,1,0,0:0:0:0:
64,192,55933,1,0,0:0:0:0:
192,192,55933,1,0,0:0:0:0:
320,192,56618,1,0,0:0:0:0:
64,192,57304,1,0,0:0:0:0:
192,192,57304,1,0,0:0:0:0:
64,192,57990,1,0,0:0:0:0:
320,192,57990,128,0,61762:0:0:0:0:
192,192,58676,1,0,0:0:0:0:
448,192,58676,1,0,0:0:0:0:
64,192,59361,1,0,0:0:0:0:
192,192,59361,1,0,0:0:0:0:
64,192,59876,1,0,0:0:0:0:
192,192,60047,1,0,0:0:0:0:
448,192,60047,1,0,0:0:0:0:
64,192,60733,128,0,61247:0:0:0:0:
192,192,61247,1,0,0:0:0:0:
64,192,61419,1,0,0:0:0:0:
448,192,61419,1,0,0:0:0:0:
192,192,61762,128,0,63476:0:0:0:0:
448,192,63476,1,0,0:0:0:0:
64,192,63476,128,0,68962:0:0:0:0:
320,192,63762,1,0,0:0:0:0:
320,192,63990,1,0,0:0:0:0:
448,192,64162,1,0,0:0:0:0:
192,192,64162,1,0,0:0:0:0:
320,192,64847,1,0,0:0:0:0:
192,192,65133,1,0,0:0:0:0:
192,192,65362,1,0,0:0:0:0:
320,192,65533,1,0,0:0:0:0:
448,192,65533,1,0,0:0:0:0:
192,192,66219,1,0,0:0:0:0:
320,192,66505,1,0,0:0:0:0:
320,192,66733,1,0,0:0:0:0:
192,192,66905,1,0,0:0:0:0:
448,192,66905,1,0,0:0:0:0:
320,192,67591,1,0,0:0:0:0:
192,192,67876,1,0,0:0:0:0:
192,192,68105,1,0,0:0:0:0:
320,192,68276,1,0,0:0:0:0:
448,192,68276,1,0,0:0:0:0:
192,192,68962,1,0,0:0:0:0:
448,192,68962,128,0,74448:0:0:0:0:
320,192,69476,1,0,0:0:0:0:
64,192,69648,1,0,0:0:0:0:
192,192,69648,1,0,0:0:0:0:
320,192,70334,1,0,0:0:0:0:
320,192,70848,1,0,0:0:0:0:
64,192,71019,1,0,0:0:0:0:
192,192,71019,1,0,0:0:0:0:
320,192,71705,1,0,0:0:0:0:
320,192,72219,1,0,0:0:0:0:
64,192,72391,1,0,0:0:0:0:
192,192,72391,1,0,0:0:0:0:
320,192,73077,1,0,0:0:0:0:
320,192,73420,1,0,0:0:0:0:
64,192,73534,1,0,0:0:0:0:
320,192,73591,1,0,0:0:0:0:
64,192,73762,1,0,0:0:0:0:
192,192,73762,1,0,0:0:0:0:
320,192,74448,1,0,0:0:0:0:
64,192,74448,128,0,79934:0:0:0:0:
192,192,74963,1,0,0:0:0:0:
320,192,75134,1,0,0:0:0:0:
448,192,75134,1,0,0:0:0:0:
192,192,75820,1,0,0:0:0:0:
320,192,76506,1,0,0:0:0:0:
448,192,76506,1,0,0:0:0:0:
192,192,77706,1,0,0:0:0:0:
320,192,77877,1,0,0:0:0:0:
448,192,77877,1,0,0:0:0:0:
192,192,78563,1,0,0:0:0:0:
320,192,79249,1,0,0:0:0:0:
448,192,79249,1,0,0:0:0:0:
192,192,79934,1,0,0:0:0:0:
448,192,79934,128,0,84392:0:0:0:0:
320,192,80449,1,0,0:0:0:0:
64,192,80620,1,0,0:0:0:0:
192,192,80620,1,0,0:0:0:0:
320,192,81306,1,0,0:0:0:0:
320,192,81820,1,0,0:0:0:0:
192,192,81992,1,0,0:0:0:0:
64,192,81992,1,0,0:0:0:0:
320,192,82677,1,0,0:0:0:0:
192,192,83192,128,0,83363:0:0:0:0:
64,192,83363,1,0,0:0:0:0:
320,192,83363,1,0,0:0:0:0:
320,192,84049,1,0,0:0:0:0:
192,192,84392,128,0,85420:0:0:0:0:
320,192,84563,1,0,0:0:0:0:
64,192,84735,1,0,0:0:0:0:
448,192,84735,1,0,0:0:0:0:
64,192,85420,128,0,90907:0:0:0:0:
320,192,85420,1,0,0:0:0:0:
320,192,85935,1,0,0:0:0:0:
192,192,86106,1,0,0:0:0:0:
448,192,86106,1,0,0:0:0:0:
320,192,86792,1,0,0:0:0:0:
320,192,87306,1,0,0:0:0:0:
192,192,87478,1,0,0:0:0:0:
448,192,87478,1,0,0:0:0:0:
448,192,88164,1,0,0:0:0:0:
448,192,88678,1,0,0:0:0:0:
192,192,88849,1,0,0:0:0:0:
320,192,88849,1,0,0:0:0:0:
448,192,89535,1,0,0:0:0:0:
448,192,90049,1,0,0:0:0:0:
192,192,90221,1,0,0:0:0:0:
320,192,90221,1,0,0:0:0:0:
448,192,90907,128,0,96393:0:0:0:0:
320,192,92792,1,0,0:0:0:0:
64,192,92964,1,0,0:0:0:0:
192,192,92964,1,0,0:0:0:0:
320,192,93650,1,0,0:0:0:0:
320,192,94164,1,0,0:0:0:0:
64,192,94335,1,0,0:0:0:0:
192,192,94335,1,0,0:0:0:0:
320,192,95021,1,0,0:0:0:0:
64,192,95707,1,0,0:0:0:0:
192,192,95707,1,0,0:0:0:0:
320,192,96393,1,0,0:0:0:0:
320,192,96907,1,0,0:0:0:0:
64,192,97079,1,0,0:0:0:0:
448,192,97079,1,0,0:0:0:0:
192,192,98221,1,0,0:0:0:0:
64,192,98450,1,0,0:0:0:0:
448,192,98450,1,0,0:0:0:0:
320,192,99136,1,0,0:0:0:0:
320,192,99650,1,0,0:0:0:0:
192,192,99822,1,0,0:0:0:0:
448,192,99822,1,0,0:0:0:0:
192,192,100507,1,0,0:0:0:0:
192,192,101022,1,0,0:0:0:0:
64,192,101193,1,0,0:0:0:0:
320,192,101193,1,0,0:0:0:0:
320,192,107365,132,0,107879:0:0:0:0:
192,192,107879,1,0,0:0:0:0:
448,192,108051,1,0,0:0:0:0:
64,192,108051,128,0,109651:0:0:0:0:
320,192,112851,1,0,0:0:0:0:
320,192,113365,1,0,0:0:0:0:
64,192,113537,1,0,0:0:0:0:
448,192,113537,1,0,0:0:0:0:
192,192,114223,1,0,0:0:0:0:
64,192,114908,1,0,0:0:0:0:
320,192,114908,1,0,0:0:0:0:
192,192,115594,1,0,0:0:0:0:
64,192,116280,1,0,0:0:0:0:
448,192,116280,1,0,0:0:0:0:
320,192,118337,1,0,0:0:0:0:
320,192,118852,1,0,0:0:0:0:
192,192,119023,1,0,0:0:0:0:
448,192,119023,1,0,0:0:0:0:
320,192,119709,1,0,0:0:0:0:
320,192,120223,128,0,120395:0:0:0:0:
64,192,120395,1,0,0:0:0:0:
448,192,120395,1,0,0:0:0:0:
192,192,121080,1,0,0:0:0:0:
192,192,121595,1,0,0:0:0:0:
64,192,121766,1,0,0:0:0:0:
320,192,121766,1,0,0:0:0:0:
192,192,122452,1,0,0:0:0:0:
64,192,123138,1,0,0:0:0:0:
448,192,123138,1,0,0:0:0:0:
320,192,125195,1,0,0:0:0:0:
320,192,125709,1,0,0:0:0:0:
448,192,125881,1,0,0:0:0:0:
192,192,125881,1,0,0:0:0:0:
320,192,126566,1,0,0:0:0:0:
320,192,127081,1,0,0:0:0:0:
64,192,127252,1,0,0:0:0:0:
448,192,127252,1,0,0:0:0:0:
192,192,127938,1,0,0:0:0:0:
192,192,128281,1,0,0:0:0:0:
448,192,128395,1,0,0:0:0:0:
192,192,128452,1,0,0:0:0:0:
64,192,128624,1,0,0:0:0:0:
320,192,128624,1,0,0:0:0:0:
192,192,130681,1,0,0:0:0:0:
64,192,131367,1,0,0:0:0:0:
448,192,131367,1,0,0:0:0:0:
320,192,132053,1,0,0:0:0:0:
320,192,132567,1,0,0:0:0:0:
192,192,133424,1,0,0:0:0:0:
192,192,133938,1,0,0:0:0:0:
64,192,134110,1,0,0:0:0:0:
448,192,134110,1,0,0:0:0:0:
320,192,134796,1,0,0:0:0:0:
320,192,135310,1,0,0:0:0:0:
192,192,135481,1,0,0:0:0:0:
448,192,135481,1,0,0:0:0:0:
192,192,138053,1,0,0:0:0:0:
320,192,138053,1,0,0:0:0:0:
64,192,138253,1,0,0:0:0:0:
448,192,138253,1,0,0:0:0:0:
