osu file format v14

[General]
AudioFilename: audio.mp3
AudioLeadIn: 0
PreviewTime: 34292
Countdown: 0
SampleSet: Normal
StackLeniency: 0.7
Mode: 1
LetterboxInBreaks: 0
WidescreenStoryboard: 0

[Editor]
DistanceSpacing: 1.2
BeatDivisor: 4
GridSize: 32
TimelineZoom: 1.9

[Metadata]
Title:Chik Habit
TitleUnicode:Chik Habit
Artist:The Flashbulb
ArtistUnicode:The Flashbulb
Creator:incandescence
Version:Nifty's Oni
Source:osu!
Tags:taikocracy nyanners- nanners Raichael yuno Nifty Raiden breakcore benn jordan flexing habitual featured artist fa
BeatmapID:1735533
BeatmapSetID:827049

[Difficulty]
HPDrainRate:5
CircleSize:2
OverallDifficulty:5.5
ApproachRate:10
SliderMultiplier:1.4
SliderTickRate:1

[Events]
//Background and Video events
0,0,"995597-popular-light-bulb-wallpapers-1920x1080-for-mobile-hd.jpg",0,0
//Break Periods
//Storyboard Layer 0 (Background)
//Storyboard Layer 1 (Fail)
//Storyboard Layer 2 (Pass)
//Storyboard Layer 3 (Foreground)
//Storyboard Sound Samples

[TimingPoints]
2292,285.714285714286,4,1,0,60,1,0
2292,-142.857142857143,4,1,0,60,0,0
34292,-100,4,1,0,100,0,1
38006,-83.3333333333333,4,1,0,100,0,1
38863,-100,4,1,0,100,0,1
42577,-83.3333333333333,4,1,0,100,0,1
43434,-100,4,1,0,100,0,1
47149,-83.3333333333333,4,1,0,100,0,1
48006,-100,4,1,0,100,0,1
51720,-83.3333333333333,4,1,0,100,0,1
52577,-100,4,1,0,100,0,0
57149,-125,4,1,0,80,0,0
60863,-83.3333333333333,4,1,0,100,0,0
61720,-100,4,1,0,100,0,1
65434,-83.3333333333333,4,1,0,100,0,1
66292,-100,4,1,0,100,0,1
70006,-83.3333333333333,4,1,0,100,0,1
70863,-125,4,1,0,60,0,0
79149,-120.481927710843,4,1,0,60,0,0
79292,-119.047619047619,4,1,0,60,0,0
79434,-117.647058823529,4,1,0,60,0,0
79506,-116.279069767442,4,1,0,60,0,0
79577,-114.942528735632,4,1,0,60,0,0
79720,-113.636363636364,4,1,0,60,0,0
79863,-112.359550561798,4,1,0,60,0,0
80006,-111.111111111111,4,1,0,80,0,0
89149,250,4,1,0,80,1,0
89149,-125,4,1,0,80,0,0
96399,-119.047619047619,4,1,0,80,0,0
96524,-117.647058823529,4,1,0,80,0,0
96649,-116.279069767442,4,1,0,80,0,0
96774,-114.942528735632,4,1,0,80,0,0
96899,-113.636363636364,4,1,0,80,0,0
97024,-112.359550561798,4,1,0,80,0,0
97149,-111.111111111111,4,1,0,90,0,0
112899,-106.382978723404,4,1,0,90,0,0
113024,-103.092783505155,4,1,0,90,0,0
113149,-100,4,1,0,100,0,1
116399,-83.3333333333333,4,1,0,100,0,1
117149,-100,4,1,0,100,0,1
120399,-83.3333333333333,4,1,0,100,0,1
121149,-100,4,1,0,100,0,1
124399,-83.3333333333333,4,1,0,100,0,1
125149,-100,4,1,0,100,0,1
128399,-83.3333333333333,4,1,0,100,0,1
129149,-100,4,1,0,100,0,0
132399,-83.3333333333333,4,1,0,100,0,0
133149,-142.857142857143,4,1,0,60,0,0
136399,-83.3333333333333,4,1,0,100,0,0
137149,-100,4,1,0,100,0,0
140399,-83.3333333333333,4,1,0,100,0,0
141149,-100,4,1,0,100,0,0
144399,-83.3333333333333,4,1,0,100,0,0
145149,-100,4,1,0,100,0,0
148399,-83.3333333333333,4,1,0,100,0,0
149149,-100,4,1,0,100,0,0
152399,-83.3333333333333,4,1,0,100,0,1
153649,-83.3333333333333,4,1,0,100,0,0

[HitObjects]
275,153,2292,5,0,0:0:0:0:
264,147,2863,1,0,0:0:0:0:
259,101,3434,1,0,0:0:0:0:
289,144,4006,1,0,0:0:0:0:
275,136,4577,1,0,0:0:0:0:
266,140,5149,1,0,0:0:0:0:
266,140,5720,1,0,0:0:0:0:
252,134,6292,1,0,0:0:0:0:
264,149,6863,1,0,0:0:0:0:
276,113,7149,1,8,0:0:0:0:
276,113,7292,1,0,0:0:0:0:
285,114,7434,1,8,0:0:0:0:
279,123,7720,1,8,0:0:0:0:
277,122,8006,1,0,0:0:0:0:
276,121,8292,1,0,0:0:0:0:
282,112,8577,1,8,0:0:0:0:
282,112,9149,1,0,0:0:0:0:
274,113,9720,1,8,0:0:0:0:
277,101,10292,1,0,0:0:0:0:
275,85,10863,1,8,0:0:0:0:
256,111,11434,1,0,0:0:0:0:
256,109,11720,1,8,0:0:0:0:
260,110,11863,1,0,0:0:0:0:
256,111,12006,1,8,0:0:0:0:
256,111,12292,1,8,0:0:0:0:
269,93,12577,1,0,0:0:0:0:
272,112,12863,1,0,0:0:0:0:
269,108,13149,1,8,0:0:0:0:
281,100,13720,1,0,0:0:0:0:
281,100,14292,1,8,0:0:0:0:
286,90,14863,1,0,0:0:0:0:
296,92,15434,1,8,0:0:0:0:
305,93,16006,1,0,0:0:0:0:
305,93,16292,1,8,0:0:0:0:
305,93,16434,1,0,0:0:0:0:
317,96,16577,1,8,0:0:0:0:
312,95,16863,1,8,0:0:0:0:
316,92,17149,1,0,0:0:0:0:
312,87,17292,1,8,0:0:0:0:
314,86,17434,1,0,0:0:0:0:
312,86,17577,1,0,0:0:0:0:
311,86,17720,1,8,0:0:0:0:
310,88,17863,1,8,0:0:0:0:
305,93,18006,1,0,0:0:0:0:
308,88,18149,1,0,0:0:0:0:
308,79,18292,1,8,0:0:0:0:
300,88,18577,1,0,0:0:0:0:
301,88,18720,1,0,0:0:0:0:
301,88,18863,1,8,0:0:0:0:
301,102,19149,1,0,0:0:0:0:
308,95,19292,1,8,0:0:0:0:
306,95,19434,1,0,0:0:0:0:
306,81,20006,1,8,0:0:0:0:
296,80,20577,1,0,0:0:0:0:
306,81,20863,1,8,0:0:0:0:
312,71,21006,1,0,0:0:0:0:
317,74,21149,1,8,0:0:0:0:
300,93,21434,1,8,0:0:0:0:
295,91,21720,1,0,0:0:0:0:
287,87,21863,1,8,0:0:0:0:
306,92,22006,1,0,0:0:0:0:
307,90,22149,1,0,0:0:0:0:
300,93,22292,1,8,0:0:0:0:
300,86,22434,1,0,0:0:0:0:
301,86,22577,1,8,0:0:0:0:
302,85,22720,1,8,0:0:0:0:
302,85,22863,1,0,0:0:0:0:
300,87,23149,1,0,0:0:0:0:
300,93,23292,1,0,0:0:0:0:
300,86,23434,1,8,0:0:0:0:
301,86,23577,1,0,0:0:0:0:
302,85,23720,1,0,0:0:0:0:
296,98,23863,1,8,0:0:0:0:
306,76,24006,1,0,0:0:0:0:
301,86,24577,1,8,0:0:0:0:
292,84,25149,1,0,0:0:0:0:
291,98,25434,1,8,0:0:0:0:
292,98,25577,1,0,0:0:0:0:
312,84,25720,1,8,0:0:0:0:
305,89,25863,1,8,0:0:0:0:
303,83,26006,1,0,0:0:0:0:
300,81,26149,1,0,0:0:0:0:
301,81,26292,1,8,0:0:0:0:
300,83,26577,1,0,0:0:0:0:
298,82,26720,1,0,0:0:0:0:
296,82,26863,1,8,0:0:0:0:
293,84,27006,1,0,0:0:0:0:
300,81,27149,1,8,0:0:0:0:
294,85,27292,1,0,0:0:0:0:
300,83,27434,1,8,0:0:0:0:
297,68,27720,1,0,0:0:0:0:
298,73,27863,1,0,0:0:0:0:
297,71,28006,1,8,0:0:0:0:
294,69,28149,1,0,0:0:0:0:
294,85,28292,1,0,0:0:0:0:
293,77,28434,1,8,0:0:0:0:
295,58,28577,1,0,0:0:0:0:
286,84,29149,1,8,0:0:0:0:
287,92,29720,1,8,0:0:0:0:
287,92,30006,1,0,0:0:0:0:
295,79,30149,1,0,0:0:0:0:
296,79,30292,1,8,0:0:0:0:
293,85,30434,1,0,0:0:0:0:
293,86,30577,1,0,0:0:0:0:
294,86,30720,1,0,0:0:0:0:
296,87,30863,1,8,0:0:0:0:
286,73,31149,1,8,0:0:0:0:
288,73,31292,1,0,0:0:0:0:
288,74,31434,1,8,0:0:0:0:
289,73,31577,1,0,0:0:0:0:
289,73,31720,1,0,0:0:0:0:
289,73,31863,1,8,0:0:0:0:
286,73,32006,1,8,0:0:0:0:
299,76,32292,1,0,0:0:0:0:
299,76,32434,1,0,0:0:0:0:
299,76,32577,1,8,0:0:0:0:
300,77,32720,1,0,0:0:0:0:
300,76,32863,1,8,0:0:0:0:
286,73,33006,1,8,0:0:0:0:
288,67,33149,1,0,0:0:0:0:
300,77,33720,1,8,0:0:0:0:
268,97,34292,1,8,0:0:0:0:
272,90,34577,1,8,0:0:0:0:
272,90,34720,1,8,0:0:0:0:
273,90,34863,1,0,0:0:0:0:
275,65,34934,1,8,0:0:0:0:
273,91,35006,1,0,0:0:0:0:
272,91,35149,1,8,0:0:0:0:
268,97,35292,1,8,0:0:0:0:
285,84,35434,1,0,0:0:0:0:
286,83,35506,1,8,0:0:0:0:
286,83,35577,1,8,0:0:0:0:
286,83,35720,1,0,0:0:0:0:
274,60,35863,1,0,0:0:0:0:
269,56,36006,1,8,0:0:0:0:
271,58,36077,1,8,0:0:0:0:
272,62,36149,1,0,0:0:0:0:
272,61,36292,1,8,0:0:0:0:
270,60,36363,1,0,0:0:0:0:
280,59,36434,1,0,0:0:0:0:
271,59,36577,1,8,0:0:0:0:
251,93,36863,1,0,0:0:0:0:
251,93,37006,1,8,0:0:0:0:
259,61,37149,1,8,0:0:0:0:
257,55,37292,1,0,0:0:0:0:
258,55,37363,1,0,0:0:0:0:
259,55,37434,1,8,0:0:0:0:
271,59,37577,1,0,0:0:0:0:
271,53,37720,1,8,0:0:0:0:
260,64,38006,1,4,0:0:0:0:
260,64,38292,1,4,0:0:0:0:
259,64,38577,1,4,0:0:0:0:
266,80,38863,1,8,0:0:0:0:
271,68,39149,1,0,0:0:0:0:
271,67,39292,1,0,0:0:0:0:
267,80,39434,1,8,0:0:0:0:
283,70,39577,1,0,0:0:0:0:
281,68,39649,1,0,0:0:0:0:
273,67,39720,1,8,0:0:0:0:
271,57,39863,1,8,0:0:0:0:
267,60,40006,1,0,0:0:0:0:
282,68,40149,1,8,0:0:0:0:
282,69,40220,1,0,0:0:0:0:
282,68,40292,1,8,0:0:0:0:
282,68,40434,1,0,0:0:0:0:
283,70,40577,1,8,0:0:0:0:
281,68,40649,1,8,0:0:0:0:
273,67,40720,1,8,0:0:0:0:
275,65,40863,1,0,0:0:0:0:
271,46,41006,1,0,0:0:0:0:
284,58,41149,1,8,0:0:0:0:
288,48,41434,1,8,0:0:0:0:
286,49,41577,1,0,0:0:0:0:
293,73,41649,1,8,0:0:0:0:
285,49,41720,1,0,0:0:0:0:
288,41,41863,1,0,0:0:0:0:
286,42,42006,1,8,0:0:0:0:
287,42,42149,1,8,0:0:0:0:
288,48,42292,1,0,0:0:0:0:
286,49,42577,1,4,0:0:0:0:
288,41,42863,1,4,0:0:0:0:
287,42,43149,1,4,0:0:0:0:
271,61,43434,1,8,0:0:0:0:
267,59,43720,1,0,0:0:0:0:
267,59,43863,1,0,0:0:0:0:
267,59,44006,1,8,0:0:0:0:
261,47,44149,1,0,0:0:0:0:
262,48,44220,1,8,0:0:0:0:
265,49,44292,1,0,0:0:0:0:
265,49,44434,1,8,0:0:0:0:
266,59,44577,1,0,0:0:0:0:
255,56,44863,1,8,0:0:0:0:
247,57,45006,1,0,0:0:0:0:
247,56,45149,1,8,0:0:0:0:
250,66,45220,1,0,0:0:0:0:
250,66,45292,1,8,0:0:0:0:
275,64,45363,1,8,0:0:0:0:
250,66,45434,1,0,0:0:0:0:
251,66,45577,1,8,0:0:0:0:
265,58,45720,1,0,0:0:0:0:
265,57,46006,1,8,0:0:0:0:
256,69,46149,1,8,0:0:0:0:
271,87,46220,1,8,0:0:0:0:
256,68,46292,1,0,0:0:0:0:
257,66,46434,1,8,0:0:0:0:
261,64,46577,1,0,0:0:0:0:
265,58,46649,1,0,0:0:0:0:
262,64,46720,1,8,0:0:0:0:
258,66,46863,1,0,0:0:0:0:
245,101,47149,1,12,0:0:0:0:
253,84,47434,1,12,0:0:0:0:
253,84,47720,1,12,0:0:0:0:
257,99,48006,1,8,0:0:0:0:
258,98,48292,1,0,0:0:0:0:
258,98,48434,1,0,0:0:0:0:
258,98,48577,1,8,0:0:0:0:
256,102,48720,1,0,0:0:0:0:
265,88,48792,1,8,0:0:0:0:
265,88,48863,1,0,0:0:0:0:
265,86,48934,1,0,0:0:0:0:
264,88,49006,1,0,0:0:0:0:
266,94,49149,1,8,0:0:0:0:
267,97,49434,1,0,0:0:0:0:
268,96,49577,1,0,0:0:0:0:
268,96,49720,1,8,0:0:0:0:
268,96,49792,1,0,0:0:0:0:
268,96,49863,1,8,0:0:0:0:
270,82,50006,1,8,0:0:0:0:
266,94,50149,1,0,0:0:0:0:
275,79,50220,1,0,0:0:0:0:
266,94,50292,1,8,0:0:0:0:
266,80,50577,1,0,0:0:0:0:
266,80,50720,1,0,0:0:0:0:
266,80,50863,1,8,0:0:0:0:
270,82,50934,1,8,0:0:0:0:
270,82,51006,1,0,0:0:0:0:
266,80,51149,1,8,0:0:0:0:
279,78,51220,1,8,0:0:0:0:
275,79,51292,1,8,0:0:0:0:
263,79,51363,1,8,0:0:0:0:
265,82,51434,1,0,0:0:0:0:
275,106,51720,1,12,0:0:0:0:
275,106,52006,1,12,0:0:0:0:
275,106,52292,1,12,0:0:0:0:
275,81,52577,1,0,0:0:0:0:
276,87,52863,1,0,0:0:0:0:
277,87,53006,1,8,0:0:0:0:
271,77,53077,1,0,0:0:0:0:
278,93,53149,1,8,0:0:0:0:
275,81,53434,1,0,0:0:0:0:
280,96,53577,1,0,0:0:0:0:
279,94,53720,1,0,0:0:0:0:
279,94,53863,1,8,0:0:0:0:
279,94,54006,1,0,0:0:0:0:
278,93,54149,1,8,0:0:0:0:
280,96,54292,1,0,0:0:0:0:
280,96,54363,1,8,0:0:0:0:
280,96,54434,1,8,0:0:0:0:
280,84,54577,1,0,0:0:0:0:
279,86,54720,1,0,0:0:0:0:
281,78,54863,1,8,0:0:0:0:
282,78,55149,1,0,0:0:0:0:
280,84,55434,1,0,0:0:0:0:
272,75,55720,1,8,0:0:0:0:
272,75,55863,1,0,0:0:0:0:
276,71,56006,1,8,0:0:0:0:
275,71,56149,1,0,0:0:0:0:
277,68,56220,1,0,0:0:0:0:
277,68,56292,1,12,0:0:0:0:
277,68,56577,1,12,0:0:0:0:
276,71,56863,1,12,0:0:0:0:
278,105,57149,1,8,0:0:0:0:
290,92,57434,1,0,0:0:0:0:
289,92,57577,1,0,0:0:0:0:
289,91,57720,1,8,0:0:0:0:
289,91,57863,1,0,0:0:0:0:
287,88,58006,1,0,0:0:0:0:
288,88,58149,1,0,0:0:0:0:
290,92,58292,1,8,0:0:0:0:
290,92,58363,1,8,0:0:0:0:
288,72,58577,1,0,0:0:0:0:
288,73,58720,1,0,0:0:0:0:
288,73,58863,1,8,0:0:0:0:
288,73,59006,1,0,0:0:0:0:
288,73,59149,1,8,0:0:0:0:
288,73,59292,1,0,0:0:0:0:
288,72,59434,1,8,0:0:0:0:
286,61,59720,1,0,0:0:0:0:
286,61,60006,1,8,0:0:0:0:
280,64,60149,1,8,0:0:0:0:
286,61,60292,1,0,0:0:0:0:
288,60,60434,1,0,0:0:0:0:
286,61,60577,1,8,0:0:0:0:
286,61,60863,1,4,0:0:0:0:
289,63,61149,1,4,0:0:0:0:
288,60,61434,1,4,0:0:0:0:
237,113,61720,1,8,0:0:0:0:
252,118,62006,1,8,0:0:0:0:
269,107,62149,1,0,0:0:0:0:
268,108,62220,1,8,0:0:0:0:
268,109,62292,1,0,0:0:0:0:
268,109,62434,1,8,0:0:0:0:
283,85,62577,1,0,0:0:0:0:
283,85,62649,1,0,0:0:0:0:
268,109,62720,1,0,0:0:0:0:
269,108,62863,1,8,0:0:0:0:
286,75,63149,1,0,0:0:0:0:
285,83,63292,1,8,0:0:0:0:
285,83,63363,1,8,0:0:0:0:
285,83,63434,1,0,0:0:0:0:
283,85,63577,1,0,0:0:0:0:
299,73,63720,1,8,0:0:0:0:
304,71,63792,1,8,0:0:0:0:
299,73,63863,1,0,0:0:0:0:
297,73,64006,1,8,0:0:0:0:
297,72,64292,1,8,0:0:0:0:
297,72,64434,1,0,0:0:0:0:
298,72,64506,1,0,0:0:0:0:
297,72,64577,1,8,0:0:0:0:
297,63,64720,1,0,0:0:0:0:
297,63,64863,1,8,0:0:0:0:
297,63,64934,1,0,0:0:0:0:
297,63,65006,1,8,0:0:0:0:
297,63,65149,1,0,0:0:0:0:
297,63,65434,1,4,0:0:0:0:
297,63,65720,1,12,0:0:0:0:
297,63,66006,1,4,0:0:0:0:
309,81,66292,1,0,0:0:0:0:
311,82,66506,1,0,0:0:0:0:
310,82,66720,1,0,0:0:0:0:
310,82,66934,1,0,0:0:0:0:
296,85,67149,1,8,0:0:0:0:
309,81,67220,1,8,0:0:0:0:
296,85,67292,1,8,0:0:0:0:
312,76,67434,1,0,0:0:0:0:
318,60,67577,1,0,0:0:0:0:
319,61,67720,1,8,0:0:0:0:
347,54,67863,1,0,0:0:0:0:
332,58,68006,1,0,0:0:0:0:
333,62,68149,1,8,0:0:0:0:
333,62,68292,1,0,0:0:0:0:
333,62,68363,1,8,0:0:0:0:
333,62,68434,1,8,0:0:0:0:
349,58,68577,1,0,0:0:0:0:
345,57,68649,1,8,0:0:0:0:
344,57,68720,1,0,0:0:0:0:
347,54,68863,1,8,0:0:0:0:
342,57,69006,1,0,0:0:0:0:
341,61,69149,1,8,0:0:0:0:
343,60,69292,1,8,0:0:0:0:
343,59,69363,1,8,0:0:0:0:
342,60,69434,1,0,0:0:0:0:
331,75,69506,1,0,0:0:0:0:
341,60,69577,1,0,0:0:0:0:
344,57,69720,1,8,0:0:0:0:
342,57,70006,1,4,0:0:0:0:
343,60,70292,1,4,0:0:0:0:
341,60,70577,1,4,0:0:0:0:
273,163,71149,1,8,0:0:0:0:
281,166,71577,1,8,0:0:0:0:
288,140,72006,1,0,0:0:0:0:
292,122,72292,1,8,0:0:0:0:
293,122,72720,1,8,0:0:0:0:
260,136,73149,1,0,0:0:0:0:
269,138,73434,1,8,0:0:0:0:
274,122,73863,1,8,0:0:0:0:
295,108,74292,1,0,0:0:0:0:
295,108,74577,1,8,0:0:0:0:
295,108,75006,1,8,0:0:0:0:
301,95,75434,1,0,0:0:0:0:
301,95,75720,1,8,0:0:0:0:
306,97,76006,1,0,0:0:0:0:
301,95,76149,1,8,0:0:0:0:
311,96,76292,1,0,0:0:0:0:
311,97,76577,1,0,0:0:0:0:
312,97,76863,1,8,0:0:0:0:
313,97,77149,1,0,0:0:0:0:
311,96,77292,1,8,0:0:0:0:
311,97,77434,1,0,0:0:0:0:
312,97,77720,1,0,0:0:0:0:
313,97,78006,1,8,0:0:0:0:
311,96,78292,1,0,0:0:0:0:
311,97,78434,1,8,0:0:0:0:
312,97,78577,1,0,0:0:0:0:
312,97,78720,1,0,0:0:0:0:
319,89,78863,1,0,0:0:0:0:
311,96,79149,1,8,0:0:0:0:
321,94,79292,1,8,0:0:0:0:
315,86,79434,1,0,0:0:0:0:
321,94,79506,1,0,0:0:0:0:
321,94,79577,1,8,0:0:0:0:
321,95,79720,1,0,0:0:0:0:
319,89,79863,1,8,0:0:0:0:
331,88,80006,1,4,0:0:0:0:
308,91,80292,1,8,0:0:0:0:
332,88,80434,1,0,0:0:0:0:
332,88,80577,1,8,0:0:0:0:
334,88,80720,1,8,0:0:0:0:
325,73,80863,1,8,0:0:0:0:
331,88,81006,1,0,0:0:0:0:
344,87,81149,1,0,0:0:0:0:
320,82,81434,1,8,0:0:0:0:
319,83,81577,1,0,0:0:0:0:
325,67,81720,1,8,0:0:0:0:
325,73,81863,1,8,0:0:0:0:
327,66,82006,1,8,0:0:0:0:
328,63,82149,1,8,0:0:0:0:
329,64,82292,1,0,0:0:0:0:
327,61,82577,1,8,0:0:0:0:
325,67,82720,1,0,0:0:0:0:
337,57,82792,1,8,0:0:0:0:
337,58,83006,1,0,0:0:0:0:
341,61,83149,1,8,0:0:0:0:
342,62,83292,1,8,0:0:0:0:
342,61,83434,1,0,0:0:0:0:
315,95,83506,1,0,0:0:0:0:
316,95,83577,1,0,0:0:0:0:
318,93,83720,1,8,0:0:0:0:
315,95,83863,1,0,0:0:0:0:
315,95,83934,1,8,0:0:0:0:
336,78,84006,1,8,0:0:0:0:
334,78,84149,1,0,0:0:0:0:
334,78,84292,1,8,0:0:0:0:
336,49,84577,1,4,0:0:0:0:
319,64,84863,1,8,0:0:0:0:
313,80,85006,1,0,0:0:0:0:
315,80,85149,1,8,0:0:0:0:
331,67,85292,1,0,0:0:0:0:
331,67,85434,1,8,0:0:0:0:
331,67,85577,1,0,0:0:0:0:
331,67,85720,1,0,0:0:0:0:
332,68,86006,1,0,0:0:0:0:
330,66,86149,1,8,0:0:0:0:
331,67,86292,1,8,0:0:0:0:
331,67,86434,1,0,0:0:0:0:
331,67,86577,1,8,0:0:0:0:
331,67,86649,1,8,0:0:0:0:
331,67,86720,1,8,0:0:0:0:
339,65,86863,1,0,0:0:0:0:
341,68,87149,1,8,0:0:0:0:
341,67,87292,1,0,0:0:0:0:
340,67,87363,1,8,0:0:0:0:
340,67,87577,1,0,0:0:0:0:
340,66,87720,1,8,0:0:0:0:
339,65,87863,1,8,0:0:0:0:
341,68,88006,1,0,0:0:0:0:
341,68,88077,1,0,0:0:0:0:
341,68,88149,1,0,0:0:0:0:
341,67,88292,1,8,0:0:0:0:
340,67,88434,1,0,0:0:0:0:
340,67,88506,1,0,0:0:0:0:
340,67,88577,1,8,0:0:0:0:
339,78,89149,1,0,0:0:0:0:
288,151,89399,1,0,0:0:0:0:
295,116,89649,1,8,0:0:0:0:
322,117,90149,1,0,0:0:0:0:
321,110,90399,1,0,0:0:0:0:
321,110,90649,1,8,0:0:0:0:
322,117,90774,1,0,0:0:0:0:
271,151,91149,1,0,0:0:0:0:
276,145,91399,1,0,0:0:0:0:
271,142,91649,1,8,0:0:0:0:
271,142,91774,1,0,0:0:0:0:
298,122,91899,1,0,0:0:0:0:
299,121,92149,1,0,0:0:0:0:
299,117,92399,1,0,0:0:0:0:
288,113,92649,1,8,0:0:0:0:
288,113,92774,1,0,0:0:0:0:
286,111,93149,1,0,0:0:0:0:
286,111,93399,1,0,0:0:0:0:
288,113,93649,1,8,0:0:0:0:
286,111,94149,1,0,0:0:0:0:
286,111,94399,1,0,0:0:0:0:
288,113,94649,1,8,0:0:0:0:
286,111,94774,1,0,0:0:0:0:
286,111,94899,1,0,0:0:0:0:
278,112,95149,1,0,0:0:0:0:
278,112,95399,1,0,0:0:0:0:
278,112,95649,1,8,0:0:0:0:
286,111,95774,1,0,0:0:0:0:
272,101,96149,1,0,0:0:0:0:
272,101,96399,1,0,0:0:0:0:
272,101,96524,1,0,0:0:0:0:
272,101,96649,1,8,0:0:0:0:
276,104,96774,1,0,0:0:0:0:
272,101,96899,1,8,0:0:0:0:
272,101,97024,1,0,0:0:0:0:
276,91,97149,1,8,0:0:0:0:
276,92,97399,1,0,0:0:0:0:
276,92,97524,1,0,0:0:0:0:
276,92,97649,1,8,0:0:0:0:
274,91,97899,1,0,0:0:0:0:
274,93,98024,1,0,0:0:0:0:
276,92,98274,1,8,0:0:0:0:
276,92,98399,1,0,0:0:0:0:
276,92,98524,1,0,0:0:0:0:
276,92,98649,1,8,0:0:0:0:
281,73,98774,1,8,0:0:0:0:
281,74,98899,1,0,0:0:0:0:
280,88,99024,1,0,0:0:0:0:
276,92,99149,1,8,0:0:0:0:
303,106,99399,1,0,0:0:0:0:
305,104,99524,1,0,0:0:0:0:
285,95,99649,1,8,0:0:0:0:
301,93,99774,1,8,0:0:0:0:
301,93,99899,1,0,0:0:0:0:
292,93,100024,1,8,0:0:0:0:
306,105,100149,1,8,0:0:0:0:
297,89,100399,1,0,0:0:0:0:
297,80,100649,1,8,0:0:0:0:
301,93,100899,1,0,0:0:0:0:
289,87,101149,1,8,0:0:0:0:
289,87,101399,1,0,0:0:0:0:
297,80,101524,1,0,0:0:0:0:
285,80,101649,1,8,0:0:0:0:
283,79,101899,1,0,0:0:0:0:
283,79,102024,1,0,0:0:0:0:
283,79,102274,1,8,0:0:0:0:
283,75,102399,1,0,0:0:0:0:
283,75,102524,1,0,0:0:0:0:
285,80,102649,1,8,0:0:0:0:
283,79,102774,1,8,0:0:0:0:
283,79,102899,1,0,0:0:0:0:
306,74,103024,1,0,0:0:0:0:
296,73,103149,1,8,0:0:0:0:
313,89,103399,1,0,0:0:0:0:
313,88,103524,1,0,0:0:0:0:
324,90,103649,1,8,0:0:0:0:
324,90,103774,1,8,0:0:0:0:
324,90,103899,1,0,0:0:0:0:
324,90,104024,1,8,0:0:0:0:
322,89,104149,1,8,0:0:0:0:
312,62,104399,1,0,0:0:0:0:
329,79,104649,1,8,0:0:0:0:
329,79,104899,1,8,0:0:0:0:
328,77,105024,1,8,0:0:0:0:
327,77,105149,1,8,0:0:0:0:
327,76,105399,1,0,0:0:0:0:
329,79,105524,1,0,0:0:0:0:
329,79,105649,1,8,0:0:0:0:
322,75,105774,1,0,0:0:0:0:
322,75,105899,1,8,0:0:0:0:
328,77,106024,1,0,0:0:0:0:
336,64,106149,1,8,0:0:0:0:
320,78,106399,1,0,0:0:0:0:
329,79,106524,1,0,0:0:0:0:
329,79,106649,1,8,0:0:0:0:
322,75,106774,1,8,0:0:0:0:
322,75,106899,1,0,0:0:0:0:
328,77,107024,1,8,0:0:0:0:
326,75,107149,1,8,0:0:0:0:
320,78,107399,1,0,0:0:0:0:
315,80,107524,1,0,0:0:0:0:
314,81,107649,1,8,0:0:0:0:
314,81,107774,1,8,0:0:0:0:
314,82,107899,1,0,0:0:0:0:
314,82,108024,1,0,0:0:0:0:
314,82,108149,1,8,0:0:0:0:
320,66,108399,1,0,0:0:0:0:
320,66,108649,1,8,0:0:0:0:
320,66,108899,1,0,0:0:0:0:
289,81,109149,1,8,0:0:0:0:
297,81,109399,1,0,0:0:0:0:
314,75,109524,1,8,0:0:0:0:
303,79,109649,1,8,0:0:0:0:
303,79,109774,1,0,0:0:0:0:
313,85,109899,1,8,0:0:0:0:
313,80,110024,1,0,0:0:0:0:
313,80,110149,1,8,0:0:0:0:
311,81,110399,1,0,0:0:0:0:
314,75,110524,1,8,0:0:0:0:
303,79,110649,1,8,0:0:0:0:
303,79,110774,1,8,0:0:0:0:
306,73,110899,1,0,0:0:0:0:
306,73,111024,1,0,0:0:0:0:
305,72,111149,1,8,0:0:0:0:
304,70,111399,1,0,0:0:0:0:
304,70,111524,1,8,0:0:0:0:
304,70,111649,1,8,0:0:0:0:
303,70,111774,1,0,0:0:0:0:
306,73,111899,1,0,0:0:0:0:
306,73,112024,1,8,0:0:0:0:
305,72,112149,1,8,0:0:0:0:
304,70,112399,1,0,0:0:0:0:
304,70,112649,1,8,0:0:0:0:
306,73,112899,1,8,0:0:0:0:
306,73,113024,1,8,0:0:0:0:
305,72,113149,1,0,0:0:0:0:
270,108,113399,1,8,0:0:0:0:
283,114,113524,1,0,0:0:0:0:
284,114,113586,1,0,0:0:0:0:
284,114,113649,1,8,0:0:0:0:
285,114,113774,1,0,0:0:0:0:
278,93,113899,1,8,0:0:0:0:
275,96,114024,1,8,0:0:0:0:
314,83,114149,1,0,0:0:0:0:
314,83,114274,1,8,0:0:0:0:
314,83,114399,1,0,0:0:0:0:
314,83,114524,1,0,0:0:0:0:
307,80,114649,1,8,0:0:0:0:
307,80,114711,1,8,0:0:0:0:
307,80,114774,1,8,0:0:0:0:
307,80,114899,1,0,0:0:0:0:
307,79,115024,1,0,0:0:0:0:
307,79,115149,1,8,0:0:0:0:
289,97,115399,1,0,0:0:0:0:
297,78,115524,1,0,0:0:0:0:
307,80,115586,1,0,0:0:0:0:
297,78,115649,1,8,0:0:0:0:
307,80,115774,1,8,0:0:0:0:
307,80,115899,1,0,0:0:0:0:
307,79,116024,1,0,0:0:0:0:
297,83,116149,1,8,0:0:0:0:
291,80,116399,1,4,0:0:0:0:
297,78,116649,1,4,0:0:0:0:
291,80,116899,1,4,0:0:0:0:
290,79,117149,1,8,0:0:0:0:
283,85,117399,1,0,0:0:0:0:
285,85,117524,1,0,0:0:0:0:
285,85,117649,1,8,0:0:0:0:
285,85,117711,1,8,0:0:0:0:
284,85,117774,1,0,0:0:0:0:
284,85,117899,1,8,0:0:0:0:
284,85,118024,1,8,0:0:0:0:
284,85,118149,1,0,0:0:0:0:
283,85,118274,1,8,0:0:0:0:
283,85,118399,1,0,0:0:0:0:
285,85,118524,1,0,0:0:0:0:
285,85,118649,1,8,0:0:0:0:
285,85,118711,1,0,0:0:0:0:
284,85,118774,1,8,0:0:0:0:
284,85,118899,1,0,0:0:0:0:
275,83,119024,1,0,0:0:0:0:
275,83,119149,1,8,0:0:0:0:
283,85,119399,1,8,0:0:0:0:
280,75,119524,1,0,0:0:0:0:
280,75,119649,1,8,0:0:0:0:
293,74,119711,1,8,0:0:0:0:
293,74,119774,1,0,0:0:0:0:
281,70,119899,1,8,0:0:0:0:
280,70,120024,1,0,0:0:0:0:
286,69,120149,1,8,0:0:0:0:
287,70,120399,1,4,0:0:0:0:
287,70,120649,1,4,0:0:0:0:
281,70,120899,1,4,0:0:0:0:
286,69,121149,1,8,0:0:0:0:
287,70,121399,1,8,0:0:0:0:
287,70,121524,1,0,0:0:0:0:
287,70,121586,1,8,0:0:0:0:
287,70,121649,1,0,0:0:0:0:
281,70,121774,1,8,0:0:0:0:
281,70,121899,1,8,0:0:0:0:
281,79,121961,1,8,0:0:0:0:
281,60,122024,1,0,0:0:0:0:
282,60,122149,1,0,0:0:0:0:
284,60,122399,1,8,0:0:0:0:
284,60,122524,1,0,0:0:0:0:
284,60,122586,1,0,0:0:0:0:
284,60,122649,1,8,0:0:0:0:
285,61,122774,1,8,0:0:0:0:
285,61,122899,1,0,0:0:0:0:
297,76,122961,1,0,0:0:0:0:
281,60,123024,1,8,0:0:0:0:
282,60,123149,1,0,0:0:0:0:
284,60,123399,1,8,0:0:0:0:
284,60,123524,1,0,0:0:0:0:
284,60,123586,1,8,0:0:0:0:
303,63,123649,1,8,0:0:0:0:
301,60,123774,1,0,0:0:0:0:
297,76,123899,1,8,0:0:0:0:
297,76,123961,1,0,0:0:0:0:
301,60,124024,1,8,0:0:0:0:
301,60,124149,1,0,0:0:0:0:
301,60,124399,1,12,0:0:0:0:
303,63,124649,1,12,0:0:0:0:
301,60,124899,1,12,0:0:0:0:
292,86,125149,1,8,0:0:0:0:
287,90,125399,1,0,0:0:0:0:
284,58,125524,1,8,0:0:0:0:
288,68,125586,1,0,0:0:0:0:
285,75,125649,1,8,0:0:0:0:
285,58,125774,1,0,0:0:0:0:
285,58,125899,1,8,0:0:0:0:
297,76,125961,1,8,0:0:0:0:
285,74,126024,1,0,0:0:0:0:
285,74,126149,1,8,0:0:0:0:
283,60,126399,1,8,0:0:0:0:
284,58,126524,1,0,0:0:0:0:
288,68,126586,1,0,0:0:0:0:
276,91,126649,1,8,0:0:0:0:
285,58,126774,1,8,0:0:0:0:
292,73,126899,1,0,0:0:0:0:
297,76,126961,1,8,0:0:0:0:
292,73,127024,1,0,0:0:0:0:
285,74,127149,1,8,0:0:0:0:
291,64,127399,1,0,0:0:0:0:
281,69,127524,1,8,0:0:0:0:
281,69,127586,1,8,0:0:0:0:
281,69,127649,1,0,0:0:0:0:
294,74,127774,1,0,0:0:0:0:
280,69,127899,1,8,0:0:0:0:
297,76,127961,1,8,0:0:0:0:
297,76,128024,1,8,0:0:0:0:
285,74,128149,1,0,0:0:0:0:
271,137,128399,1,12,0:0:0:0:
271,137,128649,1,12,0:0:0:0:
271,137,128899,1,12,0:0:0:0:
272,129,129149,1,8,0:0:0:0:
267,126,129399,1,0,0:0:0:0:
266,125,129461,1,0,0:0:0:0:
266,124,129524,1,0,0:0:0:0:
266,125,129649,1,8,0:0:0:0:
266,125,129774,1,0,0:0:0:0:
266,125,129899,1,8,0:0:0:0:
266,125,130024,1,8,0:0:0:0:
266,124,130149,1,0,0:0:0:0:
267,126,130399,1,0,0:0:0:0:
281,129,130524,1,8,0:0:0:0:
282,127,130649,1,8,0:0:0:0:
293,106,130711,1,8,0:0:0:0:
294,138,130774,1,0,0:0:0:0:
294,100,130899,1,8,0:0:0:0:
298,102,131024,1,0,0:0:0:0:
293,103,131149,1,0,0:0:0:0:
280,106,131399,1,8,0:0:0:0:
290,105,131524,1,0,0:0:0:0:
290,104,131586,1,0,0:0:0:0:
290,105,131649,1,8,0:0:0:0:
294,100,131774,1,0,0:0:0:0:
294,100,131899,1,8,0:0:0:0:
281,109,132024,1,8,0:0:0:0:
281,109,132149,1,0,0:0:0:0:
290,106,132399,1,4,0:0:0:0:
290,105,132649,1,4,0:0:0:0:
290,106,132899,1,4,0:0:0:0:
318,90,133399,1,8,0:0:0:0:
318,90,133899,1,8,0:0:0:0:
318,90,134399,1,8,0:0:0:0:
318,90,134899,1,8,0:0:0:0:
318,90,135399,1,8,0:0:0:0:
318,90,135899,1,8,0:0:0:0:
309,100,136149,1,8,0:0:0:0:
306,97,136211,1,8,0:0:0:0:
289,93,136399,1,4,0:0:0:0:
289,93,136649,1,4,0:0:0:0:
289,93,136899,1,4,0:0:0:0:
300,102,137149,1,12,0:0:0:0:
292,106,137399,1,0,0:0:0:0:
298,118,137524,1,8,0:0:0:0:
301,113,137649,1,0,0:0:0:0:
301,113,137711,1,8,0:0:0:0:
301,113,137774,1,0,0:0:0:0:
301,113,137899,1,8,0:0:0:0:
301,113,138024,1,8,0:0:0:0:
311,120,138149,1,0,0:0:0:0:
302,129,138274,1,0,0:0:0:0:
301,129,138336,1,0,0:0:0:0:
300,128,138399,1,8,0:0:0:0:
300,128,138524,1,0,0:0:0:0:
300,128,138649,1,8,0:0:0:0:
296,126,138711,1,8,0:0:0:0:
296,126,138774,1,0,0:0:0:0:
306,122,138899,1,8,0:0:0:0:
302,117,139149,1,0,0:0:0:0:
303,117,139399,1,8,0:0:0:0:
303,117,139524,1,0,0:0:0:0:
303,117,139586,1,8,0:0:0:0:
303,118,139774,1,0,0:0:0:0:
306,122,139899,1,8,0:0:0:0:
302,117,140024,1,8,0:0:0:0:
302,117,140149,1,0,0:0:0:0:
315,118,140399,1,12,0:0:0:0:
315,118,140649,1,12,0:0:0:0:
314,118,140899,1,12,0:0:0:0:
304,165,141149,1,0,0:0:0:0:
304,165,141336,1,0,0:0:0:0:
304,157,141524,1,8,0:0:0:0:
314,118,141711,1,0,0:0:0:0:
314,118,141899,1,8,0:0:0:0:
314,118,141961,1,8,0:0:0:0:
314,118,142024,1,8,0:0:0:0:
306,112,142149,1,0,0:0:0:0:
296,108,142274,1,0,0:0:0:0:
296,108,142399,1,8,0:0:0:0:
296,108,142524,1,0,0:0:0:0:
296,108,142586,1,0,0:0:0:0:
296,108,142649,1,8,0:0:0:0:
296,108,142774,1,8,0:0:0:0:
296,108,142899,1,0,0:0:0:0:
296,108,142961,1,0,0:0:0:0:
296,108,143024,1,0,0:0:0:0:
291,110,143149,1,8,0:0:0:0:
305,82,143399,1,8,0:0:0:0:
305,92,143482,1,8,0:0:0:0:
301,90,143565,1,8,0:0:0:0:
308,94,143649,1,0,0:0:0:0:
295,88,143774,1,0,0:0:0:0:
295,90,143899,1,8,0:0:0:0:
295,88,144024,1,0,0:0:0:0:
295,88,144086,1,0,0:0:0:0:
295,88,144149,1,8,0:0:0:0:
334,122,144399,1,4,0:0:0:0:
334,122,144649,1,12,0:0:0:0:
334,122,144899,1,4,0:0:0:0:
324,112,145149,1,0,0:0:0:0:
325,111,145274,1,0,0:0:0:0:
328,110,145336,1,0,0:0:0:0:
328,110,145399,1,8,0:0:0:0:
328,110,145524,1,8,0:0:0:0:
325,109,145649,1,0,0:0:0:0:
315,110,145774,1,8,0:0:0:0:
316,110,145836,1,8,0:0:0:0:
326,108,145899,1,0,0:0:0:0:
324,112,146024,1,8,0:0:0:0:
311,112,146149,1,0,0:0:0:0:
318,107,146274,1,8,0:0:0:0:
314,103,146399,1,0,0:0:0:0:
325,109,146649,1,0,0:0:0:0:
314,107,146774,1,8,0:0:0:0:
314,107,146836,1,8,0:0:0:0:
314,107,146899,1,0,0:0:0:0:
315,107,147024,1,0,0:0:0:0:
311,112,147149,1,0,0:0:0:0:
314,103,147399,1,8,0:0:0:0:
316,93,147524,1,0,0:0:0:0:
312,90,147649,1,0,0:0:0:0:
312,91,147711,1,0,0:0:0:0:
309,95,147774,1,0,0:0:0:0:
309,95,147899,1,8,0:0:0:0:
309,93,148274,1,8,0:0:0:0:
334,115,148399,1,12,0:0:0:0:
334,115,148649,1,12,0:0:0:0:
334,115,148899,1,12,0:0:0:0:
325,88,149149,1,0,0:0:0:0:
326,92,149274,1,0,0:0:0:0:
326,92,149336,1,0,0:0:0:0:
326,92,149399,1,8,0:0:0:0:
326,92,149524,1,0,0:0:0:0:
326,92,149649,1,8,0:0:0:0:
332,90,149711,1,0,0:0:0:0:
332,90,149774,1,8,0:0:0:0:
331,91,149899,1,0,0:0:0:0:
330,99,150024,1,8,0:0:0:0:
330,99,150149,1,0,0:0:0:0:
344,92,150211,1,0,0:0:0:0:
344,92,150274,1,8,0:0:0:0:
343,93,150399,1,0,0:0:0:0:
343,93,150524,1,8,0:0:0:0:
325,80,150774,1,0,0:0:0:0:
331,91,150899,1,8,0:0:0:0:
341,93,150961,1,8,0:0:0:0:
326,87,151149,1,0,0:0:0:0:
335,83,151274,1,8,0:0:0:0:
335,83,151336,1,8,0:0:0:0:
335,83,151399,1,0,0:0:0:0:
326,91,151524,1,8,0:0:0:0:
326,91,151649,1,0,0:0:0:0:
326,91,151774,1,0,0:0:0:0:
331,91,151899,1,0,0:0:0:0:
326,87,152024,1,8,0:0:0:0:
326,87,152149,1,8,0:0:0:0:
330,90,152274,1,8,0:0:0:0:
331,88,152399,1,4,0:0:0:0:
331,88,152649,1,4,0:0:0:0:
331,88,152899,1,4,0:0:0:0:
319,91,153149,1,4,0:0:0:0:
319,91,153399,1,4,0:0:0:0:
319,91,153649,1,4,0:0:0:0:
