osu file format v14

[General]
AudioFilename: audio.mp3
AudioLeadIn: 0
PreviewTime: 34292
Countdown: 0
SampleSet: Normal
StackLeniency: 0.7
Mode: 1
LetterboxInBreaks: 0
WidescreenStoryboard: 0

[Editor]
DistanceSpacing: 1.2
BeatDivisor: 4
GridSize: 32
TimelineZoom: 3.499999

[Metadata]
Title:Chik Habit
TitleUnicode:Chik Habit
Artist:The Flashbulb
ArtistUnicode:The Flashbulb
Creator:incandescence
Version:Hell Oni
Source:osu!
Tags:taikocracy nyanners- nanners Raichael yuno Nifty Raiden breakcore benn jordan flexing habitual featured artist fa
BeatmapID:1733133
BeatmapSetID:827049

[Difficulty]
HPDrainRate:6
CircleSize:2
OverallDifficulty:7
ApproachRate:10
SliderMultiplier:1.4
SliderTickRate:1

[Events]
//Background and Video events
0,0,"995597-popular-light-bulb-wallpapers-1920x1080-for-mobile-hd.jpg",0,0
//Break Periods
//Storyboard Layer 0 (Background)
//Storyboard Layer 1 (Fail)
//Storyboard Layer 2 (Pass)
//Storyboard Layer 3 (Foreground)
//Storyboard Sound Samples

[TimingPoints]
2292,285.714285714286,4,1,0,100,1,0
34292,-100,4,1,0,100,0,1
38006,-66.6666666666667,4,1,0,100,0,1
38863,-100,4,1,0,100,0,1
42577,-66.6666666666667,4,1,0,100,0,1
43434,-100,4,1,0,100,0,1
47149,-66.6666666666667,4,1,0,100,0,1
48006,-100,4,1,0,100,0,1
51720,-66.6666666666667,4,1,0,100,0,1
52577,-100,4,1,0,100,0,0
56149,-71.4285714285714,4,1,0,100,0,0
56220,-68.9655172413793,4,1,0,100,0,0
56292,-66.6666666666667,4,1,0,100,0,0
57149,-100,4,1,0,100,0,0
60863,-66.6666666666667,4,1,0,100,0,0
61720,-100,4,1,0,100,0,1
65434,-66.6666666666667,4,1,0,100,0,1
66292,-100,4,1,0,100,0,1
70006,-66.6666666666667,4,1,0,100,0,1
70863,-100,4,1,0,100,0,0
89149,250,4,1,0,100,1,0
113149,-100,4,1,0,100,0,1
116399,-66.6666666666667,4,1,0,100,0,1
117149,-100,4,1,0,100,0,1
120399,-66.6666666666667,4,1,0,100,0,1
121149,-100,4,1,0,100,0,1
124399,-66.6666666666667,4,1,0,100,0,1
125149,-100,4,1,0,100,0,1
128399,-66.6666666666667,4,1,0,100,0,1
129149,-100,4,1,0,100,0,0
132399,-66.6666666666667,4,1,0,100,0,0
133149,-100,4,1,0,100,0,0
136399,-66.6666666666667,4,1,0,100,0,0
137149,-100,4,1,0,100,0,0
152399,-90.9090909090909,4,1,0,100,0,0
152649,-83.3333333333333,4,1,0,100,0,0
152899,-76.9230769230769,4,1,0,100,0,0
153149,-71.4285714285714,4,1,0,100,0,0
153399,-66.6666666666667,4,1,0,100,0,0
153649,-62.5,4,1,0,100,0,0

[HitObjects]
256,192,2292,5,0,0:0:0:0:
256,192,2863,1,0,0:0:0:0:
256,192,3434,1,0,0:0:0:0:
256,192,4006,1,0,0:0:0:0:
256,192,4577,1,0,0:0:0:0:
256,192,5149,1,0,0:0:0:0:
256,192,5720,1,0,0:0:0:0:
256,192,6292,1,0,0:0:0:0:
256,192,6863,1,0,0:0:0:0:
256,192,7149,1,0,0:0:0:0:
256,192,7292,1,0,0:0:0:0:
256,192,7434,1,8,0:0:0:0:
256,192,7720,1,8,0:0:0:0:
256,192,7863,1,0,0:0:0:0:
256,192,8006,1,8,0:0:0:0:
256,192,8149,1,8,0:0:0:0:
256,192,8292,1,0,0:0:0:0:
256,192,8577,1,8,0:0:0:0:
256,192,8863,1,0,0:0:0:0:
256,192,9149,1,0,0:0:0:0:
256,192,9434,1,0,0:0:0:0:
256,192,9577,1,0,0:0:0:0:
256,192,9720,1,8,0:0:0:0:
256,192,10006,1,0,0:0:0:0:
256,192,10149,1,0,0:0:0:0:
256,192,10292,1,0,0:0:0:0:
256,192,10434,1,8,0:0:0:0:
256,192,10577,1,0,0:0:0:0:
256,192,10863,1,8,0:0:0:0:
256,192,11149,1,0,0:0:0:0:
256,192,11434,1,0,0:0:0:0:
256,192,11720,1,0,0:0:0:0:
256,192,11863,1,0,0:0:0:0:
256,192,12006,1,8,0:0:0:0:
256,192,12292,1,0,0:0:0:0:
256,192,12577,1,8,0:0:0:0:
256,192,12720,1,8,0:0:0:0:
256,192,12863,1,0,0:0:0:0:
256,192,13149,1,8,0:0:0:0:
256,192,13434,1,0,0:0:0:0:
256,192,13720,1,0,0:0:0:0:
256,192,14006,1,0,0:0:0:0:
256,192,14149,1,0,0:0:0:0:
256,192,14292,1,8,0:0:0:0:
256,192,14577,1,0,0:0:0:0:
256,192,14720,1,0,0:0:0:0:
256,192,14863,1,8,0:0:0:0:
256,192,15006,1,8,0:0:0:0:
256,192,15149,1,0,0:0:0:0:
256,192,15292,1,0,0:0:0:0:
256,192,15434,1,8,0:0:0:0:
256,192,16006,1,8,0:0:0:0:
256,192,16292,1,0,0:0:0:0:
256,192,16434,1,0,0:0:0:0:
256,192,16577,1,8,0:0:0:0:
256,192,16863,1,0,0:0:0:0:
256,192,17006,1,8,0:0:0:0:
256,192,17292,1,0,0:0:0:0:
256,192,17434,1,8,0:0:0:0:
256,192,17577,1,8,0:0:0:0:
256,192,17720,1,0,0:0:0:0:
256,192,17863,1,0,0:0:0:0:
256,192,18006,1,8,0:0:0:0:
256,192,18149,1,8,0:0:0:0:
256,192,18292,1,0,0:0:0:0:
256,192,18577,1,8,0:0:0:0:
256,192,18720,1,8,0:0:0:0:
256,192,18863,1,0,0:0:0:0:
256,192,19149,1,0,0:0:0:0:
256,192,19292,1,0,0:0:0:0:
256,192,19434,1,8,0:0:0:0:
256,192,19720,1,0,0:0:0:0:
256,192,20006,1,8,0:0:0:0:
256,192,20292,1,0,0:0:0:0:
256,192,20577,1,8,0:0:0:0:
256,192,20863,1,8,0:0:0:0:
256,192,21006,1,8,0:0:0:0:
256,192,21149,1,0,0:0:0:0:
256,192,21434,1,8,0:0:0:0:
256,192,21577,1,0,0:0:0:0:
256,192,21863,1,0,0:0:0:0:
256,192,22006,1,8,0:0:0:0:
256,192,22149,1,8,0:0:0:0:
256,192,22292,1,0,0:0:0:0:
256,192,22434,1,8,0:0:0:0:
256,192,22577,1,0,0:0:0:0:
256,192,22720,1,0,0:0:0:0:
256,192,22863,1,8,0:0:0:0:
256,192,23149,1,8,0:0:0:0:
256,192,23292,1,0,0:0:0:0:
256,192,23434,1,8,0:0:0:0:
256,192,23577,1,8,0:0:0:0:
256,192,23720,1,0,0:0:0:0:
256,192,23863,1,8,0:0:0:0:
256,192,24006,1,0,0:0:0:0:
256,192,24292,1,8,0:0:0:0:
256,192,24577,1,0,0:0:0:0:
256,192,24863,1,8,0:0:0:0:
256,192,25149,1,0,0:0:0:0:
256,192,25434,1,8,0:0:0:0:
256,192,25577,1,8,0:0:0:0:
256,192,25720,1,0,0:0:0:0:
256,192,25863,1,0,0:0:0:0:
256,192,26006,1,8,0:0:0:0:
256,192,26149,1,8,0:0:0:0:
256,192,26292,1,0,0:0:0:0:
256,192,26577,1,8,0:0:0:0:
256,192,26720,1,0,0:0:0:0:
256,192,26863,1,8,0:0:0:0:
256,192,27006,1,8,0:0:0:0:
256,192,27149,1,0,0:0:0:0:
256,192,27292,1,8,0:0:0:0:
256,192,27434,1,0,0:0:0:0:
256,192,27720,1,8,0:0:0:0:
256,192,27863,1,0,0:0:0:0:
256,192,28006,1,8,0:0:0:0:
256,192,28149,1,8,0:0:0:0:
256,192,28292,1,0,0:0:0:0:
256,192,28434,1,0,0:0:0:0:
256,192,28577,1,8,0:0:0:0:
256,192,28863,1,0,0:0:0:0:
256,192,29149,1,8,0:0:0:0:
256,192,29434,1,0,0:0:0:0:
256,192,29720,1,8,0:0:0:0:
256,192,30006,1,8,0:0:0:0:
256,192,30149,1,0,0:0:0:0:
256,192,30292,1,8,0:0:0:0:
256,192,30434,1,0,0:0:0:0:
256,192,30577,1,8,0:0:0:0:
256,192,30720,1,8,0:0:0:0:
256,192,30863,1,0,0:0:0:0:
256,192,31149,1,8,0:0:0:0:
256,192,31292,1,8,0:0:0:0:
256,192,31434,1,0,0:0:0:0:
256,192,31577,1,8,0:0:0:0:
256,192,31720,1,0,0:0:0:0:
256,192,31863,1,0,0:0:0:0:
256,192,32006,1,8,0:0:0:0:
256,192,32292,1,0,0:0:0:0:
256,192,32434,1,8,0:0:0:0:
256,192,32577,1,0,0:0:0:0:
256,192,32720,1,8,0:0:0:0:
256,192,32863,1,0,0:0:0:0:
256,192,33006,1,0,0:0:0:0:
256,192,33149,1,8,0:0:0:0:
256,192,33434,1,0,0:0:0:0:
256,192,33720,1,8,0:0:0:0:
256,192,34292,1,4,0:0:0:0:
256,192,34434,1,0,0:0:0:0:
256,192,34577,1,8,0:0:0:0:
256,192,34720,1,8,0:0:0:0:
256,192,34792,1,8,0:0:0:0:
256,192,34863,1,0,0:0:0:0:
256,192,34934,1,0,0:0:0:0:
256,192,35006,1,8,0:0:0:0:
256,192,35077,1,0,0:0:0:0:
256,192,35149,1,8,0:0:0:0:
256,192,35196,1,8,0:0:0:0:
256,192,35244,1,8,0:0:0:0:
256,192,35292,1,0,0:0:0:0:
256,192,35363,1,0,0:0:0:0:
256,192,35434,1,8,0:0:0:0:
256,192,35577,1,8,0:0:0:0:
256,192,35720,1,0,0:0:0:0:
256,192,35792,1,0,0:0:0:0:
256,192,35863,1,8,0:0:0:0:
256,192,35934,1,0,0:0:0:0:
256,192,36006,1,8,0:0:0:0:
256,192,36077,1,8,0:0:0:0:
256,192,36149,1,8,0:0:0:0:
256,192,36220,1,8,0:0:0:0:
256,192,36292,1,0,0:0:0:0:
256,192,36339,1,0,0:0:0:0:
256,192,36387,1,0,0:0:0:0:
256,192,36434,1,8,0:0:0:0:
256,192,36506,1,8,0:0:0:0:
256,192,36577,1,0,0:0:0:0:
256,192,36720,1,8,0:0:0:0:
256,192,36792,1,0,0:0:0:0:
256,192,36863,1,8,0:0:0:0:
256,192,37006,1,0,0:0:0:0:
256,192,37077,1,0,0:0:0:0:
256,192,37149,1,8,0:0:0:0:
256,192,37220,1,8,0:0:0:0:
256,192,37292,1,0,0:0:0:0:
256,192,37363,1,8,0:0:0:0:
256,192,37434,1,0,0:0:0:0:
256,192,37577,1,0,0:0:0:0:
256,192,37720,1,8,0:0:0:0:
256,192,38006,1,4,0:0:0:0:
256,192,38292,1,4,0:0:0:0:
256,192,38577,1,4,0:0:0:0:
256,192,38863,1,0,0:0:0:0:
256,192,39006,1,0,0:0:0:0:
256,192,39149,1,8,0:0:0:0:
256,192,39220,1,8,0:0:0:0:
256,192,39292,1,0,0:0:0:0:
256,192,39363,1,0,0:0:0:0:
256,192,39434,1,8,0:0:0:0:
256,192,39506,1,0,0:0:0:0:
256,192,39577,1,8,0:0:0:0:
256,192,39649,1,8,0:0:0:0:
256,192,39720,1,0,0:0:0:0:
256,192,39768,1,0,0:0:0:0:
256,192,39815,1,0,0:0:0:0:
256,192,39863,1,8,0:0:0:0:
256,192,39934,1,8,0:0:0:0:
256,192,40006,1,0,0:0:0:0:
256,192,40149,1,0,0:0:0:0:
256,192,40220,1,0,0:0:0:0:
256,192,40292,1,8,0:0:0:0:
256,192,40434,1,8,0:0:0:0:
256,192,40506,1,8,0:0:0:0:
256,192,40577,1,0,0:0:0:0:
256,192,40649,1,8,0:0:0:0:
256,192,40720,1,0,0:0:0:0:
256,192,40792,1,0,0:0:0:0:
256,192,40863,1,8,0:0:0:0:
256,192,40911,1,8,0:0:0:0:
256,192,40958,1,8,0:0:0:0:
256,192,41006,1,0,0:0:0:0:
256,192,41077,1,0,0:0:0:0:
256,192,41149,1,8,0:0:0:0:
256,192,41292,1,0,0:0:0:0:
256,192,41363,1,0,0:0:0:0:
256,192,41434,1,8,0:0:0:0:
256,192,41506,1,0,0:0:0:0:
256,192,41577,1,8,0:0:0:0:
256,192,41649,1,8,0:0:0:0:
256,192,41720,1,0,0:0:0:0:
256,192,41792,1,8,0:0:0:0:
256,192,41863,1,0,0:0:0:0:
256,192,41934,1,0,0:0:0:0:
256,192,42006,1,8,0:0:0:0:
256,192,42042,1,8,0:0:0:0:
256,192,42149,1,8,0:0:0:0:
256,192,42184,1,8,0:0:0:0:
256,192,42292,1,0,0:0:0:0:
256,192,42577,1,4,0:0:0:0:
256,192,42863,1,4,0:0:0:0:
256,192,43149,1,4,0:0:0:0:
256,192,43434,1,8,0:0:0:0:
256,192,43720,1,8,0:0:0:0:
256,192,43792,1,0,0:0:0:0:
256,192,43863,1,8,0:0:0:0:
256,192,43934,1,8,0:0:0:0:
256,192,44006,1,0,0:0:0:0:
256,192,44077,1,0,0:0:0:0:
256,192,44149,1,8,0:0:0:0:
256,192,44220,1,0,0:0:0:0:
256,192,44292,1,8,0:0:0:0:
256,192,44339,1,8,0:0:0:0:
256,192,44387,1,8,0:0:0:0:
256,192,44434,1,0,0:0:0:0:
256,192,44506,1,0,0:0:0:0:
256,192,44577,1,8,0:0:0:0:
256,192,44720,1,0,0:0:0:0:
256,192,44792,1,0,0:0:0:0:
256,192,44863,1,8,0:0:0:0:
256,192,45006,1,8,0:0:0:0:
256,192,45077,1,8,0:0:0:0:
256,192,45149,1,0,0:0:0:0:
256,192,45220,1,8,0:0:0:0:
256,192,45292,1,0,0:0:0:0:
256,192,45363,1,0,0:0:0:0:
256,192,45434,1,8,0:0:0:0:
256,192,45506,1,8,0:0:0:0:
256,192,45577,1,0,0:0:0:0:
256,192,45720,1,8,0:0:0:0:
256,192,45792,1,8,0:0:0:0:
256,192,45863,1,0,0:0:0:0:
256,192,45934,1,0,0:0:0:0:
256,192,46006,1,8,0:0:0:0:
256,192,46113,1,8,0:0:0:0:
256,192,46220,1,8,0:0:0:0:
256,192,46327,1,0,0:0:0:0:
256,192,46434,1,0,0:0:0:0:
256,192,46506,1,0,0:0:0:0:
256,192,46577,1,8,0:0:0:0:
256,192,46649,1,0,0:0:0:0:
256,192,46720,1,8,0:0:0:0:
256,192,46863,1,0,0:0:0:0:
256,192,47149,1,12,0:0:0:0:
256,192,47434,1,12,0:0:0:0:
256,192,47720,1,12,0:0:0:0:
256,192,48006,1,8,0:0:0:0:
256,192,48149,1,0,0:0:0:0:
256,192,48220,1,0,0:0:0:0:
256,192,48292,1,8,0:0:0:0:
256,192,48434,1,0,0:0:0:0:
256,192,48577,1,8,0:0:0:0:
256,192,48649,1,0,0:0:0:0:
256,192,48720,1,8,0:0:0:0:
256,192,48792,1,8,0:0:0:0:
256,192,48863,1,0,0:0:0:0:
256,192,48911,1,0,0:0:0:0:
256,192,48958,1,0,0:0:0:0:
256,192,49006,1,8,0:0:0:0:
256,192,49077,1,8,0:0:0:0:
256,192,49149,1,0,0:0:0:0:
256,192,49292,1,0,0:0:0:0:
256,192,49363,1,0,0:0:0:0:
256,192,49434,1,8,0:0:0:0:
256,192,49577,1,8,0:0:0:0:
256,192,49649,1,0,0:0:0:0:
256,192,49720,1,8,0:0:0:0:
256,192,49792,1,8,0:0:0:0:
256,192,49863,1,0,0:0:0:0:
256,192,49934,1,0,0:0:0:0:
256,192,50006,1,8,0:0:0:0:
256,192,50149,1,8,0:0:0:0:
256,192,50292,1,0,0:0:0:0:
256,192,50339,1,0,0:0:0:0:
256,192,50387,1,0,0:0:0:0:
256,192,50434,1,8,0:0:0:0:
256,192,50506,1,8,0:0:0:0:
256,192,50577,1,0,0:0:0:0:
256,192,50720,1,8,0:0:0:0:
256,192,50792,1,8,0:0:0:0:
256,192,50863,1,0,0:0:0:0:
256,192,50934,1,8,0:0:0:0:
256,192,51006,1,0,0:0:0:0:
256,192,51077,1,0,0:0:0:0:
256,192,51149,1,8,0:0:0:0:
256,192,51196,1,8,0:0:0:0:
256,192,51244,1,8,0:0:0:0:
256,192,51292,1,0,0:0:0:0:
256,192,51363,1,0,0:0:0:0:
256,192,51434,1,8,0:0:0:0:
256,192,51720,1,4,0:0:0:0:
256,192,52006,1,4,0:0:0:0:
256,192,52292,1,4,0:0:0:0:
256,192,52577,1,0,0:0:0:0:
256,192,52863,1,8,0:0:0:0:
256,192,52934,1,8,0:0:0:0:
256,192,53006,1,0,0:0:0:0:
256,192,53077,1,0,0:0:0:0:
256,192,53149,1,8,0:0:0:0:
256,192,53434,1,0,0:0:0:0:
256,192,53577,1,0,0:0:0:0:
256,192,53720,1,8,0:0:0:0:
256,192,53863,1,0,0:0:0:0:
256,192,53934,1,0,0:0:0:0:
256,192,54006,1,8,0:0:0:0:
256,192,54149,1,0,0:0:0:0:
256,192,54292,1,8,0:0:0:0:
256,192,54363,1,0,0:0:0:0:
256,192,54434,1,0,0:0:0:0:
256,192,54577,1,8,0:0:0:0:
256,192,54720,1,0,0:0:0:0:
256,192,54863,12,0,55863,0:0:0:0:
256,192,56006,5,0,0:0:0:0:
256,192,56149,1,8,0:0:0:0:
256,192,56220,1,8,0:0:0:0:
256,192,56292,1,4,0:0:0:0:
256,192,56577,1,4,0:0:0:0:
256,192,56863,1,4,0:0:0:0:
256,192,57149,1,0,0:0:0:0:
256,192,57720,1,0,0:0:0:0:
256,192,58292,1,12,0:0:0:0:
256,192,58863,1,0,0:0:0:0:
256,192,59434,1,8,0:0:0:0:
256,192,60006,1,0,0:0:0:0:
256,192,60577,1,8,0:0:0:0:
256,192,60863,1,4,0:0:0:0:
256,192,61149,1,4,0:0:0:0:
256,192,61434,1,4,0:0:0:0:
256,192,61720,1,0,0:0:0:0:
256,192,61863,1,0,0:0:0:0:
256,192,62006,1,8,0:0:0:0:
256,192,62077,1,8,0:0:0:0:
256,192,62149,1,0,0:0:0:0:
256,192,62220,1,8,0:0:0:0:
256,192,62292,1,0,0:0:0:0:
256,192,62363,1,0,0:0:0:0:
256,192,62434,1,8,0:0:0:0:
256,192,62506,1,0,0:0:0:0:
256,192,62577,1,8,0:0:0:0:
256,192,62613,1,8,0:0:0:0:
256,192,62720,1,8,0:0:0:0:
256,192,62756,1,8,0:0:0:0:
256,192,62863,1,0,0:0:0:0:
256,192,63006,1,8,0:0:0:0:
256,192,63077,1,0,0:0:0:0:
256,192,63149,1,8,0:0:0:0:
256,192,63292,1,0,0:0:0:0:
256,192,63363,1,0,0:0:0:0:
256,192,63434,1,8,0:0:0:0:
256,192,63506,1,8,0:0:0:0:
256,192,63577,1,0,0:0:0:0:
256,192,63649,1,8,0:0:0:0:
256,192,63720,1,0,0:0:0:0:
256,192,63768,1,0,0:0:0:0:
256,192,63815,1,0,0:0:0:0:
256,192,63863,1,8,0:0:0:0:
256,192,64006,1,0,0:0:0:0:
256,192,64149,1,0,0:0:0:0:
256,192,64220,1,0,0:0:0:0:
256,192,64292,1,8,0:0:0:0:
256,192,64434,1,8,0:0:0:0:
256,192,64506,1,8,0:0:0:0:
256,192,64577,1,0,0:0:0:0:
256,192,64649,1,0,0:0:0:0:
256,192,64720,1,8,0:0:0:0:
256,192,64792,1,0,0:0:0:0:
256,192,64863,1,8,0:0:0:0:
256,192,65006,1,8,0:0:0:0:
256,192,65149,1,0,0:0:0:0:
256,192,65434,1,4,0:0:0:0:
256,192,65720,1,12,0:0:0:0:
256,192,66006,1,4,0:0:0:0:
256,192,66292,1,0,0:0:0:0:
256,192,66506,1,0,0:0:0:0:
256,192,66720,1,0,0:0:0:0:
256,192,66934,1,0,0:0:0:0:
256,192,67149,1,8,0:0:0:0:
256,192,67220,1,8,0:0:0:0:
256,192,67292,1,8,0:0:0:0:
256,192,67363,1,8,0:0:0:0:
256,192,67434,1,0,0:0:0:0:
256,192,67577,1,0,0:0:0:0:
256,192,67720,1,8,0:0:0:0:
256,192,67863,1,8,0:0:0:0:
256,192,67934,1,8,0:0:0:0:
256,192,68006,1,0,0:0:0:0:
256,192,68149,1,8,0:0:0:0:
256,192,68292,1,0,0:0:0:0:
256,192,68363,1,0,0:0:0:0:
256,192,68434,1,8,0:0:0:0:
256,192,68577,1,0,0:0:0:0:
256,192,68649,1,0,0:0:0:0:
256,192,68720,1,8,0:0:0:0:
256,192,68792,1,0,0:0:0:0:
256,192,68863,1,8,0:0:0:0:
256,192,68934,1,8,0:0:0:0:
256,192,69006,1,0,0:0:0:0:
256,192,69053,1,0,0:0:0:0:
256,192,69101,1,0,0:0:0:0:
256,192,69149,1,8,0:0:0:0:
256,192,69220,1,8,0:0:0:0:
256,192,69292,1,0,0:0:0:0:
256,192,69363,1,8,0:0:0:0:
256,192,69434,1,0,0:0:0:0:
256,192,69506,1,0,0:0:0:0:
256,192,69577,1,8,0:0:0:0:
256,192,69649,1,8,0:0:0:0:
256,192,69720,1,0,0:0:0:0:
256,192,70006,1,12,0:0:0:0:
256,192,70292,1,12,0:0:0:0:
256,192,70577,1,12,0:0:0:0:
256,192,70863,5,0,0:0:0:0:
256,192,71149,1,8,0:0:0:0:
256,192,71292,1,0,0:0:0:0:
256,192,71434,1,0,0:0:0:0:
256,192,71577,1,8,0:0:0:0:
256,192,71863,1,8,0:0:0:0:
256,192,72006,1,0,0:0:0:0:
256,192,72292,1,8,0:0:0:0:
256,192,72434,1,0,0:0:0:0:
256,192,72577,1,0,0:0:0:0:
256,192,72720,1,8,0:0:0:0:
256,192,73006,1,8,0:0:0:0:
256,192,73149,1,0,0:0:0:0:
256,192,73434,1,8,0:0:0:0:
256,192,73577,1,0,0:0:0:0:
256,192,73720,1,0,0:0:0:0:
256,192,73863,1,8,0:0:0:0:
256,192,74149,1,8,0:0:0:0:
256,192,74292,1,0,0:0:0:0:
256,192,74577,1,8,0:0:0:0:
256,192,74720,1,0,0:0:0:0:
256,192,74863,1,0,0:0:0:0:
256,192,75006,1,8,0:0:0:0:
256,192,75292,1,8,0:0:0:0:
256,192,75434,1,0,0:0:0:0:
256,192,75506,1,0,0:0:0:0:
256,192,75577,1,8,0:0:0:0:
256,192,75720,1,0,0:0:0:0:
256,192,75792,1,0,0:0:0:0:
256,192,75863,1,8,0:0:0:0:
256,192,76006,1,0,0:0:0:0:
256,192,76077,1,0,0:0:0:0:
256,192,76149,1,8,0:0:0:0:
256,192,76292,1,0,0:0:0:0:
256,192,76363,1,0,0:0:0:0:
256,192,76434,1,8,0:0:0:0:
256,192,76577,1,8,0:0:0:0:
256,192,76649,1,0,0:0:0:0:
256,192,76720,1,0,0:0:0:0:
256,192,76863,1,8,0:0:0:0:
256,192,76935,1,0,0:0:0:0:
256,192,77006,1,0,0:0:0:0:
256,192,77149,1,8,0:0:0:0:
256,192,77220,1,0,0:0:0:0:
256,192,77292,1,0,0:0:0:0:
256,192,77435,1,8,0:0:0:0:
256,192,77506,1,0,0:0:0:0:
256,192,77577,1,0,0:0:0:0:
256,192,77720,1,0,0:0:0:0:
256,192,77792,1,0,0:0:0:0:
256,192,77863,1,8,0:0:0:0:
256,192,78006,1,8,0:0:0:0:
256,192,78077,1,8,0:0:0:0:
256,192,78149,1,0,0:0:0:0:
256,192,78292,1,0,0:0:0:0:
256,192,78363,1,0,0:0:0:0:
256,192,78434,1,8,0:0:0:0:
256,192,78577,1,8,0:0:0:0:
256,192,78649,1,0,0:0:0:0:
256,192,78720,1,8,0:0:0:0:
256,192,78863,1,0,0:0:0:0:
256,192,79006,1,0,0:0:0:0:
256,192,79077,1,0,0:0:0:0:
256,192,79149,1,8,0:0:0:0:
256,192,79292,1,8,0:0:0:0:
256,192,79434,1,0,0:0:0:0:
256,192,79577,1,8,0:0:0:0:
256,192,79649,1,8,0:0:0:0:
256,192,79720,1,0,0:0:0:0:
256,192,79863,1,8,0:0:0:0:
256,192,80006,1,4,0:0:0:0:
256,192,80149,1,0,0:0:0:0:
256,192,80220,1,0,0:0:0:0:
256,192,80292,1,8,0:0:0:0:
256,192,80434,1,0,0:0:0:0:
256,192,80577,1,8,0:0:0:0:
256,192,80649,1,0,0:0:0:0:
256,192,80720,1,8,0:0:0:0:
256,192,80792,1,8,0:0:0:0:
256,192,80863,1,0,0:0:0:0:
256,192,81006,1,0,0:0:0:0:
256,192,81149,1,8,0:0:0:0:
256,192,81292,1,8,0:0:0:0:
256,192,81363,1,0,0:0:0:0:
256,192,81434,1,8,0:0:0:0:
256,192,81577,1,0,0:0:0:0:
256,192,81649,1,0,0:0:0:0:
256,192,81720,1,8,0:0:0:0:
256,192,81792,1,8,0:0:0:0:
256,192,81863,1,0,0:0:0:0:
256,192,81934,1,0,0:0:0:0:
256,192,82006,1,8,0:0:0:0:
256,192,82149,1,0,0:0:0:0:
256,192,82292,1,8,0:0:0:0:
256,192,82434,1,8,0:0:0:0:
256,192,82506,1,0,0:0:0:0:
256,192,82577,1,8,0:0:0:0:
256,192,82720,1,8,0:0:0:0:
256,192,82792,1,8,0:0:0:0:
256,192,82863,1,0,0:0:0:0:
256,192,83006,1,0,0:0:0:0:
256,192,83149,1,8,0:0:0:0:
256,192,83292,1,0,0:0:0:0:
256,192,83434,1,0,0:0:0:0:
256,192,83506,1,0,0:0:0:0:
256,192,83577,1,8,0:0:0:0:
256,192,83649,1,8,0:0:0:0:
256,192,83720,1,0,0:0:0:0:
256,192,83792,1,0,0:0:0:0:
256,192,83863,1,8,0:0:0:0:
256,192,83934,1,0,0:0:0:0:
256,192,84006,1,8,0:0:0:0:
256,192,84149,1,8,0:0:0:0:
256,192,84220,1,8,0:0:0:0:
256,192,84292,1,0,0:0:0:0:
256,192,84434,1,8,0:0:0:0:
256,192,84577,1,4,0:0:0:0:
256,192,84720,1,0,0:0:0:0:
256,192,84792,1,0,0:0:0:0:
256,192,84863,1,8,0:0:0:0:
256,192,85006,1,0,0:0:0:0:
256,192,85149,1,8,0:0:0:0:
256,192,85292,1,8,0:0:0:0:
256,192,85363,1,0,0:0:0:0:
256,192,85434,1,0,0:0:0:0:
256,192,85577,1,0,0:0:0:0:
256,192,85720,1,8,0:0:0:0:
256,192,85863,1,0,0:0:0:0:
256,192,85934,1,0,0:0:0:0:
256,192,86006,1,8,0:0:0:0:
256,192,86149,1,0,0:0:0:0:
256,192,86292,1,8,0:0:0:0:
256,192,86363,1,8,0:0:0:0:
256,192,86434,1,0,0:0:0:0:
256,192,86506,1,0,0:0:0:0:
256,192,86577,1,8,0:0:0:0:
256,192,86649,1,8,0:0:0:0:
256,192,86720,1,8,0:0:0:0:
256,192,86792,1,8,0:0:0:0:
256,192,86863,1,0,0:0:0:0:
256,192,87006,1,0,0:0:0:0:
256,192,87077,1,0,0:0:0:0:
256,192,87149,1,8,0:0:0:0:
256,192,87292,1,0,0:0:0:0:
256,192,87363,1,8,0:0:0:0:
256,192,87434,1,0,0:0:0:0:
256,192,87506,1,0,0:0:0:0:
256,192,87577,1,8,0:0:0:0:
256,192,87649,1,0,0:0:0:0:
256,192,87720,1,8,0:0:0:0:
256,192,87863,1,0,0:0:0:0:
256,192,88006,1,8,0:0:0:0:
256,192,88077,1,0,0:0:0:0:
256,192,88149,1,8,0:0:0:0:
256,192,88220,1,8,0:0:0:0:
256,192,88292,1,0,0:0:0:0:
256,192,88363,1,0,0:0:0:0:
256,192,88434,1,8,0:0:0:0:
256,192,88506,1,0,0:0:0:0:
256,192,88577,1,8,0:0:0:0:
256,192,89149,1,0,0:0:0:0:
256,192,89399,1,0,0:0:0:0:
256,192,89524,1,0,0:0:0:0:
256,192,89649,1,8,0:0:0:0:
256,192,89899,1,8,0:0:0:0:
256,192,90024,1,0,0:0:0:0:
256,192,90149,1,8,0:0:0:0:
256,192,90274,1,8,0:0:0:0:
256,192,90399,1,0,0:0:0:0:
256,192,90649,1,8,0:0:0:0:
256,192,90899,1,0,0:0:0:0:
256,192,91149,1,0,0:0:0:0:
256,192,91399,1,0,0:0:0:0:
256,192,91524,1,0,0:0:0:0:
256,192,91649,1,8,0:0:0:0:
256,192,91899,1,0,0:0:0:0:
256,192,92149,1,8,0:0:0:0:
256,192,92274,1,8,0:0:0:0:
256,192,92399,1,0,0:0:0:0:
256,192,92649,1,8,0:0:0:0:
256,192,92899,1,0,0:0:0:0:
256,192,93149,1,0,0:0:0:0:
256,192,93399,1,0,0:0:0:0:
256,192,93524,1,0,0:0:0:0:
256,192,93649,1,8,0:0:0:0:
256,192,93899,1,0,0:0:0:0:
256,192,94024,1,0,0:0:0:0:
256,192,94149,1,8,0:0:0:0:
256,192,94274,1,8,0:0:0:0:
256,192,94399,1,0,0:0:0:0:
256,192,94649,1,8,0:0:0:0:
256,192,94899,1,0,0:0:0:0:
256,192,95149,1,0,0:0:0:0:
256,192,95399,1,0,0:0:0:0:
256,192,95524,1,0,0:0:0:0:
256,192,95649,1,8,0:0:0:0:
256,192,95899,1,0,0:0:0:0:
256,192,96149,1,8,0:0:0:0:
256,192,96274,1,0,0:0:0:0:
256,192,96399,1,8,0:0:0:0:
256,192,96524,1,0,0:0:0:0:
256,192,96649,1,8,0:0:0:0:
256,192,96899,1,8,0:0:0:0:
256,192,97149,1,0,0:0:0:0:
256,192,97399,1,8,0:0:0:0:
256,192,97524,1,8,0:0:0:0:
256,192,97649,1,0,0:0:0:0:
256,192,97899,1,8,0:0:0:0:
256,192,98024,1,0,0:0:0:0:
256,192,98274,1,0,0:0:0:0:
256,192,98399,1,8,0:0:0:0:
256,192,98524,1,8,0:0:0:0:
256,192,98649,1,0,0:0:0:0:
256,192,98774,1,0,0:0:0:0:
256,192,98899,1,8,0:0:0:0:
256,192,99024,1,8,0:0:0:0:
256,192,99149,1,0,0:0:0:0:
256,192,99399,1,0,0:0:0:0:
256,192,99524,1,0,0:0:0:0:
256,192,99649,1,8,0:0:0:0:
256,192,99774,1,0,0:0:0:0:
256,192,99899,1,8,0:0:0:0:
256,192,100024,1,8,0:0:0:0:
256,192,100149,1,0,0:0:0:0:
256,192,100399,1,0,0:0:0:0:
256,192,100649,1,8,0:0:0:0:
256,192,100899,1,0,0:0:0:0:
256,192,101149,1,8,0:0:0:0:
256,192,101399,1,8,0:0:0:0:
256,192,101524,1,8,0:0:0:0:
256,192,101649,1,0,0:0:0:0:
256,192,101899,1,8,0:0:0:0:
256,192,102024,1,0,0:0:0:0:
256,192,102274,1,0,0:0:0:0:
256,192,102399,1,8,0:0:0:0:
256,192,102524,1,8,0:0:0:0:
256,192,102649,1,0,0:0:0:0:
256,192,102774,1,8,0:0:0:0:
256,192,102899,1,0,0:0:0:0:
256,192,103024,1,8,0:0:0:0:
256,192,103149,1,0,0:0:0:0:
256,192,103399,1,0,0:0:0:0:
256,192,103524,1,8,0:0:0:0:
256,192,103649,1,0,0:0:0:0:
256,192,103774,1,0,0:0:0:0:
256,192,103899,1,8,0:0:0:0:
256,192,104024,1,8,0:0:0:0:
256,192,104149,1,0,0:0:0:0:
256,192,104399,1,0,0:0:0:0:
256,192,104649,1,8,0:0:0:0:
256,192,104899,1,0,0:0:0:0:
256,192,105024,1,0,0:0:0:0:
256,192,105149,1,8,0:0:0:0:
256,192,105399,1,8,0:0:0:0:
256,192,105524,1,8,0:0:0:0:
256,192,105586,1,8,0:0:0:0:
256,192,105649,1,0,0:0:0:0:
256,192,105774,1,8,0:0:0:0:
256,192,105899,1,0,0:0:0:0:
256,192,106024,1,0,0:0:0:0:
256,192,106149,1,8,0:0:0:0:
256,192,106399,1,8,0:0:0:0:
256,192,106524,1,0,0:0:0:0:
256,192,106586,1,0,0:0:0:0:
256,192,106649,1,8,0:0:0:0:
256,192,106774,1,8,0:0:0:0:
256,192,106899,1,0,0:0:0:0:
256,192,107024,1,0,0:0:0:0:
256,192,107149,1,8,0:0:0:0:
256,192,107399,1,0,0:0:0:0:
256,192,107524,1,8,0:0:0:0:
256,192,107586,1,0,0:0:0:0:
256,192,107649,1,8,0:0:0:0:
256,192,107774,1,0,0:0:0:0:
256,192,107899,1,8,0:0:0:0:
256,192,108024,1,8,0:0:0:0:
256,192,108149,1,0,0:0:0:0:
256,192,108399,1,0,0:0:0:0:
256,192,108649,1,8,0:0:0:0:
256,192,108899,1,0,0:0:0:0:
256,192,109149,1,8,0:0:0:0:
256,192,109399,1,8,0:0:0:0:
256,192,109524,1,0,0:0:0:0:
256,192,109586,1,0,0:0:0:0:
256,192,109649,1,8,0:0:0:0:
256,192,109774,1,0,0:0:0:0:
256,192,109899,1,8,0:0:0:0:
256,192,110024,1,8,0:0:0:0:
256,192,110149,1,0,0:0:0:0:
256,192,110399,1,8,0:0:0:0:
256,192,110524,1,8,0:0:0:0:
256,192,110586,1,8,0:0:0:0:
256,192,110649,1,0,0:0:0:0:
256,192,110774,1,8,0:0:0:0:
256,192,110899,1,0,0:0:0:0:
256,192,111024,1,0,0:0:0:0:
256,192,111149,1,8,0:0:0:0:
256,192,111399,1,0,0:0:0:0:
256,192,111524,1,0,0:0:0:0:
256,192,111586,1,8,0:0:0:0:
256,192,111649,1,0,0:0:0:0:
256,192,111774,1,8,0:0:0:0:
256,192,111899,1,0,0:0:0:0:
256,192,112024,1,0,0:0:0:0:
256,192,112149,1,8,0:0:0:0:
256,192,112399,1,0,0:0:0:0:
256,192,112649,1,8,0:0:0:0:
256,192,112899,1,8,0:0:0:0:
256,192,113024,1,8,0:0:0:0:
256,192,113149,1,0,0:0:0:0:
256,192,113274,1,0,0:0:0:0:
256,192,113336,1,0,0:0:0:0:
256,192,113399,1,8,0:0:0:0:
256,192,113524,1,0,0:0:0:0:
256,192,113586,1,0,0:0:0:0:
256,192,113649,1,8,0:0:0:0:
256,192,113711,1,0,0:0:0:0:
256,192,113774,1,8,0:0:0:0:
256,192,113836,1,8,0:0:0:0:
256,192,113899,1,0,0:0:0:0:
256,192,114024,1,8,0:0:0:0:
256,192,114149,1,8,0:0:0:0:
256,192,114190,1,8,0:0:0:0:
256,192,114232,1,8,0:0:0:0:
256,192,114274,1,0,0:0:0:0:
256,192,114336,1,0,0:0:0:0:
256,192,114399,1,8,0:0:0:0:
256,192,114461,1,0,0:0:0:0:
256,192,114524,1,8,0:0:0:0:
256,192,114586,1,8,0:0:0:0:
256,192,114649,1,0,0:0:0:0:
256,192,114711,1,8,0:0:0:0:
256,192,114774,1,0,0:0:0:0:
256,192,114836,1,0,0:0:0:0:
256,192,114899,1,8,0:0:0:0:
256,192,114940,1,8,0:0:0:0:
256,192,114982,1,8,0:0:0:0:
256,192,115024,1,0,0:0:0:0:
256,192,115086,1,0,0:0:0:0:
256,192,115149,1,8,0:0:0:0:
256,192,115274,1,0,0:0:0:0:
256,192,115336,1,8,0:0:0:0:
256,192,115399,1,8,0:0:0:0:
256,192,115524,1,0,0:0:0:0:
256,192,115586,1,0,0:0:0:0:
256,192,115649,1,8,0:0:0:0:
256,192,115711,1,0,0:0:0:0:
256,192,115774,1,8,0:0:0:0:
256,192,115836,1,8,0:0:0:0:
256,192,115899,1,0,0:0:0:0:
256,192,115940,1,0,0:0:0:0:
256,192,115982,1,0,0:0:0:0:
256,192,116024,1,8,0:0:0:0:
256,192,116086,1,8,0:0:0:0:
256,192,116149,1,0,0:0:0:0:
256,192,116399,1,4,0:0:0:0:
256,192,116649,1,4,0:0:0:0:
256,192,116899,1,4,0:0:0:0:
256,192,117149,1,8,0:0:0:0:
256,192,117274,1,0,0:0:0:0:
256,192,117336,1,0,0:0:0:0:
256,192,117399,1,8,0:0:0:0:
256,192,117524,1,0,0:0:0:0:
256,192,117586,1,0,0:0:0:0:
256,192,117649,1,8,0:0:0:0:
256,192,117690,1,8,0:0:0:0:
256,192,117732,1,8,0:0:0:0:
256,192,117774,1,0,0:0:0:0:
256,192,117836,1,8,0:0:0:0:
256,192,117899,1,0,0:0:0:0:
256,192,117940,1,0,0:0:0:0:
256,192,117982,1,0,0:0:0:0:
256,192,118024,1,8,0:0:0:0:
256,192,118086,1,0,0:0:0:0:
256,192,118149,1,8,0:0:0:0:
256,192,118274,1,0,0:0:0:0:
256,192,118336,1,0,0:0:0:0:
256,192,118399,1,8,0:0:0:0:
256,192,118461,1,0,0:0:0:0:
256,192,118524,1,8,0:0:0:0:
256,192,118586,1,0,0:0:0:0:
256,192,118649,1,8,0:0:0:0:
256,192,118711,1,8,0:0:0:0:
256,192,118774,1,0,0:0:0:0:
256,192,118836,1,0,0:0:0:0:
256,192,118899,1,8,0:0:0:0:
256,192,118961,1,8,0:0:0:0:
256,192,119024,1,8,0:0:0:0:
256,192,119086,1,0,0:0:0:0:
256,192,119149,1,8,0:0:0:0:
256,192,119274,1,8,0:0:0:0:
256,192,119336,1,0,0:0:0:0:
256,192,119399,1,8,0:0:0:0:
256,192,119524,1,0,0:0:0:0:
256,192,119586,1,0,0:0:0:0:
256,192,119649,1,8,0:0:0:0:
256,192,119711,1,0,0:0:0:0:
256,192,119774,1,0,0:0:0:0:
256,192,119836,1,0,0:0:0:0:
256,192,119899,1,8,0:0:0:0:
256,192,119930,1,8,0:0:0:0:
256,192,120024,1,8,0:0:0:0:
256,192,120055,1,8,0:0:0:0:
256,192,120149,1,0,0:0:0:0:
256,192,120399,1,4,0:0:0:0:
256,192,120649,1,4,0:0:0:0:
256,192,120899,1,4,0:0:0:0:
256,192,121149,1,8,0:0:0:0:
256,192,121274,1,0,0:0:0:0:
256,192,121336,1,0,0:0:0:0:
256,192,121399,1,8,0:0:0:0:
256,192,121524,1,8,0:0:0:0:
256,192,121586,1,8,0:0:0:0:
256,192,121649,1,0,0:0:0:0:
256,192,121711,1,0,0:0:0:0:
256,192,121774,1,8,0:0:0:0:
256,192,121836,1,0,0:0:0:0:
256,192,121899,1,8,0:0:0:0:
256,192,121940,1,8,0:0:0:0:
256,192,121982,1,8,0:0:0:0:
256,192,122024,1,0,0:0:0:0:
256,192,122086,1,0,0:0:0:0:
256,192,122149,1,8,0:0:0:0:
256,192,122274,1,0,0:0:0:0:
256,192,122336,1,0,0:0:0:0:
256,192,122399,1,8,0:0:0:0:
256,192,122524,1,8,0:0:0:0:
256,192,122586,1,0,0:0:0:0:
256,192,122649,1,8,0:0:0:0:
256,192,122711,1,0,0:0:0:0:
256,192,122774,1,0,0:0:0:0:
256,192,122836,1,0,0:0:0:0:
256,192,122899,1,8,0:0:0:0:
256,192,123024,1,0,0:0:0:0:
256,192,123149,1,8,0:0:0:0:
256,192,123211,1,8,0:0:0:0:
256,192,123274,1,0,0:0:0:0:
256,192,123336,1,0,0:0:0:0:
256,192,123399,1,8,0:0:0:0:
256,192,123492,1,8,0:0:0:0:
256,192,123586,1,8,0:0:0:0:
256,192,123680,1,0,0:0:0:0:
256,192,123774,1,0,0:0:0:0:
256,192,123836,1,0,0:0:0:0:
256,192,123899,1,8,0:0:0:0:
256,192,123961,1,0,0:0:0:0:
256,192,124024,1,8,0:0:0:0:
256,192,124149,1,0,0:0:0:0:
256,192,124399,1,12,0:0:0:0:
256,192,124649,1,12,0:0:0:0:
256,192,124899,1,12,0:0:0:0:
256,192,125149,1,8,0:0:0:0:
256,192,125274,1,8,0:0:0:0:
256,192,125336,1,0,0:0:0:0:
256,192,125399,1,8,0:0:0:0:
256,192,125461,1,8,0:0:0:0:
256,192,125524,1,0,0:0:0:0:
256,192,125649,1,0,0:0:0:0:
256,192,125774,1,8,0:0:0:0:
256,192,125899,1,8,0:0:0:0:
256,192,125940,1,8,0:0:0:0:
256,192,125982,1,8,0:0:0:0:
256,192,126024,1,0,0:0:0:0:
256,192,126086,1,0,0:0:0:0:
256,192,126149,1,8,0:0:0:0:
256,192,126274,1,0,0:0:0:0:
256,192,126399,1,8,0:0:0:0:
256,192,126524,1,0,0:0:0:0:
256,192,126586,1,0,0:0:0:0:
256,192,126649,1,8,0:0:0:0:
256,192,126711,1,8,0:0:0:0:
256,192,126774,1,0,0:0:0:0:
256,192,126836,1,0,0:0:0:0:
256,192,126899,1,8,0:0:0:0:
256,192,126961,1,0,0:0:0:0:
256,192,127024,1,8,0:0:0:0:
256,192,127086,1,8,0:0:0:0:
256,192,127149,1,0,0:0:0:0:
256,192,127190,1,0,0:0:0:0:
256,192,127232,1,0,0:0:0:0:
256,192,127274,1,8,0:0:0:0:
256,192,127336,1,8,0:0:0:0:
256,192,127399,1,0,0:0:0:0:
256,192,127524,1,8,0:0:0:0:
256,192,127586,1,0,0:0:0:0:
256,192,127649,1,8,0:0:0:0:
256,192,127711,1,8,0:0:0:0:
256,192,127774,1,0,0:0:0:0:
256,192,127836,1,0,0:0:0:0:
256,192,127899,1,8,0:0:0:0:
256,192,127940,1,8,0:0:0:0:
256,192,127982,1,8,0:0:0:0:
256,192,128024,1,0,0:0:0:0:
256,192,128086,1,0,0:0:0:0:
256,192,128149,1,8,0:0:0:0:
256,192,128399,1,4,0:0:0:0:
256,192,128649,1,4,0:0:0:0:
256,192,128899,1,4,0:0:0:0:
256,192,129149,1,0,0:0:0:0:
256,192,129399,1,0,0:0:0:0:
256,192,129461,1,0,0:0:0:0:
256,192,129524,1,8,0:0:0:0:
256,192,129586,1,0,0:0:0:0:
256,192,129649,1,8,0:0:0:0:
256,192,129899,1,0,0:0:0:0:
256,192,130149,1,8,0:0:0:0:
256,192,130274,1,0,0:0:0:0:
256,192,130336,1,0,0:0:0:0:
256,192,130399,1,0,0:0:0:0:
256,192,130524,1,8,0:0:0:0:
256,192,130649,1,0,0:0:0:0:
256,192,130711,1,0,0:0:0:0:
256,192,130774,1,8,0:0:0:0:
256,192,130899,1,0,0:0:0:0:
256,192,131149,1,8,0:0:0:0:
256,192,131190,1,8,0:0:0:0:
256,192,131232,1,8,0:0:0:0:
256,192,131274,1,0,0:0:0:0:
256,192,131336,1,0,0:0:0:0:
256,192,131399,1,8,0:0:0:0:
256,192,131524,1,0,0:0:0:0:
256,192,131586,1,0,0:0:0:0:
256,192,131649,1,8,0:0:0:0:
256,192,131899,1,0,0:0:0:0:
256,192,132024,1,0,0:0:0:0:
256,192,132149,1,8,0:0:0:0:
256,192,132274,1,8,0:0:0:0:
256,192,132399,1,4,0:0:0:0:
256,192,132649,1,4,0:0:0:0:
256,192,132899,1,4,0:0:0:0:
256,192,133149,1,0,0:0:0:0:
256,192,133399,1,8,0:0:0:0:
256,192,133899,1,8,0:0:0:0:
256,192,134399,1,0,0:0:0:0:
256,192,134899,1,0,0:0:0:0:
256,192,135399,1,8,0:0:0:0:
256,192,135899,1,8,0:0:0:0:
256,192,136149,1,0,0:0:0:0:
256,192,136399,1,4,0:0:0:0:
256,192,136649,1,4,0:0:0:0:
256,192,136899,1,4,0:0:0:0:
256,192,137149,1,0,0:0:0:0:
256,192,137399,1,8,0:0:0:0:
256,192,137524,1,0,0:0:0:0:
256,192,137586,1,0,0:0:0:0:
256,192,137649,1,8,0:0:0:0:
256,192,137711,1,0,0:0:0:0:
256,192,137774,1,0,0:0:0:0:
256,192,137836,1,0,0:0:0:0:
256,192,137899,1,8,0:0:0:0:
256,192,137930,1,8,0:0:0:0:
256,192,138024,1,8,0:0:0:0:
256,192,138055,1,8,0:0:0:0:
256,192,138149,1,0,0:0:0:0:
256,192,138274,1,0,0:0:0:0:
256,192,138336,1,0,0:0:0:0:
256,192,138399,1,8,0:0:0:0:
256,192,138461,1,0,0:0:0:0:
256,192,138524,1,8,0:0:0:0:
256,192,138586,1,0,0:0:0:0:
256,192,138649,1,0,0:0:0:0:
256,192,138711,1,0,0:0:0:0:
256,192,138774,1,8,0:0:0:0:
256,192,138836,1,8,0:0:0:0:
256,192,138899,1,0,0:0:0:0:
256,192,138940,1,0,0:0:0:0:
256,192,138982,1,0,0:0:0:0:
256,192,139024,1,8,0:0:0:0:
256,192,139086,1,8,0:0:0:0:
256,192,139149,1,0,0:0:0:0:
256,192,139274,1,0,0:0:0:0:
256,192,139336,1,0,0:0:0:0:
256,192,139399,1,8,0:0:0:0:
256,192,139461,1,0,0:0:0:0:
256,192,139524,1,0,0:0:0:0:
256,192,139586,1,0,0:0:0:0:
256,192,139649,1,8,0:0:0:0:
256,192,139711,1,8,0:0:0:0:
256,192,139774,1,0,0:0:0:0:
256,192,139836,1,0,0:0:0:0:
256,192,139899,1,8,0:0:0:0:
256,192,140024,1,8,0:0:0:0:
256,192,140149,1,0,0:0:0:0:
256,192,140399,1,4,0:0:0:0:
256,192,140649,1,4,0:0:0:0:
256,192,140899,1,4,0:0:0:0:
256,192,141149,1,0,0:0:0:0:
256,192,141336,1,8,0:0:0:0:
256,192,141524,1,0,0:0:0:0:
256,192,141711,1,0,0:0:0:0:
256,192,141899,1,12,0:0:0:0:
256,192,142149,1,0,0:0:0:0:
256,192,142399,1,8,0:0:0:0:
256,192,142524,1,0,0:0:0:0:
256,192,142649,1,8,0:0:0:0:
256,192,142774,1,8,0:0:0:0:
256,192,142836,1,8,0:0:0:0:
256,192,142899,1,0,0:0:0:0:
256,192,142961,1,8,0:0:0:0:
256,192,143024,1,0,0:0:0:0:
256,192,143086,1,0,0:0:0:0:
256,192,143149,1,8,0:0:0:0:
256,192,143274,1,0,0:0:0:0:
256,192,143399,1,8,0:0:0:0:
256,192,143492,1,8,0:0:0:0:
256,192,143586,1,8,0:0:0:0:
256,192,143649,1,0,0:0:0:0:
256,192,143774,1,8,0:0:0:0:
256,192,143899,1,0,0:0:0:0:
256,192,144024,1,0,0:0:0:0:
256,192,144086,1,0,0:0:0:0:
256,192,144149,1,0,0:0:0:0:
256,192,144274,1,8,0:0:0:0:
256,192,144399,1,4,0:0:0:0:
256,192,144649,1,12,0:0:0:0:
256,192,144899,1,4,0:0:0:0:
256,192,145149,1,0,0:0:0:0:
256,192,145211,1,0,0:0:0:0:
256,192,145274,1,0,0:0:0:0:
256,192,145336,1,0,0:0:0:0:
256,192,145399,1,8,0:0:0:0:
256,192,145524,1,8,0:0:0:0:
256,192,145586,1,0,0:0:0:0:
256,192,145649,1,8,0:0:0:0:
256,192,145711,1,0,0:0:0:0:
256,192,145774,1,0,0:0:0:0:
256,192,145836,1,0,0:0:0:0:
256,192,145899,1,8,0:0:0:0:
256,192,145940,1,8,0:0:0:0:
256,192,145982,1,8,0:0:0:0:
256,192,146024,1,0,0:0:0:0:
256,192,146086,1,0,0:0:0:0:
256,192,146149,1,8,0:0:0:0:
256,192,146274,1,0,0:0:0:0:
256,192,146399,1,8,0:0:0:0:
256,192,146524,1,0,0:0:0:0:
256,192,146649,1,8,0:0:0:0:
256,192,146774,1,0,0:0:0:0:
256,192,146836,1,0,0:0:0:0:
256,192,146899,1,8,0:0:0:0:
256,192,147024,1,8,0:0:0:0:
256,192,147149,1,0,0:0:0:0:
256,192,147274,1,0,0:0:0:0:
256,192,147336,1,0,0:0:0:0:
256,192,147399,1,8,0:0:0:0:
256,192,147524,1,8,0:0:0:0:
256,192,147649,1,8,0:0:0:0:
256,192,147711,1,0,0:0:0:0:
256,192,147774,1,8,0:0:0:0:
256,192,147899,1,12,0:0:0:0:
256,192,148274,1,8,0:0:0:0:
256,192,148399,1,4,0:0:0:0:
256,192,148649,1,4,0:0:0:0:
256,192,148899,1,4,0:0:0:0:
256,192,149149,1,0,0:0:0:0:
256,192,149274,1,0,0:0:0:0:
256,192,149336,1,0,0:0:0:0:
256,192,149399,1,8,0:0:0:0:
256,192,149524,1,0,0:0:0:0:
256,192,149649,1,8,0:0:0:0:
256,192,149711,1,0,0:0:0:0:
256,192,149774,1,8,0:0:0:0:
256,192,149899,1,0,0:0:0:0:
256,192,150024,1,8,0:0:0:0:
256,192,150065,1,8,0:0:0:0:
256,192,150107,1,8,0:0:0:0:
256,192,150149,1,0,0:0:0:0:
256,192,150211,1,0,0:0:0:0:
256,192,150274,1,8,0:0:0:0:
256,192,150336,1,0,0:0:0:0:
256,192,150399,1,8,0:0:0:0:
256,192,150524,1,8,0:0:0:0:
256,192,150649,1,0,0:0:0:0:
256,192,150899,1,8,0:0:0:0:
256,192,151149,1,0,0:0:0:0:
256,192,151211,1,0,0:0:0:0:
256,192,151274,1,8,0:0:0:0:
256,192,151336,1,8,0:0:0:0:
256,192,151399,1,0,0:0:0:0:
256,192,151524,1,8,0:0:0:0:
256,192,151649,1,0,0:0:0:0:
256,192,151774,1,0,0:0:0:0:
256,192,151899,1,8,0:0:0:0:
256,192,152024,1,0,0:0:0:0:
256,192,152149,1,8,0:0:0:0:
256,192,152274,1,8,0:0:0:0:
256,192,152399,1,4,0:0:0:0:
256,192,152649,1,4,0:0:0:0:
256,192,152899,1,4,0:0:0:0:
256,192,153149,1,4,0:0:0:0:
256,192,153399,1,4,0:0:0:0:
256,192,153649,1,4,0:0:0:0:
