osu file format v14

[General]
AudioFilename: audio.mp3
AudioLeadIn: 0
PreviewTime: 13975
Countdown: 1
SampleSet: Soft
StackLeniency: 0.7
Mode: 0
LetterboxInBreaks: 0
WidescreenStoryboard: 0

[Editor]
Bookmarks: 68833,73404
DistanceSpacing: 0.7
BeatDivisor: 4
GridSize: 4
TimelineZoom: 1

[Metadata]
Title:Chik Habit
TitleUnicode:Chik Habit
Artist:The Flashbulb
ArtistUnicode:The Flashbulb
Creator:Kyshiro
Version:BRRRBZZBRZRBZBZ
Source:
Tags:
BeatmapID:1873154
BeatmapSetID:896583

[Difficulty]
HPDrainRate:4
CircleSize:4.2
OverallDifficulty:9.3
ApproachRate:9.7
SliderMultiplier:1.8
SliderTickRate:1

[Events]
//Background and Video events
0,0,"wallhaven-599106.jpg",0,0
//Break Periods
2,69033,72879
//Storyboard Layer 0 (Background)
//Storyboard Layer 1 (Fail)
//Storyboard Layer 2 (Pass)
//Storyboard Layer 3 (Foreground)
//Storyboard Sound Samples

[TimingPoints]
261,571.428571428571,4,2,0,60,1,0
32262,285.714285714286,4,2,0,60,1,0
32262,-80,4,2,0,60,0,0
35976,-50,4,2,0,60,0,0
36833,-80,4,2,0,60,0,0
40547,-50,4,2,0,60,0,0
41404,-80,4,2,0,60,0,0
45119,-50,4,2,0,60,0,0
45976,-80,4,2,0,60,0,0
49690,-50,4,2,0,60,0,0
50547,-80,4,2,0,60,0,0
54262,-50,4,2,0,60,0,0
55119,-100,4,2,0,60,0,0
58833,-50,4,2,0,60,0,0
59690,-80,4,2,0,60,0,0
63404,-50,4,2,0,60,0,0
64261,-133.333333333333,4,2,0,60,0,0
65404,-80,4,2,0,60,0,0
67976,-50,4,2,0,60,0,0
68833,-80,4,2,0,60,0,0
77976,-142.857142857143,4,2,0,60,0,0
82547,-111.111111111111,4,2,0,60,0,0
87119,250,4,2,0,60,1,0
87119,-200,4,2,0,60,0,0
88119,-166.666666666667,4,2,0,60,0,0
89119,-142.857142857143,4,2,0,60,0,0
90119,-125,4,2,0,60,0,0
95119,-100,4,2,0,60,0,0
98369,-1000,4,2,0,60,0,0
99119,-100,4,2,0,60,0,0
102369,-1000,4,2,0,60,0,0
103119,-100,4,2,0,60,0,0
106369,-1000,4,2,0,60,0,0
107119,-100,4,2,0,60,0,0
110369,-1000,4,2,0,60,0,0
111119,-76.9230769230769,4,2,0,60,0,1
114369,-33.3333333333333,4,2,0,60,0,1
115119,-76.9230769230769,4,2,0,60,0,1
118369,-33.3333333333333,4,2,0,60,0,1
119119,-76.9230769230769,4,2,0,60,0,1
122369,-33.3333333333333,4,2,0,60,0,1
123119,-76.9230769230769,4,2,0,60,0,1
126369,-33.3333333333333,4,2,0,60,0,1
127119,-76.9230769230769,4,2,0,60,0,1
130369,-33.3333333333333,4,2,0,60,0,1
131119,-133.333333333333,4,2,0,60,0,0
134369,-33.3333333333333,4,2,0,60,0,0
135119,-57.1428571428571,4,2,0,60,0,0
138369,-33.3333333333333,4,2,0,60,0,0
138869,-200,4,2,0,60,0,0
139119,-100,4,2,0,60,0,0
140119,-66.6666666666667,4,2,0,60,0,0
145869,-100,4,2,0,60,0,0
146369,-33.3333333333333,4,2,0,60,0,0
146869,-200,4,2,0,60,0,0
147119,-66.6666666666667,4,2,0,60,0,0
148494,-133.333333333333,4,2,0,60,0,0
148869,-66.6666666666667,4,2,0,60,0,0
150369,-33.3333333333333,4,2,0,60,0,0
151869,-250,4,2,0,5,0,0

[Colours]
Combo1 : 251,174,186
Combo2 : 203,169,218
Combo3 : 147,196,255

[HitObjects]
157,136,13975,6,0,P|221:144|261:168,1,90
311,235,14403,1,0,0:0:0:0:
161,269,14546,2,0,P|190:252|216:243,1,45
69,207,14832,2,0,P|48:197|29:185,1,45
61,85,15118,1,0,0:0:0:0:
186,65,15260,6,0,L|175:127,2,45
273,167,15689,2,0,P|334:155|378:124,1,90
434,82,16118,1,0,0:0:0:0:
478,216,16260,6,0,L|468:326,1,90
391,369,16689,1,0,0:0:0:0:
274,273,16832,2,0,L|331:266,1,45
196,346,17118,2,0,L|139:339,1,45
55,271,17403,5,0,0:0:0:0:
51,290,17689,1,0,0:0:0:0:
48,309,17975,1,0,0:0:0:0:
240,164,18546,6,0,L|135:157,1,90
64,90,18975,1,0,0:0:0:0:
206,26,19118,2,0,L|211:78,1,45
256,226,19403,2,0,L|260:181,1,45
349,100,19689,5,0,0:0:0:0:
462,202,19832,2,0,L|407:211,2,45
349,100,20260,2,0,P|332:64|327:42,1,45
265,202,20546,2,0,P|257:223|246:242,1,45
149,300,20832,6,0,L|42:291,1,90
10,196,21260,1,0,0:0:0:0:
129,119,21403,2,0,P|124:154|113:176,1,45
233,306,21689,2,0,P|226:284|224:262,1,45
324,173,21975,5,0,0:0:0:0:
330,189,22260,1,0,0:0:0:0:
336,205,22546,1,0,0:0:0:0:
413,68,23118,6,0,P|337:70|302:89,1,90
260,155,23546,1,0,0:0:0:0:
191,233,23689,2,0,P|147:244|103:239,1,90
23,172,24118,1,0,0:0:0:0:
92,95,24260,6,0,P|135:83|179:88,1,90
260,155,24689,1,0,0:0:0:0:
341,218,24832,2,0,P|385:222|428:211,1,90
493,130,25260,1,0,0:0:0:0:
392,16,25403,6,0,L|382:116,1,90
327,232,25832,1,0,0:0:0:0:
239,113,25975,2,0,P|222:80|216:55,1,45
184,226,26260,2,0,P|176:247|164:266,1,45
67,331,26546,5,0,0:0:0:0:
50,323,26832,1,0,0:0:0:0:
33,316,27118,1,0,0:0:0:0:
286,348,27689,6,0,L|393:329,1,90
462,274,28118,1,0,0:0:0:0:
288,227,28260,2,0,P|246:225|231:227,1,45
387,131,28546,2,0,P|387:153|385:175,1,45
265,106,28832,6,0,P|251:51|251:9,1,90
349,20,29260,1,0,0:0:0:0:
171,102,29403,2,0,L|107:99,1,45
36,197,29689,2,0,L|100:194,1,45
254,268,29975,6,0,P|196:272|147:292,1,90
312,360,30403,1,0,0:0:0:0:
391,288,30546,2,0,P|397:253|396:228,1,45
311,136,30832,2,0,P|312:158|317:180,1,45
402,79,31118,5,0,0:0:0:0:
406,61,31403,1,0,0:0:0:0:
411,43,31689,1,0,0:0:0:0:
43,48,32262,6,0,B|28:104|28:104|41:160,1,112.5
151,237,32547,1,0,0:0:0:0:
253,92,32690,1,0,0:0:0:0:
218,98,32762,1,0,0:0:0:0:
183,103,32833,2,0,P|162:64|156:43,1,56.25
281,179,32976,2,0,P|271:205|256:229,1,56.25
124,258,33119,2,0,L|83:253,2,28.125
162,292,33262,2,0,L|203:286,2,28.125
283,334,33404,6,0,L|297:399,1,56.25
384,266,33547,2,0,L|395:211,1,56.25
497,97,33690,1,0,0:0:0:0:
456,118,33762,1,0,0:0:0:0:
411,93,33833,1,0,0:0:0:0:
367,107,33904,1,0,0:0:0:0:
332,76,33976,2,0,P|311:33|309:18,1,56.25
238,139,34119,2,0,P|230:165|215:189,1,56.25
106,232,34262,2,0,L|66:224,6,28.125
13,140,34547,5,0,0:0:0:0:
40,134,34619,1,0,0:0:0:0:
68,148,34690,1,0,0:0:0:0:
94,134,34762,1,0,0:0:0:0:
121,139,34833,2,0,L|131:70,1,56.25
214,217,34976,2,0,L|222:272,1,56.25
318,148,35119,1,0,0:0:0:0:
446,237,35262,1,0,0:0:0:0:
446,237,35333,1,0,0:0:0:0:
446,237,35404,2,0,L|409:234,6,28.125
331,288,35690,5,0,0:0:0:0:
395,68,35976,6,0,L|403:23,6,45
434,149,36262,6,0,L|468:178,6,45
344,142,36547,6,0,L|300:156,6,45
274,72,36833,5,0,0:0:0:0:
231,57,36904,1,0,0:0:0:0:
186,70,36976,1,0,0:0:0:0:
140,55,37047,1,0,0:0:0:0:
97,70,37119,2,0,L|81:131,1,56.25
190,215,37262,2,0,L|175:160,1,56.25
32,214,37404,2,0,P|72:222|101:219,1,56.25
198,314,37547,2,0,P|169:314|142:321,1,56.25
282,261,37690,2,0,L|294:228,6,28.125
331,344,37976,5,0,0:0:0:0:
457,250,38119,1,0,0:0:0:0:
452,222,38190,1,0,0:0:0:0:
447,194,38262,2,0,P|408:193|384:186,1,56.25
280,103,38404,2,0,P|307:97|335:97,1,56.25
191,182,38547,1,0,0:0:0:0:
174,138,38619,1,0,0:0:0:0:
150,103,38690,1,0,0:0:0:0:
156,58,38762,1,0,0:0:0:0:
179,20,38833,2,0,L|119:7,1,56.25
272,83,38976,2,0,L|285:23,1,56.25
174,138,39119,6,0,L|155:268,1,112.5
39,102,39404,1,0,0:0:0:0:
286,221,39547,1,0,0:0:0:0:
97,338,39690,1,0,0:0:0:0:
66,304,39762,1,0,0:0:0:0:
46,263,39833,1,0,0:0:0:0:
57,217,39904,1,0,0:0:0:0:
48,173,39976,2,0,L|90:169,2,28.125
131,230,40119,2,0,L|173:234,2,28.125
224,177,40262,5,0,0:0:0:0:
441,278,40547,6,0,P|447:300|451:342,6,45
420,194,40833,6,0,P|436:177|470:153,6,45
354,257,41119,6,0,P|331:251|293:233,6,45
334,154,41404,5,0,0:0:0:0:
218,275,41547,1,0,0:0:0:0:
87,145,41690,1,0,0:0:0:0:
124,140,41762,1,0,0:0:0:0:
152,164,41833,1,0,0:0:0:0:
186,157,41904,1,0,0:0:0:0:
219,161,41976,2,0,L|230:100,1,56.25
315,254,42119,2,0,L|324:309,1,56.25
467,262,42262,2,0,L|498:257,6,28.125
426,171,42547,5,0,0:0:0:0:
384,189,42619,1,0,0:0:0:0:
343,171,42690,1,0,0:0:0:0:
299,163,42762,1,0,0:0:0:0:
274,125,42833,1,0,0:0:0:0:
367,30,42976,2,0,L|372:96,1,56.25
216,192,43119,1,0,0:0:0:0:
192,176,43190,1,0,0:0:0:0:
176,199,43262,1,0,0:0:0:0:
148,200,43333,1,0,0:0:0:0:
124,185,43404,1,0,0:0:0:0:
108,208,43476,1,0,0:0:0:0:
82,195,43547,2,0,L|71:273,1,56.25
166,304,43690,5,0,0:0:0:0:
29,125,43833,2,0,P|16:99|10:72,1,56.25
192,74,43976,2,0,P|152:96|111:103,2,75
280,138,44262,2,0,P|320:160|361:167,2,75
376,57,44547,1,0,0:0:0:0:
404,53,44619,1,0,0:0:0:0:
431,49,44690,2,0,L|436:15,2,28.125
491,115,44833,5,0,0:0:0:0:
411,200,44976,1,0,0:0:0:0:
491,288,45119,6,0,L|479:342,6,45
392,345,45404,6,0,L|401:301,6,45
320,253,45690,6,0,L|308:307,6,45
236,336,45976,5,0,0:0:0:0:
209,329,46047,1,0,0:0:0:0:
180,336,46119,1,0,0:0:0:0:
155,316,46190,1,0,0:0:0:0:
128,310,46262,2,0,L|102:407,1,56.25
56,232,46404,2,0,L|30:135,1,56.25
221,200,46547,2,0,P|180:216|147:218,1,56.25
137,49,46690,2,0,P|142:76|154:101,1,56.25
260,103,46833,2,0,L|294:93,2,28.125
334,158,46976,1,0,0:0:0:0:
350,162,47047,1,0,0:0:0:0:
366,166,47119,6,0,P|399:146|422:117,1,56.25
512,262,47262,2,0,P|491:242|466:229,1,56.25
368,274,47404,1,0,0:0:0:0:
508,141,47547,1,0,0:0:0:0:
254,190,47690,1,0,0:0:0:0:
241,215,47762,1,0,0:0:0:0:
257,237,47833,1,0,0:0:0:0:
259,264,47904,1,0,0:0:0:0:
246,289,47976,2,0,L|177:278,1,56.25
323,351,48119,1,0,0:0:0:0:
121,207,48262,6,0,L|153:202,6,28.125
34,145,48547,1,0,0:0:0:0:
37,311,48690,1,0,0:0:0:0:
65,306,48762,1,0,0:0:0:0:
92,301,48833,2,0,P|128:315|161:336,1,56.25
290,243,48976,2,0,P|263:252|238:265,1,56.25
392,312,49119,2,0,L|427:307,6,28.125
505,298,49404,5,0,0:0:0:0:
385,106,49690,6,0,B|375:128|375:128|379:158,6,45
462,54,49976,6,0,B|447:34|447:34|419:22,6,45
468,141,50262,6,0,B|492:138|492:138|516:120,6,45
343,31,50547,6,0,B|324:67|279:85|279:85|241:87|187:56,1,168.75
102,22,50833,1,0,0:0:0:0:
114,47,50904,1,0,0:0:0:0:
103,73,50976,1,0,0:0:0:0:
115,97,51047,1,0,0:0:0:0:
127,122,51119,2,0,L|115:159,6,28.125
186,190,51404,2,0,L|198:227,6,28.125
275,153,51690,6,0,L|286:124,2,28.125
366,174,51833,2,0,L|395:185,2,28.125
345,266,51976,2,0,L|334:295,2,28.125
254,245,52119,2,0,L|225:234,2,28.125
165,292,52262,1,0,0:0:0:0:
126,282,52333,1,0,0:0:0:0:
91,299,52404,2,0,L|57:239,1,56.25
116,143,52547,2,0,L|109:172,6,28.125
209,102,52833,6,0,L|198:45,4,37.5
308,34,53119,2,0,L|300:70,4,37.5
365,138,53404,2,0,P|402:149|444:147,3,56.25
314,219,53690,2,0,P|286:221|259:230,3,56.25
400,277,53976,1,0,0:0:0:0:
217,325,54119,5,0,0:0:0:0:
174,312,54190,1,0,0:0:0:0:
130,299,54262,2,0,L|102:347,6,45
91,226,54547,2,0,L|63:274,6,45
50,156,54833,2,0,L|22:204,6,45
132,149,55119,6,0,L|170:157,6,22.5
79,72,55404,1,0,0:0:0:0:
175,51,55547,1,0,0:0:0:0:
262,96,55690,1,0,0:0:0:0:
307,184,55833,1,0,0:0:0:0:
391,236,55976,1,0,0:0:0:0:
490,235,56119,1,0,0:0:0:0:
453,72,56262,6,0,L|444:105,3,22.5
455,323,56547,1,0,0:0:0:0:
386,251,56690,1,0,0:0:0:0:
289,229,56833,1,0,0:0:0:0:
198,268,56976,1,0,0:0:0:0:
99,257,57119,1,0,0:0:0:0:
32,183,57262,1,0,0:0:0:0:
67,91,57404,1,0,0:0:0:0:
67,91,57690,5,0,0:0:0:0:
192,146,57833,1,0,0:0:0:0:
257,71,57976,1,0,0:0:0:0:
84,186,58119,1,0,0:0:0:0:
263,209,58262,1,0,0:0:0:0:
162,48,58404,1,0,0:0:0:0:
171,253,58547,2,0,L|165:281,2,22.5
162,48,58833,6,0,L|157:0,6,45
65,59,59119,2,0,L|17:64,6,45
80,149,59404,2,0,L|85:197,6,45
175,141,59690,6,0,P|231:138|166:166,1,168.75
123,282,59976,1,0,0:0:0:0:
160,306,60047,1,0,0:0:0:0:
203,292,60119,1,0,0:0:0:0:
245,306,60190,1,0,0:0:0:0:
290,311,60262,2,0,L|301:252,1,56.25
373,158,60404,2,0,L|383:213,1,56.25
477,284,60547,2,0,L|507:273,2,28.125
489,163,60690,2,0,L|459:152,2,28.125
369,71,60833,5,0,0:0:0:0:
411,58,60904,1,0,0:0:0:0:
377,27,60976,1,0,0:0:0:0:
332,22,61047,1,0,0:0:0:0:
289,38,61119,2,0,P|273:79|272:111,1,56.25
204,222,61262,1,0,0:0:0:0:
206,205,61333,1,0,0:0:0:0:
205,188,61404,2,0,P|199:160|187:135,1,56.25
39,64,61547,2,0,L|101:68,1,56.25
92,174,61690,2,0,B|59:187|59:187|22:174,2,75
120,285,61976,6,0,L|117:318,6,28.125
200,354,62262,1,0,0:0:0:0:
235,336,62333,1,0,0:0:0:0:
272,348,62404,1,0,0:0:0:0:
308,331,62476,1,0,0:0:0:0:
334,302,62547,2,0,L|340:264,2,28.125
266,234,62690,2,0,L|262:207,2,28.125
330,155,62833,1,0,0:0:0:0:
362,176,62904,1,0,0:0:0:0:
399,163,62976,2,0,L|433:170,2,28.125
497,99,63119,5,0,0:0:0:0:
136,129,63404,2,0,P|114:119|95:101,6,45
214,85,63690,2,0,P|233:70|258:63,6,45
215,171,63976,2,0,P|217:195|211:220,6,45
151,286,64262,6,0,L|69:273,1,67.5000025749208
175,306,64476,2,0,L|257:293,1,67.5000025749208
327,325,64690,2,0,P|301:295|269:276,1,67.5000025749208
257,250,64904,2,0,P|284:230|306:204,1,67.5000025749208
304,131,65119,2,0,L|299:102,6,16.8750006437302
241,59,65404,6,0,P|201:46|168:44,1,56.25
389,123,65547,2,0,P|416:118|442:108,1,56.25
495,27,65690,1,0,0:0:0:0:
213,153,65833,2,0,L|206:226,1,56.25
326,78,65976,2,0,L|320:22,1,56.25
123,113,66119,1,0,0:0:0:0:
315,232,66262,1,0,0:0:0:0:
313,204,66333,1,0,0:0:0:0:
311,176,66404,1,0,0:0:0:0:
226,318,66547,5,0,0:0:0:0:
263,305,66619,1,0,0:0:0:0:
296,324,66690,1,0,0:0:0:0:
328,346,66762,1,0,0:0:0:0:
365,334,66833,2,0,L|393:341,6,28.125
478,304,67119,2,0,P|459:275|448:244,1,56.25
436,147,67262,1,0,0:0:0:0:
415,180,67333,1,0,0:0:0:0:
379,164,67404,1,0,0:0:0:0:
339,158,67476,1,0,0:0:0:0:
300,166,67547,1,0,0:0:0:0:
283,130,67619,1,0,0:0:0:0:
257,159,67690,6,0,L|242:198,6,28.125
167,142,67976,6,0,P|146:115|131:99,6,45
160,228,68262,2,0,P|126:226|104:227,6,45
222,288,68547,2,0,P|199:313|186:331,6,45
90,325,68833,5,0,0:0:0:0:
89,72,73404,5,0,0:0:0:0:
84,94,73476,1,0,0:0:0:0:
79,115,73547,1,0,0:0:0:0:
177,135,73690,1,0,0:0:0:0:
172,157,73762,1,0,0:0:0:0:
167,178,73833,1,0,0:0:0:0:
289,115,73976,1,0,0:0:0:0:
284,137,74048,1,0,0:0:0:0:
279,158,74119,1,0,0:0:0:0:
377,178,74262,1,0,0:0:0:0:
372,200,74334,1,0,0:0:0:0:
367,221,74405,1,0,0:0:0:0:
377,52,74547,5,0,0:0:0:0:
382,74,74619,1,0,0:0:0:0:
387,95,74690,1,0,0:0:0:0:
289,115,74833,1,0,0:0:0:0:
294,137,74905,1,0,0:0:0:0:
299,158,74976,1,0,0:0:0:0:
177,95,75119,1,0,0:0:0:0:
182,117,75191,1,0,0:0:0:0:
187,138,75262,1,0,0:0:0:0:
89,158,75405,1,0,0:0:0:0:
94,180,75477,1,0,0:0:0:0:
99,201,75548,1,0,0:0:0:0:
192,238,75690,5,0,0:0:0:0:
85,63,75833,1,0,0:0:0:0:
197,254,75976,1,0,0:0:0:0:
151,116,76119,1,0,0:0:0:0:
199,272,76262,1,0,0:0:0:0:
216,166,76404,1,0,0:0:0:0:
195,289,76547,1,0,0:0:0:0:
281,215,76690,1,0,0:0:0:0:
141,207,76833,5,0,0:0:0:0:
292,132,76976,1,0,0:0:0:0:
126,191,77119,1,0,0:0:0:0:
364,172,77262,1,0,0:0:0:0:
111,169,77404,1,0,0:0:0:0:
400,243,77547,1,0,0:0:0:0:
101,146,77690,1,0,0:0:0:0:
403,319,77833,1,0,0:0:0:0:
480,128,77976,6,0,L|480:64,1,62.9999980773926
352,64,78262,2,0,L|288:64,1,62.9999980773926
288,192,78547,2,0,L|288:256,1,62.9999980773926
416,256,78833,2,0,L|480:256,1,62.9999980773926
0,192,79119,6,0,L|0:128,1,62.9999980773926
192,256,79405,2,0,L|192:319,1,62.9999980773926
128,128,79690,2,0,L|191:128,1,62.9999980773926
64,320,79976,2,0,L|0:320,1,62.9999980773926
279,184,80262,5,0,0:0:0:0:
366,265,80404,1,0,0:0:0:0:
168,235,80547,1,0,0:0:0:0:
297,84,80690,1,0,0:0:0:0:
297,84,80762,1,0,0:0:0:0:
297,84,80833,1,0,0:0:0:0:
260,306,80976,1,0,0:0:0:0:
382,156,81119,1,0,0:0:0:0:
187,120,81262,1,0,0:0:0:0:
386,282,81404,5,0,0:0:0:0:
398,280,81476,1,0,0:0:0:0:
410,278,81547,1,0,0:0:0:0:
422,276,81619,1,0,0:0:0:0:
434,274,81690,2,0,L|447:319,3,31.4999990386963
490,211,81976,2,0,P|490:165|496:134,1,62.9999980773926
376,51,82262,2,0,P|379:82|378:113,1,62.9999980773926
158,201,82547,5,0,0:0:0:0:
115,69,82833,5,0,0:0:0:0:
19,201,82976,1,0,0:0:0:0:
115,332,83119,1,0,0:0:0:0:
269,282,83262,1,0,0:0:0:0:
269,120,83404,1,0,0:0:0:0:
158,201,83547,1,0,0:0:0:0:
158,201,83690,1,0,0:0:0:0:
478,140,83976,5,0,0:0:0:0:
445,314,84119,1,0,0:0:0:0:
302,108,84262,1,0,0:0:0:0:
269,282,84405,1,0,0:0:0:0:
373,212,84547,1,0,0:0:0:0:
368,240,84619,1,0,0:0:0:0:
363,267,84690,1,0,0:0:0:0:
358,295,84762,1,0,0:0:0:0:
354,322,84833,1,0,0:0:0:0:
245,263,84976,5,0,0:0:0:0:
478,226,85119,1,0,0:0:0:0:
284,117,85262,1,0,0:0:0:0:
289,144,85333,1,0,0:0:0:0:
294,171,85404,1,0,0:0:0:0:
397,112,85547,1,0,0:0:0:0:
164,58,85690,1,0,0:0:0:0:
291,19,85833,1,0,0:0:0:0:
181,174,85976,5,0,0:0:0:0:
166,187,86047,1,0,0:0:0:0:
148,197,86119,1,0,0:0:0:0:
128,203,86190,1,0,0:0:0:0:
107,206,86262,1,0,0:0:0:0:
86,207,86333,1,0,0:0:0:0:
66,204,86404,1,0,0:0:0:0:
46,198,86476,1,0,0:0:0:0:
27,189,86547,1,0,0:0:0:0:
386,123,87119,6,0,L|392:186,1,45
296,132,87369,1,0,0:0:0:0:
475,113,87494,1,0,0:0:0:0:
397,248,87619,1,0,0:0:0:0:
120,192,88119,6,0,L|114:255,1,53.9999983520508
210,201,88369,1,0,0:0:0:0:
31,182,88494,1,0,0:0:0:0:
107,328,88619,1,0,0:0:0:0:
394,139,89119,6,0,L|400:202,1,62.9999980773926
304,148,89369,1,0,0:0:0:0:
483,129,89494,1,0,0:0:0:0:
408,286,89619,1,0,0:0:0:0:
117,74,90119,6,0,L|110:147,1,72
207,83,90369,1,0,0:0:0:0:
28,64,90494,1,0,0:0:0:0:
102,230,90619,1,0,0:0:0:0:
345,311,91119,5,0,0:0:0:0:
454,266,91244,1,0,0:0:0:0:
260,248,91369,1,0,0:0:0:0:
441,366,91494,1,0,0:0:0:0:
457,168,91619,1,0,0:0:0:0:
186,205,92119,5,0,0:0:0:0:
77,160,92244,1,0,0:0:0:0:
271,142,92369,1,0,0:0:0:0:
90,260,92494,1,0,0:0:0:0:
74,62,92619,1,0,0:0:0:0:
171,99,92869,5,0,0:0:0:0:
271,142,93119,6,0,P|315:134|343:122,1,72
95,200,93369,2,0,P|61:187|25:181,1,72
175,244,93619,2,0,B|191:200|191:200|174:153|174:153|184:107,1,144
260,42,93994,1,0,0:0:0:0:
266,292,94119,6,0,P|277:346|291:372,1,72
409,211,94369,2,0,P|398:157|384:131,1,72
367,305,94619,2,0,P|437:311|493:267,1,144
512,271,95119,6,0,P|442:325|354:317,1,180
277,207,95494,1,0,0:0:0:0:
400,128,95619,2,0,B|422:167|422:167|406:217,1,90
272,94,95869,2,0,B|250:55|250:55|266:5,1,90
391,2,96119,5,0,0:0:0:0:
191,157,96244,2,0,L|103:142,2,90
206,345,96619,2,0,L|221:257,1,90
321,227,96869,2,0,L|409:242,1,90
389,102,97119,6,0,B|339:95|299:112|299:112|285:68|240:35,1,180
148,45,97494,1,0,0:0:0:0:
466,175,97619,2,0,P|492:118|489:80,1,90
360,211,97869,2,0,P|363:255|385:294,1,90
494,347,98119,1,0,0:0:0:0:
494,347,98369,6,0,L|497:326,2,18
233,82,99119,6,0,P|161:65|60:140,1,180
38,217,99494,1,0,0:0:0:0:
255,190,99619,2,0,P|189:163|141:160,1,90
60,316,99869,2,0,P|103:306|144:286,1,90
324,360,100119,5,0,0:0:0:0:
269,181,100244,2,0,L|251:290,2,90
425,93,100619,2,0,P|398:41|392:4,1,90
405,264,100869,2,0,P|394:307|372:346,1,90
181,174,101119,6,0,B|256:165|256:165|292:180|292:180|388:169,1,180
243,278,101494,1,0,0:0:0:0:
75,220,101619,2,0,P|70:146|85:116,1,90
253,292,101869,2,0,L|147:286,1,90
372,172,102119,1,0,0:0:0:0:
372,172,102369,6,0,L|368:189,2,18
331,66,102994,5,0,0:0:0:0:
244,143,103119,6,0,P|268:244|267:333,1,180
163,371,103494,1,0,0:0:0:0:
117,135,103619,2,0,P|110:55|114:32,1,90
90,250,103869,2,0,P|10:257|-13:253,1,90
202,212,104119,6,0,B|295:189|276:273|370:250,1,180
483,177,104494,1,0,0:0:0:0:
349,80,104619,2,0,L|343:198,1,90
231,384,104869,2,0,L|226:294,1,90
116,37,105119,6,0,B|75:95|75:95|117:213,1,180
181,109,105494,1,0,0:0:0:0:
10,202,105619,2,0,L|-1:295,1,90
202,183,105869,2,0,L|191:93,1,90
366,19,106119,1,0,0:0:0:0:
366,19,106369,6,0,P|365:29|363:39,2,18
497,152,107119,6,0,P|398:112|308:138,1,180
245,208,107494,1,0,0:0:0:0:
148,273,107619,2,0,P|89:294|43:290,1,90
2,146,107869,1,0,0:0:0:0:
111,104,107994,1,0,0:0:0:0:
227,109,108119,6,0,P|310:142|374:227,1,180
414,310,108494,1,0,0:0:0:0:
460,162,108619,2,0,P|479:112|501:72,1,90
260,250,108869,2,0,P|280:289|296:332,1,90
56,287,109119,6,0,L|71:97,1,180
172,27,109494,1,0,0:0:0:0:
178,273,109619,2,0,L|186:377,1,90
298,108,109869,2,0,L|304:18,1,90
316,338,110119,1,0,0:0:0:0:
316,338,110369,6,0,P|319:329|319:319,2,18
93,120,111119,6,0,B|142:88|142:88|203:101,1,116.999994644165
164,217,111369,1,0,0:0:0:0:
307,158,111494,1,0,0:0:0:0:
329,139,111556,1,0,0:0:0:0:
351,120,111619,2,0,L|340:55,1,58.4999973220826
433,177,111744,2,0,L|423:234,1,58.4999973220826
304,308,111869,2,0,L|310:339,2,29.2499986610413
273,277,111994,2,0,L|278:248,2,29.2499986610413
189,340,112119,6,0,P|156:338|134:327,1,58.4999973220826
24,213,112244,2,0,P|50:200|79:199,1,58.4999973220826
182,108,112369,1,0,0:0:0:0:
217,137,112431,1,0,0:0:0:0:
264,135,112494,1,0,0:0:0:0:
301,107,112556,1,0,0:0:0:0:
346,120,112619,2,0,L|357:186,1,58.4999973220826
462,119,112744,2,0,L|471:61,1,58.4999973220826
446,230,112869,2,0,L|451:263,6,29.2499986610413
374,328,113119,5,0,0:0:0:0:
357,311,113181,1,0,0:0:0:0:
334,317,113244,1,0,0:0:0:0:
311,324,113306,1,0,0:0:0:0:
289,333,113369,2,0,P|245:324|227:315,1,58.4999973220826
156,239,113494,1,0,0:0:0:0:
270,131,113619,2,0,L|260:204,1,58.4999973220826
148,109,113744,2,0,L|140:51,1,58.4999973220826
364,43,113869,2,0,L|361:80,6,29.2499986610413
249,10,114119,5,0,0:0:0:0:
449,302,114369,6,0,B|475:326|475:326|516:328,6,67.5000025749208
434,216,114619,6,0,B|441:181|441:181|423:144,6,67.5000025749208
368,274,114869,6,0,B|334:284|334:284|311:319,6,67.5000025749208
315,188,115119,5,0,0:0:0:0:
284,223,115181,1,0,0:0:0:0:
240,204,115244,1,0,0:0:0:0:
195,218,115306,1,0,0:0:0:0:
149,207,115369,2,0,P|133:245|131:269,1,58.4999973220826
192,115,115494,2,0,P|186:86|174:60,1,58.4999973220826
26,129,115619,2,0,L|98:141,1,58.4999973220826
332,26,115744,2,0,L|260:38,1,58.4999973220826
81,43,115869,2,0,L|65:9,6,29.2499986610413
206,132,116119,6,0,L|282:119,1,58.4999973220826
112,238,116244,2,0,L|36:225,1,58.4999973220826
160,332,116369,1,0,0:0:0:0:
199,307,116431,1,0,0:0:0:0:
242,326,116494,1,0,0:0:0:0:
288,331,116556,1,0,0:0:0:0:
329,308,116619,2,0,P|362:313|399:336,1,58.4999973220826
318,193,116744,2,0,P|291:205|262:209,1,58.4999973220826
374,100,116869,1,0,0:0:0:0:
396,100,116931,1,0,0:0:0:0:
419,103,116994,1,0,0:0:0:0:
437,88,117056,1,0,0:0:0:0:
456,75,117119,6,0,L|488:161,1,58.4999973220826
284,84,117244,2,0,L|263:29,1,58.4999973220826
140,69,117369,1,0,0:0:0:0:
163,108,117431,1,0,0:0:0:0:
164,155,117494,1,0,0:0:0:0:
128,185,117556,1,0,0:0:0:0:
139,230,117619,2,0,P|176:241|199:241,1,58.4999973220826
56,120,117744,2,0,P|26:121|0:131,1,58.4999973220826
18,309,117869,2,0,L|24:346,2,29.2499986610413
44,277,117994,2,0,L|48:248,2,29.2499986610413
135,362,118119,5,0,0:0:0:0:
316,123,118369,6,0,L|333:58,6,67.5000025749208
340,208,118619,2,0,L|387:255,6,67.5000025749208
253,189,118869,2,0,L|188:206,6,67.5000025749208
228,94,119119,6,0,P|195:78|172:72,1,58.4999973220826
404,140,119244,2,0,P|432:131|457:118,1,58.4999973220826
294,207,119369,1,0,0:0:0:0:
273,248,119431,1,0,0:0:0:0:
295,289,119494,1,0,0:0:0:0:
295,335,119556,1,0,0:0:0:0:
248,339,119619,2,0,L|175:330,1,58.4999973220826
385,244,119744,2,0,L|458:235,1,58.4999973220826
202,206,119869,2,0,L|191:168,6,29.2499986610413
118,264,120119,6,0,P|92:308|89:330,1,58.4999973220826
85,148,120244,2,0,P|75:120|57:97,1,58.4999973220826
175,46,120369,1,0,0:0:0:0:
207,78,120431,1,0,0:0:0:0:
254,75,120494,1,0,0:0:0:0:
290,46,120556,1,0,0:0:0:0:
334,62,120619,2,0,B|355:81|355:81|366:118,1,58.4999973220826
470,71,120744,2,0,B|478:42|478:42|499:23,1,58.4999973220826
449,179,120869,1,0,0:0:0:0:
450,225,120931,1,0,0:0:0:0:
419,260,120994,2,0,L|341:245,1,58.4999973220826
306,333,121119,6,0,B|250:277|250:277|130:310,1,175.499991966248
67,265,121369,2,0,P|33:339|31:365,2,77.9999964294435
79,156,121619,2,0,P|5:190|-12:209,2,77.9999964294435
134,78,121869,1,0,0:0:0:0:
156,95,121931,1,0,0:0:0:0:
184,103,121994,2,0,L|216:97,2,29.2499986610413
177,204,122119,5,0,0:0:0:0:
411,122,122369,6,0,P|440:89|447:62,6,67.5000025749208
403,210,122619,6,0,P|446:203|469:187,6,67.5000025749208
337,272,122869,6,0,P|374:294|402:297,6,67.5000025749208
307,169,123119,5,0,0:0:0:0:
274,144,123181,1,0,0:0:0:0:
234,156,123244,1,0,0:0:0:0:
211,189,123306,1,0,0:0:0:0:
172,203,123369,2,0,L|115:182,1,58.4999973220826
223,327,123494,2,0,L|244:270,1,58.4999973220826
58,326,123619,2,0,P|107:315|131:302,1,58.4999973220826
168,99,123744,2,0,P|140:88|111:84,1,58.4999973220826
0,179,123869,2,0,L|5:211,2,29.2499986610413
24,146,123994,2,0,L|28:117,2,29.2499986610413
117,182,124119,6,0,L|123:259,1,58.4999973220826
259,139,124244,2,0,L|263:80,1,58.4999973220826
260,281,124369,2,0,P|235:311|208:328,1,58.4999973220826
405,251,124494,2,0,P|381:233|364:209,1,58.4999973220826
364,52,124619,1,0,0:0:0:0:
404,56,124681,1,0,0:0:0:0:
427,90,124744,1,0,0:0:0:0:
443,127,124806,1,0,0:0:0:0:
482,137,124869,1,0,0:0:0:0:
82,79,125119,6,0,L|41:72,6,29.2499986610413
194,41,125369,1,0,0:0:0:0:
222,77,125431,1,0,0:0:0:0:
208,122,125494,1,0,0:0:0:0:
212,168,125556,1,0,0:0:0:0:
189,209,125619,2,0,L|202:274,1,58.4999973220826
66,363,125744,2,0,L|77:305,1,58.4999973220826
290,221,125869,2,0,L|337:214,6,29.2499986610413
130,149,126119,5,0,0:0:0:0:
476,317,126369,6,0,L|494:238,6,67.5000025749208
428,199,126619,6,0,L|446:120,6,67.5000025749208
383,77,126869,6,0,L|401:-2,6,67.5000025749208
305,125,127119,5,0,0:0:0:0:
110,52,127369,1,0,0:0:0:0:
90,94,127431,1,0,0:0:0:0:
121,129,127494,1,0,0:0:0:0:
160,152,127556,1,0,0:0:0:0:
185,191,127619,1,0,0:0:0:0:
130,322,127869,1,0,0:0:0:0:
34,237,128119,6,0,L|39:170,1,58.4999973220826
231,38,128244,2,0,L|226:105,1,58.4999973220826
147,297,128369,2,0,L|152:230,1,58.4999973220826
344,98,128494,2,0,L|339:165,1,58.4999973220826
351,323,128619,1,0,0:0:0:0:
396,313,128681,1,0,0:0:0:0:
436,336,128744,2,0,P|466:293|471:272,1,58.4999973220826
246,193,128869,2,0,P|258:219|277:241,1,58.4999973220826
426,194,128994,1,0,0:0:0:0:
183,105,129119,6,0,L|151:111,6,29.2499986610413
246,25,129369,1,0,0:0:0:0:
274,61,129431,1,0,0:0:0:0:
319,47,129494,1,0,0:0:0:0:
360,68,129556,1,0,0:0:0:0:
407,68,129619,1,0,0:0:0:0:
282,253,129869,2,0,L|274:221,2,29.2499986610413
312,285,129994,2,0,L|304:313,2,29.2499986610413
207,307,130119,5,0,0:0:0:0:
100,54,130369,6,0,B|68:44|68:44|74:79,6,67.5000025749208
88,181,130619,6,0,B|95:213|95:213|122:190,6,67.5000025749208
206,122,130869,6,0,B|229:99|229:99|196:87,6,67.5000025749208
132,122,131119,6,0,P|122:206|129:265,1,135.000005149842
174,322,131494,1,0,0:0:0:0:
249,352,131619,1,0,0:0:0:0:
319,311,131744,1,0,0:0:0:0:
322,230,131869,1,0,0:0:0:0:
366,162,131994,1,0,0:0:0:0:
446,160,132119,6,0,P|496:198|516:270,1,135.000005149842
464,328,132494,1,0,0:0:0:0:
383,338,132619,1,0,0:0:0:0:
318,289,132744,1,0,0:0:0:0:
322,208,132869,1,0,0:0:0:0:
277,140,132994,1,0,0:0:0:0:
198,121,133119,6,0,P|136:136|73:196,1,135.000005149842
75,262,133494,1,0,0:0:0:0:
144,303,133619,1,0,0:0:0:0:
223,289,133744,1,0,0:0:0:0:
276,228,133869,1,0,0:0:0:0:
352,200,133994,1,0,0:0:0:0:
429,222,134119,2,0,L|442:248,2,16.8750006437302
67,102,134369,6,0,L|63:27,6,67.5000025749208
161,103,134619,6,0,L|236:99,6,67.5000025749208
163,195,134869,6,0,L|167:270,6,67.5000025749208
110,336,135119,6,0,B|153:313|172:286|172:286|198:310|248:320,1,157.500001502037
351,188,135369,2,0,L|295:193,6,39.3750003755093
258,113,135619,1,0,0:0:0:0:
299,91,135681,1,0,0:0:0:0:
346,98,135744,1,0,0:0:0:0:
366,56,135806,1,0,0:0:0:0:
412,46,135869,2,0,L|458:49,2,39.3750003755093
512,82,135994,2,0,L|466:85,2,39.3750003755093
303,8,136119,5,0,0:0:0:0:
259,24,136181,1,0,0:0:0:0:
212,35,136244,1,0,0:0:0:0:
168,18,136306,1,0,0:0:0:0:
136,53,136369,2,0,L|127:138,1,78.7500007510185
245,202,136494,2,0,L|236:123,1,78.7500007510185
112,253,136619,1,0,0:0:0:0:
149,315,136681,1,0,0:0:0:0:
218,292,136744,1,0,0:0:0:0:
291,297,136806,1,0,0:0:0:0:
350,336,136869,2,0,L|401:334,6,39.3750003755093
244,378,137119,5,0,0:0:0:0:
46,155,137369,2,0,P|29:114|29:75,1,78.7500007510185
169,53,137494,2,0,P|186:94|186:133,1,78.7500007510185
279,238,137619,1,0,0:0:0:0:
344,264,137681,1,0,0:0:0:0:
383,204,137744,1,0,0:0:0:0:
390,134,137806,1,0,0:0:0:0:
427,73,137869,2,0,L|517:64,1,78.7500007510185
198,166,137994,2,0,L|108:157,1,78.7500007510185
294,9,138119,6,0,L|317:182,1,157.500001502037
138,316,138369,6,0,P|96:309|69:293,6,67.5000025749208
222,263,138619,6,0,P|236:302|236:334,6,67.5000025749208
136,220,138869,6,0,P|163:187|190:171,1,67.5000025749208
33,200,139119,6,0,B|6:113|6:113|18:98|18:98|22:62,1,135
334,220,139494,2,0,B|336:244|336:244|348:259|348:259|321:346,1,135
218,84,139869,2,0,L|220:51,6,22.5
290,134,140119,6,0,L|363:117,1,67.5000025749208
181,198,140244,2,0,L|108:181,1,67.5000025749208
211,333,140369,1,0,0:0:0:0:
240,305,140431,1,0,0:0:0:0:
279,293,140494,1,0,0:0:0:0:
319,291,140556,1,0,0:0:0:0:
357,303,140619,2,0,B|375:331|375:331|368:372,1,67.5000025749208
457,216,140744,2,0,B|439:188|439:188|446:147,1,67.5000025749208
378,25,140869,1,0,0:0:0:0:
342,64,140931,1,0,0:0:0:0:
290,47,140994,1,0,0:0:0:0:
239,63,141056,1,0,0:0:0:0:
186,49,141119,6,0,P|154:62|116:65,1,67.5000025749208
275,157,141244,2,0,P|308:160|339:173,1,67.5000025749208
172,261,141369,2,0,L|156:155,2,90.0000034332277
52,147,141619,1,0,0:0:0:0:
116,363,141744,1,0,0:0:0:0:
148,355,141806,1,0,0:0:0:0:
181,348,141869,2,0,L|264:369,1,67.5000025749208
80,256,141994,2,0,L|-3:277,1,67.5000025749208
248,222,142119,6,0,L|259:271,6,33.7500012874604
148,158,142369,2,0,L|155:125,6,33.7500012874604
251,131,142619,6,0,L|283:138,6,33.7500012874604
380,31,142869,2,0,L|347:38,6,33.7500012874604
438,131,143119,5,0,0:0:0:0:
464,169,143181,1,0,0:0:0:0:
445,212,143244,1,0,0:0:0:0:
438,258,143306,1,0,0:0:0:0:
466,296,143369,2,0,L|456:371,1,67.5000025749208
316,286,143494,2,0,L|307:219,1,67.5000025749208
187,80,143619,1,0,0:0:0:0:
157,116,143681,1,0,0:0:0:0:
173,160,143744,1,0,0:0:0:0:
183,205,143806,1,0,0:0:0:0:
145,234,143869,2,0,L|104:226,2,33.7500012874604
436,136,144119,6,0,L|476:132,2,33.7500012874604
370,174,144244,1,0,0:0:0:0:
248,53,144369,2,0,L|208:49,2,33.7500012874604
314,91,144494,1,0,0:0:0:0:
252,263,144619,2,0,L|246:223,4,33.7500012874604
455,284,144869,2,0,L|449:317,4,33.7500012874604
105,344,145119,6,0,L|15:333,1,67.5000025749208
8,205,145244,1,0,0:0:0:0:
47,229,145306,1,0,0:0:0:0:
94,222,145369,2,0,P|114:177|117:149,1,67.5000025749208
37,71,145494,2,0,L|40:111,2,33.7500012874604
148,31,145619,1,0,0:0:0:0:
192,16,145681,1,0,0:0:0:0:
236,34,145744,1,0,0:0:0:0:
256,76,145806,1,0,0:0:0:0:
302,67,145869,6,0,B|347:54|347:54|363:55|363:55|390:34|390:34|453:44,2,135
211,203,146369,6,0,L|148:180,6,67.5000025749208
301,220,146619,6,0,L|352:176,6,67.5000025749208
242,280,146869,6,0,L|253:346,1,67.5000025749208
118,333,147119,5,0,0:0:0:0:
82,314,147181,1,0,0:0:0:0:
77,273,147244,1,0,0:0:0:0:
58,237,147306,1,0,0:0:0:0:
28,209,147369,1,0,0:0:0:0:
127,75,147494,1,0,0:0:0:0:
128,115,147556,1,0,0:0:0:0:
112,152,147619,1,0,0:0:0:0:
140,179,147681,1,0,0:0:0:0:
180,180,147744,1,0,0:0:0:0:
254,75,147869,2,0,L|304:86,2,33.7500012874604
355,99,147994,2,0,L|305:110,2,33.7500012874604
277,183,148119,6,0,L|301:271,1,67.5000025749208
351,330,148244,1,0,0:0:0:0:
386,311,148306,1,0,0:0:0:0:
426,308,148369,1,0,0:0:0:0:
512,187,148494,6,0,B|491:187|491:187|483:209|483:209|457:197|457:197|428:197|428:197|407:184|407:184|386:193|386:193|358:191,1,168.750006437302
451,80,148869,6,0,L|457:124,4,33.7500012874604
305,332,149119,6,0,P|255:322|229:312,1,67.5000025749208
87,211,149244,1,0,0:0:0:0:
128,232,149306,1,0,0:0:0:0:
165,203,149369,2,0,P|203:186|243:184,1,67.5000025749208
367,220,149494,2,0,L|326:233,2,33.7500012874604
316,113,149619,2,0,L|319:34,1,67.5000025749208
458,191,149744,2,0,L|455:270,1,67.5000025749208
229,79,149869,2,0,L|212:38,2,33.7500012874604
197,115,149994,6,0,L|191:153,10,33.7500012874604
103,154,150369,6,0,L|32:137,6,67.5000025749208
108,230,150619,6,0,L|41:256,6,67.5000025749208
157,289,150869,6,0,L|117:349,6,67.5000025749208
231,309,151119,6,0,L|233:380,6,67.5000025749208
303,283,151369,6,0,L|346:340,6,67.5000025749208
347,221,151619,6,0,L|415:243,6,67.5000025749208
256,192,151869,12,0,154556,0:0:0:0:
264,264,153119,6,0,B|276:252|276:252|272:256|272:256|276:252|276:252|272:256|272:256|276:252|276:252|272:256|272:256|276:252|276:252|272:256|272:256|276:252|276:252|272:256|272:256|276:252|276:252|272:256|272:256|276:252|276:252|272:256|272:256|276:252|276:252|272:256|272:256|276:252|276:252|272:256|272:256|276:252|276:252|272:256|272:256|276:252|276:252|272:256|272:256|276:252|276:252|272:256|272:256|276:252|276:252|272:256|272:256|276:252|276:252|272:256|272:256|276:252|276:252|272:256|272:256|276:252|276:252|272:256|272:256|276:252|276:252|272:256|272:256|276:252|276:252|272:256|272:256|276:252|276:252|272:256|272:256|276:252|276:252|272:256|272:256|276:252|276:252|272:256|272:256|276:252|276:252|272:256|272:256|276:252|276:252|272:256|272:256|276:252|276:252|272:256|272:256|276:252|276:252|272:256|272:256|276:252|276:252|272:256|272:256|276:252|276:252|272:256|272:256|276:252|276:252|272:256|272:256|276:252|276:252|272:256|272:256|276:252|276:252|272:256|272:256|276:252|276:252|272:256|272:256|276:252|276:252|272:256|272:256|276:252|276:252|272:256|272:256|276:252|276:252|272:256|272:256|276:252|276:252|288:240,1,414
