osu file format v14

[General]
AudioFilename: audio.mp3
AudioLeadIn: 0
PreviewTime: 47287
Countdown: 0
SampleSet: Normal
StackLeniency: 0.7
Mode: 1
LetterboxInBreaks: 0
WidescreenStoryboard: 0

[Editor]
DistanceSpacing: 0.8
BeatDivisor: 8
GridSize: 8
TimelineZoom: 2.3

[Metadata]
Title:Black Lawn Finale
TitleUnicode:Black Lawn Finale
Artist:The Flashbulb
ArtistUnicode:The Flashbulb
Creator:Nofool
Version:mint's Oni
Source:
Tags:featured artist mintong89 benn jordan red extensions of me breakcore
BeatmapID:2032166
BeatmapSetID:967099

[Difficulty]
HPDrainRate:5
CircleSize:6
OverallDifficulty:6
ApproachRate:8
SliderMultiplier:1.4
SliderTickRate:1

[Events]
//Background and Video events
0,0,"BG114.jpg",0,0
//Break Periods
//Storyboard Layer 0 (Background)
//Storyboard Layer 1 (Fail)
//Storyboard Layer 2 (Pass)
//Storyboard Layer 3 (Foreground)
//Storyboard Sound Samples

[TimingPoints]
145,329.67032967033,4,1,0,50,1,0
145,-125,4,1,0,50,0,0
10694,-111.111111111111,4,1,0,60,0,0
21243,-100,4,1,0,70,0,0
42425,-133.333333333333,4,1,0,50,0,0
47617,-90.9090909090909,4,1,0,70,0,1
55199,-90.9090909090909,4,1,0,70,0,0
55529,-90.9090909090909,4,1,0,70,0,1
63441,-100,4,1,0,70,0,0
84293,-97.0873786407767,4,1,0,70,0,0
84375,-95.2380952380952,4,1,0,70,0,0
84458,-92.5925925925926,4,1,0,70,0,0
84540,-90.9090909090909,4,1,0,70,0,1
94760,-90.9090909090909,4,1,0,70,0,0
95090,-90.9090909090909,4,1,0,70,0,1
105639,-100,4,1,0,70,0,0
137370,-108.695652173913,4,1,0,70,0,0
158427,-138.888888888889,4,1,0,40,0,0
160982,-138.888888888889,4,1,0,60,0,0
161065,-138.888888888889,4,1,0,40,0,0
162301,-138.888888888889,4,1,0,60,0,0
162384,-138.888888888889,4,1,0,40,0,0
163620,-138.888888888889,4,1,0,60,0,0
163703,-138.888888888889,4,1,0,40,0,0
166257,-138.888888888889,4,1,0,60,0,0
166340,-138.888888888889,4,1,0,40,0,0
167576,-138.888888888889,4,1,0,60,0,0
167659,-138.888888888889,4,1,0,40,0,0
168895,-138.888888888889,4,1,0,60,0,0
168978,-138.888888888889,4,1,0,40,0,0
171532,-135.135135135135,4,1,0,70,0,0
171615,-135.135135135135,4,1,0,40,0,0
172851,-135.135135135135,4,1,0,70,0,0
172934,-135.135135135135,4,1,0,40,0,0
174169,-135.135135135135,4,1,0,70,0,0
174252,-135.135135135135,4,1,0,40,0,0
176807,-135.135135135135,4,1,0,70,0,0
176890,-135.135135135135,4,1,0,40,0,0
178125,-135.135135135135,4,1,0,70,0,0
178208,-135.135135135135,4,1,0,40,0,0
179444,-135.135135135135,4,1,0,70,0,0
179527,-135.135135135135,4,1,0,40,0,0
182081,-135.135135135135,4,1,0,70,0,0
182164,-135.135135135135,4,1,0,40,0,0
182741,-129.87012987013,4,1,0,70,0,0
182823,-129.87012987013,4,1,0,40,0,0
183400,-125,4,1,0,70,0,0
183482,-125,4,1,0,40,0,0
184059,-120.481927710843,4,1,0,70,0,0
184142,-120.481927710843,4,1,0,40,0,0
184719,-116.279069767442,4,1,0,70,0,0
184801,-116.279069767442,4,1,0,40,0,0
185213,-113.636363636364,4,1,0,40,0,0
187356,-113.636363636364,4,1,0,70,0,0
187438,-113.636363636364,4,1,0,40,0,0
188015,-108.695652173913,4,1,0,70,0,0
188098,-108.695652173913,4,1,0,40,0,0
188675,-104.166666666667,4,1,0,70,0,0
188757,-104.166666666667,4,1,0,40,0,0
189334,-100,4,1,0,70,0,0
189416,-100,4,1,0,40,0,0
190007,-90.9090909090909,4,1,0,70,0,0
208496,-125,4,1,0,70,0,0
211134,-90.9090909090909,4,1,0,70,0,1
218716,-90.9090909090909,4,1,0,70,0,0
219046,-90.9090909090909,4,1,0,70,0,1
248057,-83.3333333333333,4,1,0,70,0,0
248098,-90.9090909090909,4,1,0,70,0,0
253290,-90.9090909090909,4,1,0,20,0,0
254609,-90.9090909090909,4,1,0,10,0,0
255927,-90.9090909090909,4,1,0,5,0,0

[HitObjects]
256,192,145,5,0,0:0:0:0:
256,192,639,1,0,0:0:0:0:
256,192,1134,1,0,0:0:0:0:
256,192,1463,1,8,0:0:0:0:
261,235,2123,1,8,0:0:0:0:
256,192,2782,1,8,0:0:0:0:
256,192,3276,1,0,0:0:0:0:
256,192,3771,1,0,0:0:0:0:
256,192,4101,1,0,0:0:0:0:
256,192,5419,1,0,0:0:0:0:
256,192,5914,1,0,0:0:0:0:
256,192,6408,1,0,0:0:0:0:
256,192,6738,1,8,0:0:0:0:
286,192,7397,1,8,0:0:0:0:
256,192,8057,1,8,0:0:0:0:
256,192,8551,1,0,0:0:0:0:
256,192,9046,1,0,0:0:0:0:
256,192,9375,1,0,0:0:0:0:
78,192,10694,1,0,0:0:0:0:
78,192,11024,1,8,0:0:0:0:
78,192,11188,1,0,0:0:0:0:
249,205,11518,1,0,0:0:0:0:
166,217,11683,1,8,0:0:0:0:
292,172,12013,1,0,0:0:0:0:
292,172,12177,1,0,0:0:0:0:
292,172,12342,1,8,0:0:0:0:
292,172,12837,1,0,0:0:0:0:
292,172,13002,1,8,0:0:0:0:
250,225,13331,1,0,0:0:0:0:
250,225,13661,1,8,0:0:0:0:
250,225,13826,1,0,0:0:0:0:
250,225,14155,1,8,0:0:0:0:
250,225,14320,1,8,0:0:0:0:
250,225,14485,1,8,0:0:0:0:
250,225,14650,1,0,0:0:0:0:
247,262,15145,1,8,0:0:0:0:
247,262,15474,1,0,0:0:0:0:
247,262,15639,1,8,0:0:0:0:
164,217,15804,1,8,0:0:0:0:
164,217,15969,1,0,0:0:0:0:
268,259,16298,1,8,0:0:0:0:
268,259,16463,1,0,0:0:0:0:
268,259,16793,1,0,0:0:0:0:
268,259,16958,1,8,0:0:0:0:
268,259,17123,1,8,0:0:0:0:
268,259,17287,1,0,0:0:0:0:
276,209,17617,1,0,0:0:0:0:
268,259,17947,1,8,0:0:0:0:
153,187,18112,1,0,0:0:0:0:
322,252,18441,1,8,0:0:0:0:
265,200,18606,1,0,0:0:0:0:
129,94,18716,1,0,0:0:0:0:
133,90,18826,1,0,0:0:0:0:
133,89,18936,1,8,0:0:0:0:
317,111,19265,1,0,0:0:0:0:
317,111,19430,1,0,0:0:0:0:
317,111,19595,1,8,0:0:0:0:
317,111,19760,1,8,0:0:0:0:
317,111,19925,1,0,0:0:0:0:
149,189,20584,1,8,0:0:0:0:
149,189,20914,1,8,0:0:0:0:
75,206,21243,1,0,0:0:0:0:
75,206,21408,1,0,0:0:0:0:
75,206,21573,1,8,0:0:0:0:
239,244,21820,1,8,0:0:0:0:
239,244,21903,1,0,0:0:0:0:
239,244,22068,1,0,0:0:0:0:
239,244,22232,1,8,0:0:0:0:
153,267,22397,1,0,0:0:0:0:
239,244,22562,1,0,0:0:0:0:
239,244,22892,1,8,0:0:0:0:
239,244,23057,1,8,0:0:0:0:
239,244,23221,1,0,0:0:0:0:
156,264,23551,1,8,0:0:0:0:
156,264,23716,1,0,0:0:0:0:
156,264,23881,1,8,0:0:0:0:
142,170,24210,1,8,0:0:0:0:
142,170,24375,1,8,0:0:0:0:
142,170,24540,1,0,0:0:0:0:
251,118,24705,1,8,0:0:0:0:
392,175,24870,1,8,0:0:0:0:
392,175,24980,1,8,0:0:0:0:
392,175,25090,1,8,0:0:0:0:
392,175,25199,1,0,0:0:0:0:
115,214,25529,1,8,0:0:0:0:
115,214,25859,1,0,0:0:0:0:
115,214,26024,1,8,0:0:0:0:
121,208,26188,1,0,0:0:0:0:
230,237,26271,1,0,0:0:0:0:
205,261,26353,1,8,0:0:0:0:
205,261,26518,1,0,0:0:0:0:
252,269,26848,1,8,0:0:0:0:
230,237,27013,1,0,0:0:0:0:
190,107,27177,1,0,0:0:0:0:
136,194,27342,1,8,0:0:0:0:
252,269,27507,1,8,0:0:0:0:
148,84,27590,1,8,0:0:0:0:
148,84,27672,1,8,0:0:0:0:
155,86,27754,1,8,0:0:0:0:
155,86,27837,1,0,0:0:0:0:
253,94,28084,1,0,0:0:0:0:
253,94,28331,1,0,0:0:0:0:
254,108,28496,1,8,0:0:0:0:
163,235,28661,1,0,0:0:0:0:
163,235,28826,1,8,0:0:0:0:
180,238,29155,1,0,0:0:0:0:
124,193,29485,1,8,0:0:0:0:
124,193,29732,1,8,0:0:0:0:
124,193,29980,1,8,0:0:0:0:
124,193,30227,1,8,0:0:0:0:
124,193,30474,1,0,0:0:0:0:
168,136,30804,1,8,0:0:0:0:
132,198,31051,1,8,0:0:0:0:
138,264,31216,1,8,0:0:0:0:
137,265,31298,1,8,0:0:0:0:
137,265,31381,1,8,0:0:0:0:
19,198,31463,1,8,0:0:0:0:
328,295,31546,1,0,0:0:0:0:
81,234,31793,1,0,0:0:0:0:
81,234,31958,1,0,0:0:0:0:
81,234,32123,1,8,0:0:0:0:
152,155,32370,1,8,0:0:0:0:
152,155,32452,1,0,0:0:0:0:
184,282,32617,1,0,0:0:0:0:
184,282,32782,1,8,0:0:0:0:
184,282,33112,1,0,0:0:0:0:
184,282,33276,1,8,0:0:0:0:
60,146,33359,1,0,0:0:0:0:
184,282,33524,1,8,0:0:0:0:
60,146,33606,1,0,0:0:0:0:
188,280,33771,1,8,0:0:0:0:
289,239,34101,1,8,0:0:0:0:
289,239,34265,1,8,0:0:0:0:
289,239,34348,1,8,0:0:0:0:
289,239,34430,1,0,0:0:0:0:
164,227,34595,1,0,0:0:0:0:
289,239,34760,1,8,0:0:0:0:
164,227,34925,1,0,0:0:0:0:
164,227,35090,1,0,0:0:0:0:
179,240,35172,1,0,0:0:0:0:
164,227,35254,1,0,0:0:0:0:
164,227,35419,1,8,0:0:0:0:
165,146,35584,1,8,0:0:0:0:
100,63,35749,1,0,0:0:0:0:
100,63,35914,1,0,0:0:0:0:
100,63,36079,1,8,0:0:0:0:
100,63,36161,1,8,0:0:0:0:
100,63,36243,1,0,0:0:0:0:
100,63,36573,1,0,0:0:0:0:
100,63,36738,1,8,0:0:0:0:
80,182,37068,1,0,0:0:0:0:
80,182,37397,1,8,0:0:0:0:
174,184,37562,1,0,0:0:0:0:
174,184,37645,1,0,0:0:0:0:
174,184,37727,1,8,0:0:0:0:
174,184,37892,1,0,0:0:0:0:
174,184,38057,1,8,0:0:0:0:
142,159,38386,1,8,0:0:0:0:
96,138,38469,1,8,0:0:0:0:
142,159,38551,1,0,0:0:0:0:
142,159,38716,1,0,0:0:0:0:
142,159,38881,1,8,0:0:0:0:
96,138,38963,1,8,0:0:0:0:
142,159,39046,1,0,0:0:0:0:
142,159,39210,1,0,0:0:0:0:
142,159,39375,1,8,0:0:0:0:
142,159,39458,1,8,0:0:0:0:
142,159,39540,1,8,0:0:0:0:
70,179,39705,1,0,0:0:0:0:
110,158,40035,1,8,0:0:0:0:
110,158,40199,1,0,0:0:0:0:
110,158,40282,1,8,0:0:0:0:
110,158,40447,1,0,0:0:0:0:
110,158,40529,1,8,0:0:0:0:
110,158,40694,1,8,0:0:0:0:
109,131,40859,1,0,0:0:0:0:
110,158,41024,1,0,0:0:0:0:
180,220,41353,1,8,0:0:0:0:
109,131,41518,1,0,0:0:0:0:
129,183,41848,1,8,0:0:0:0:
129,183,42013,1,0,0:0:0:0:
129,183,42177,1,8,0:0:0:0:
256,192,42342,1,0,0:0:0:0:
256,192,42672,1,0,0:0:0:0:
256,192,43002,1,8,0:0:0:0:
256,192,43331,1,8,0:0:0:0:
256,192,43496,1,0,0:0:0:0:
256,192,43826,1,8,0:0:0:0:
256,192,43991,1,0,0:0:0:0:
256,192,44155,1,0,0:0:0:0:
256,192,44320,1,8,0:0:0:0:
256,192,44650,1,8,0:0:0:0:
256,192,44815,1,0,0:0:0:0:
256,192,44980,1,0,0:0:0:0:
256,192,45309,1,0,0:0:0:0:
256,192,45639,1,8,0:0:0:0:
256,192,45969,1,0,0:0:0:0:
256,192,46134,1,0,0:0:0:0:
256,192,46463,1,8,0:0:0:0:
256,192,46628,1,0,0:0:0:0:
256,192,46793,1,0,0:0:0:0:
256,192,47123,1,0,0:0:0:0:
256,192,47287,1,8,0:0:0:0:
97,232,47617,1,4,0:0:0:0:
97,232,47782,1,0,0:0:0:0:
178,246,47947,1,8,0:0:0:0:
207,222,48112,1,0,0:0:0:0:
207,222,48194,1,0,0:0:0:0:
169,250,48276,1,0,0:0:0:0:
244,241,48441,1,0,0:0:0:0:
244,241,48606,1,8,0:0:0:0:
137,235,48771,1,8,0:0:0:0:
137,235,48853,1,8,0:0:0:0:
137,235,48936,1,0,0:0:0:0:
180,269,49101,1,0,0:0:0:0:
180,269,49265,1,8,0:0:0:0:
190,284,49430,1,0,0:0:0:0:
190,284,49595,1,0,0:0:0:0:
190,284,49677,1,0,0:0:0:0:
190,283,49760,1,8,0:0:0:0:
193,281,49925,1,0,0:0:0:0:
192,281,50007,1,0,0:0:0:0:
193,281,50090,1,8,0:0:0:0:
248,222,50254,1,8,0:0:0:0:
377,168,50584,1,0,0:0:0:0:
377,168,50666,1,0,0:0:0:0:
377,168,50749,1,8,0:0:0:0:
377,168,50831,1,8,0:0:0:0:
377,168,50914,1,8,0:0:0:0:
271,169,51079,1,0,0:0:0:0:
271,169,51243,1,8,0:0:0:0:
271,169,51326,1,8,0:0:0:0:
271,169,51408,1,0,0:0:0:0:
271,169,51573,1,8,0:0:0:0:
271,169,51738,1,0,0:0:0:0:
271,169,51903,1,8,0:0:0:0:
271,169,52068,1,0,0:0:0:0:
271,169,52232,1,0,0:0:0:0:
271,169,52315,1,0,0:0:0:0:
271,169,52397,1,8,0:0:0:0:
271,169,52562,1,0,0:0:0:0:
271,169,52645,1,0,0:0:0:0:
271,169,52727,1,8,0:0:0:0:
307,108,52892,1,8,0:0:0:0:
173,202,53221,1,8,0:0:0:0:
240,233,53386,1,8,0:0:0:0:
173,202,53551,1,0,0:0:0:0:
173,202,53716,1,0,0:0:0:0:
173,202,53798,1,0,0:0:0:0:
173,202,53881,1,8,0:0:0:0:
186,217,54046,1,0,0:0:0:0:
401,117,54210,1,0,0:0:0:0:
401,117,54320,1,0,0:0:0:0:
401,117,54430,1,0,0:0:0:0:
401,117,54540,1,8,0:0:0:0:
374,95,54705,1,0,0:0:0:0:
374,95,54870,1,8,0:0:0:0:
374,95,54952,1,8,0:0:0:0:
374,95,55035,1,0,0:0:0:0:
147,191,55199,1,6,0:0:0:0:
137,256,55529,1,0,0:0:0:0:
137,256,55612,1,0,0:0:0:0:
137,256,55694,1,0,0:0:0:0:
137,256,55776,1,0,0:0:0:0:
137,256,55859,1,8,0:0:0:0:
195,239,56024,1,0,0:0:0:0:
195,239,56188,1,0,0:0:0:0:
195,239,56271,1,0,0:0:0:0:
195,239,56353,1,8,0:0:0:0:
195,239,56518,1,0,0:0:0:0:
195,239,56683,1,8,0:0:0:0:
195,239,56765,1,8,0:0:0:0:
195,239,56848,1,0,0:0:0:0:
272,222,57013,1,0,0:0:0:0:
272,222,57177,1,8,0:0:0:0:
260,234,57342,1,8,0:0:0:0:
260,234,57425,1,0,0:0:0:0:
260,234,57590,1,8,0:0:0:0:
260,234,57672,1,0,0:0:0:0:
260,234,57837,1,8,0:0:0:0:
260,234,57919,1,8,0:0:0:0:
260,233,58002,1,8,0:0:0:0:
139,185,58166,1,8,0:0:0:0:
139,185,58331,1,0,0:0:0:0:
139,185,58414,1,0,0:0:0:0:
139,185,58496,1,8,0:0:0:0:
174,189,58661,1,0,0:0:0:0:
174,189,58743,1,8,0:0:0:0:
174,189,58908,1,0,0:0:0:0:
174,189,58991,1,8,0:0:0:0:
174,189,59155,1,8,0:0:0:0:
174,189,59320,1,0,0:0:0:0:
174,189,59485,1,8,0:0:0:0:
117,165,59815,1,8,0:0:0:0:
117,165,59980,1,0,0:0:0:0:
117,165,60145,1,0,0:0:0:0:
217,239,60227,1,0,0:0:0:0:
117,165,60309,1,0,0:0:0:0:
217,239,60392,1,0,0:0:0:0:
117,165,60474,1,8,0:0:0:0:
35,168,60639,1,8,0:0:0:0:
35,168,60721,1,8,0:0:0:0:
35,168,60804,1,0,0:0:0:0:
243,156,61134,1,8,0:0:0:0:
243,156,61216,1,8,0:0:0:0:
243,156,61298,1,8,0:0:0:0:
243,156,61381,1,8,0:0:0:0:
243,156,61463,1,0,0:0:0:0:
226,154,61628,1,0,0:0:0:0:
226,154,61793,1,0,0:0:0:0:
226,154,61875,1,0,0:0:0:0:
226,154,61958,1,8,0:0:0:0:
68,177,62040,1,8,0:0:0:0:
224,155,62123,1,0,0:0:0:0:
304,170,62287,1,0,0:0:0:0:
211,153,62452,1,8,0:0:0:0:
211,153,62535,1,8,0:0:0:0:
211,153,62617,1,0,0:0:0:0:
211,153,62782,1,8,0:0:0:0:
168,176,62947,1,0,0:0:0:0:
152,233,63112,1,8,0:0:0:0:
107,213,63441,1,0,0:0:0:0:
208,207,63606,1,0,0:0:0:0:
208,207,63771,1,8,0:0:0:0:
208,207,63936,1,0,0:0:0:0:
78,128,64265,1,0,0:0:0:0:
78,128,64430,1,8,0:0:0:0:
153,235,64595,1,0,0:0:0:0:
78,128,64760,1,0,0:0:0:0:
146,166,65090,1,8,0:0:0:0:
192,100,65254,1,0,0:0:0:0:
236,143,65419,1,8,0:0:0:0:
236,143,65502,1,8,0:0:0:0:
236,143,65584,1,0,0:0:0:0:
236,143,65749,1,8,0:0:0:0:
134,197,66079,1,8,0:0:0:0:
134,197,66408,1,8,0:0:0:0:
238,116,66573,1,0,0:0:0:0:
238,116,66903,1,8,0:0:0:0:
275,88,67068,1,8,0:0:0:0:
125,223,67232,1,8,0:0:0:0:
125,223,67397,1,0,0:0:0:0:
129,215,67727,1,0,0:0:0:0:
129,215,67892,1,8,0:0:0:0:
158,220,68057,1,0,0:0:0:0:
158,220,68139,1,0,0:0:0:0:
158,220,68221,1,0,0:0:0:0:
158,220,68386,1,8,0:0:0:0:
114,185,68551,1,8,0:0:0:0:
114,185,68716,1,0,0:0:0:0:
86,145,69046,1,8,0:0:0:0:
86,145,69210,1,0,0:0:0:0:
86,145,69540,1,0,0:0:0:0:
86,145,69705,1,8,0:0:0:0:
86,145,69870,1,8,0:0:0:0:
86,145,70035,1,0,0:0:0:0:
86,145,70364,1,8,0:0:0:0:
86,145,70529,1,0,0:0:0:0:
188,110,70694,1,8,0:0:0:0:
188,110,70776,1,8,0:0:0:0:
188,110,70859,1,0,0:0:0:0:
188,110,71024,1,8,0:0:0:0:
188,110,71188,1,0,0:0:0:0:
188,110,71353,1,8,0:0:0:0:
188,110,71683,1,0,0:0:0:0:
188,110,71848,1,8,0:0:0:0:
188,110,72177,1,8,0:0:0:0:
188,110,72342,1,0,0:0:0:0:
188,110,72507,1,0,0:0:0:0:
188,110,72672,1,8,0:0:0:0:
185,116,72837,1,0,0:0:0:0:
185,115,72919,1,0,0:0:0:0:
185,115,73002,1,0,0:0:0:0:
185,115,73166,1,8,0:0:0:0:
185,115,73331,1,0,0:0:0:0:
184,113,73414,1,0,0:0:0:0:
178,115,73496,1,8,0:0:0:0:
177,117,73661,1,8,0:0:0:0:
237,144,73826,1,8,0:0:0:0:
177,117,73991,1,0,0:0:0:0:
233,140,74320,1,8,0:0:0:0:
233,140,74485,1,0,0:0:0:0:
233,140,74815,1,0,0:0:0:0:
233,140,74980,1,8,0:0:0:0:
233,140,75145,1,8,0:0:0:0:
233,140,75309,1,0,0:0:0:0:
212,186,75474,1,0,0:0:0:0:
212,186,75557,1,0,0:0:0:0:
233,140,75639,1,8,0:0:0:0:
233,140,75804,1,0,0:0:0:0:
233,140,75969,1,8,0:0:0:0:
233,140,76051,1,8,0:0:0:0:
233,140,76134,1,0,0:0:0:0:
233,140,76298,1,8,0:0:0:0:
233,140,76628,1,0,0:0:0:0:
233,140,76958,1,8,0:0:0:0:
233,140,77123,1,8,0:0:0:0:
233,140,77452,1,0,0:0:0:0:
233,140,77617,1,8,0:0:0:0:
233,140,77782,1,8,0:0:0:0:
233,140,77947,1,0,0:0:0:0:
78,177,78112,1,0,0:0:0:0:
78,177,78194,1,0,0:0:0:0:
233,140,78276,1,8,0:0:0:0:
233,140,78441,1,0,0:0:0:0:
200,121,78606,1,8,0:0:0:0:
200,121,78688,1,8,0:0:0:0:
51,230,78771,1,8,0:0:0:0:
51,230,78853,1,8,0:0:0:0:
51,230,78936,1,8,0:0:0:0:
200,106,79101,1,8,0:0:0:0:
156,203,79265,1,0,0:0:0:0:
156,203,79430,1,0,0:0:0:0:
203,203,79595,1,8,0:0:0:0:
334,219,79760,1,0,0:0:0:0:
334,219,79842,1,0,0:0:0:0:
334,219,79925,1,0,0:0:0:0:
334,219,80007,1,0,0:0:0:0:
334,219,80090,1,8,0:0:0:0:
334,219,80254,1,0,0:0:0:0:
334,219,80419,1,8,0:0:0:0:
284,145,80584,1,0,0:0:0:0:
203,87,80749,1,0,0:0:0:0:
203,87,80831,1,0,0:0:0:0:
207,187,80914,1,8,0:0:0:0:
222,155,81079,1,0,0:0:0:0:
222,155,81161,1,8,0:0:0:0:
222,155,81408,1,8,0:0:0:0:
163,159,81573,1,8,0:0:0:0:
163,245,81903,1,0,0:0:0:0:
163,245,81985,1,0,0:0:0:0:
163,245,82068,1,0,0:0:0:0:
163,245,82150,1,0,0:0:0:0:
163,245,82232,1,0,0:0:0:0:
163,245,82315,1,0,0:0:0:0:
163,245,82397,1,0,0:0:0:0:
163,245,82480,1,0,0:0:0:0:
163,245,82562,1,0,0:0:0:0:
172,232,82727,1,0,0:0:0:0:
88,181,82892,1,8,0:0:0:0:
88,181,82974,1,8,0:0:0:0:
88,181,83057,1,8,0:0:0:0:
186,119,83221,1,0,0:0:0:0:
186,119,83331,1,0,0:0:0:0:
186,119,83441,1,0,0:0:0:0:
186,119,83551,1,0,0:0:0:0:
126,132,83716,1,0,0:0:0:0:
299,144,83798,1,0,0:0:0:0:
183,148,83963,1,0,0:0:0:0:
185,126,84046,1,0,0:0:0:0:
188,129,84210,1,8,0:0:0:0:
188,128,84293,1,8,0:0:0:0:
188,128,84375,1,8,0:0:0:0:
188,128,84458,1,8,0:0:0:0:
188,128,84540,1,0,0:0:0:0:
126,198,84705,1,0,0:0:0:0:
126,198,84787,1,0,0:0:0:0:
126,198,84870,1,8,0:0:0:0:
126,198,85035,1,0,0:0:0:0:
216,160,85199,1,0,0:0:0:0:
205,113,85282,1,0,0:0:0:0:
216,160,85364,1,0,0:0:0:0:
205,113,85447,1,0,0:0:0:0:
205,113,85529,1,8,0:0:0:0:
205,113,85694,1,8,0:0:0:0:
205,113,85776,1,8,0:0:0:0:
205,113,85859,1,0,0:0:0:0:
205,113,86024,1,0,0:0:0:0:
239,56,86188,1,8,0:0:0:0:
368,172,86271,1,8,0:0:0:0:
205,113,86353,1,8,0:0:0:0:
368,172,86436,1,8,0:0:0:0:
205,113,86518,1,0,0:0:0:0:
142,142,86683,1,0,0:0:0:0:
165,182,86848,1,8,0:0:0:0:
196,280,87177,1,0,0:0:0:0:
196,280,87260,1,0,0:0:0:0:
123,254,87342,1,0,0:0:0:0:
196,280,87425,1,0,0:0:0:0:
231,177,87507,1,8,0:0:0:0:
237,191,87672,1,0,0:0:0:0:
236,186,87837,1,0,0:0:0:0:
211,102,87919,1,0,0:0:0:0:
236,186,88002,1,8,0:0:0:0:
236,186,88166,1,8,0:0:0:0:
236,186,88331,1,8,0:0:0:0:
235,188,88414,1,8,0:0:0:0:
234,187,88496,1,0,0:0:0:0:
237,191,88661,1,0,0:0:0:0:
237,191,88826,1,8,0:0:0:0:
227,251,88991,1,8,0:0:0:0:
233,251,89155,1,0,0:0:0:0:
233,251,89238,1,0,0:0:0:0:
165,137,89320,1,8,0:0:0:0:
86,186,89403,1,8,0:0:0:0:
165,137,89485,1,8,0:0:0:0:
291,205,89815,1,0,0:0:0:0:
291,205,89897,1,0,0:0:0:0:
291,205,90062,1,0,0:0:0:0:
291,204,90145,1,8,0:0:0:0:
296,206,90309,1,0,0:0:0:0:
296,206,90474,1,0,0:0:0:0:
296,206,90557,1,0,0:0:0:0:
447,325,90639,1,8,0:0:0:0:
447,325,90721,1,8,0:0:0:0:
297,207,90804,1,8,0:0:0:0:
297,207,90969,1,8,0:0:0:0:
299,206,91134,1,0,0:0:0:0:
296,206,91216,1,8,0:0:0:0:
296,206,91298,1,0,0:0:0:0:
296,206,91463,1,8,0:0:0:0:
202,304,91628,1,8,0:0:0:0:
209,295,91793,1,0,0:0:0:0:
209,295,91875,1,0,0:0:0:0:
209,297,91958,1,0,0:0:0:0:
209,295,92040,1,0,0:0:0:0:
209,295,92123,1,8,0:0:0:0:
228,282,92452,1,0,0:0:0:0:
180,150,92617,1,0,0:0:0:0:
180,150,92699,1,0,0:0:0:0:
113,154,92782,1,8,0:0:0:0:
113,154,92947,1,8,0:0:0:0:
230,216,93112,1,0,0:0:0:0:
230,216,93194,1,8,0:0:0:0:
230,216,93276,1,0,0:0:0:0:
230,216,93358,1,0,0:0:0:0:
230,216,93441,1,8,0:0:0:0:
230,216,93606,1,8,0:0:0:0:
230,216,93771,1,0,0:0:0:0:
230,216,93936,1,0,0:0:0:0:
110,123,94101,1,0,0:0:0:0:
110,123,94183,1,0,0:0:0:0:
110,123,94265,1,8,0:0:0:0:
110,123,94348,1,8,0:0:0:0:
230,216,94430,1,8,0:0:0:0:
230,216,94595,1,0,0:0:0:0:
230,216,94760,1,8,0:0:0:0:
232,201,95090,1,8,0:0:0:0:
232,201,95172,1,8,0:0:0:0:
232,201,95254,1,0,0:0:0:0:
232,201,95337,1,0,0:0:0:0:
231,199,95419,1,8,0:0:0:0:
231,200,95584,1,8,0:0:0:0:
231,200,95749,1,0,0:0:0:0:
211,143,95831,1,8,0:0:0:0:
232,201,95914,1,0,0:0:0:0:
232,201,96079,1,8,0:0:0:0:
211,143,96243,1,8,0:0:0:0:
211,143,96408,1,0,0:0:0:0:
199,56,96518,1,0,0:0:0:0:
199,56,96628,1,0,0:0:0:0:
199,56,96738,1,8,0:0:0:0:
223,140,96903,1,0,0:0:0:0:
223,141,97068,1,8,0:0:0:0:
223,141,97150,1,0,0:0:0:0:
223,141,97232,1,0,0:0:0:0:
223,141,97315,1,0,0:0:0:0:
223,141,97397,1,8,0:0:0:0:
197,100,97727,1,0,0:0:0:0:
197,100,97892,1,0,0:0:0:0:
197,100,98057,1,8,0:0:0:0:
197,100,98221,1,8,0:0:0:0:
197,100,98304,1,8,0:0:0:0:
174,131,98386,1,8,0:0:0:0:
197,100,98469,1,8,0:0:0:0:
197,100,98551,1,0,0:0:0:0:
191,135,98716,1,8,0:0:0:0:
172,120,98881,1,8,0:0:0:0:
174,131,99046,1,0,0:0:0:0:
191,65,99128,1,0,0:0:0:0:
174,131,99210,1,0,0:0:0:0:
174,131,99375,1,8,0:0:0:0:
225,189,99540,1,0,0:0:0:0:
225,189,99705,1,0,0:0:0:0:
265,176,99787,1,8,0:0:0:0:
191,65,99870,1,0,0:0:0:0:
191,65,100035,1,8,0:0:0:0:
115,256,100364,1,0,0:0:0:0:
115,256,100447,1,0,0:0:0:0:
115,256,100612,1,0,0:0:0:0:
115,256,100694,1,8,0:0:0:0:
66,185,100859,1,0,0:0:0:0:
200,131,101024,1,0,0:0:0:0:
200,131,101106,1,0,0:0:0:0:
66,185,101188,1,0,0:0:0:0:
200,131,101271,1,0,0:0:0:0:
66,185,101353,1,8,0:0:0:0:
66,185,101518,1,8,0:0:0:0:
66,185,101683,1,0,0:0:0:0:
66,185,101765,1,8,0:0:0:0:
66,185,101848,1,0,0:0:0:0:
66,185,102013,1,8,0:0:0:0:
66,185,102177,1,8,0:0:0:0:
66,185,102342,1,8,0:0:0:0:
66,185,102425,1,8,0:0:0:0:
66,185,102507,1,0,0:0:0:0:
66,185,102590,1,0,0:0:0:0:
66,185,102672,1,8,0:0:0:0:
66,185,103002,1,8,0:0:0:0:
66,185,103166,1,0,0:0:0:0:
66,185,103249,1,0,0:0:0:0:
66,185,103331,1,8,0:0:0:0:
66,185,103496,1,0,0:0:0:0:
66,185,103579,1,0,0:0:0:0:
66,185,103661,1,8,0:0:0:0:
66,185,103743,1,8,0:0:0:0:
66,185,103826,1,0,0:0:0:0:
66,185,103991,1,8,0:0:0:0:
66,185,104155,1,8,0:0:0:0:
66,185,104320,1,0,0:0:0:0:
66,185,104485,1,0,0:0:0:0:
66,185,104650,1,0,0:0:0:0:
66,185,104732,1,0,0:0:0:0:
66,185,104815,1,8,0:0:0:0:
66,185,104897,1,8,0:0:0:0:
66,185,104980,1,8,0:0:0:0:
135,157,105145,1,0,0:0:0:0:
135,157,105309,1,6,0:0:0:0:
135,157,105639,1,4,0:0:0:0:
147,191,105969,1,8,0:0:0:0:
147,191,106134,1,0,0:0:0:0:
147,191,106463,1,0,0:0:0:0:
147,191,106628,1,8,0:0:0:0:
147,191,106793,1,8,0:0:0:0:
249,190,106958,1,0,0:0:0:0:
249,190,107287,1,8,0:0:0:0:
249,190,107452,1,0,0:0:0:0:
249,190,107617,1,8,0:0:0:0:
249,190,107699,1,8,0:0:0:0:
249,190,107782,1,8,0:0:0:0:
89,191,107947,1,8,0:0:0:0:
89,191,108112,1,0,0:0:0:0:
89,191,108276,1,8,0:0:0:0:
192,218,108606,1,0,0:0:0:0:
152,213,108936,1,8,0:0:0:0:
152,213,109101,1,0,0:0:0:0:
152,213,109265,1,8,0:0:0:0:
152,213,109430,1,0,0:0:0:0:
145,112,109595,1,8,0:0:0:0:
145,112,109760,1,0,0:0:0:0:
145,112,109842,1,0,0:0:0:0:
145,112,109925,1,8,0:0:0:0:
148,117,110090,1,8,0:0:0:0:
148,117,110254,1,0,0:0:0:0:
148,117,110419,1,0,0:0:0:0:
148,117,110584,1,8,0:0:0:0:
169,141,110831,1,8,0:0:0:0:
169,141,110914,1,0,0:0:0:0:
182,149,111243,1,8,0:0:0:0:
182,148,111408,1,0,0:0:0:0:
182,148,111738,1,0,0:0:0:0:
182,148,111903,1,8,0:0:0:0:
182,149,112068,1,8,0:0:0:0:
182,149,112232,1,0,0:0:0:0:
86,156,112562,1,8,0:0:0:0:
86,156,112727,1,0,0:0:0:0:
86,156,112892,1,0,0:0:0:0:
86,156,112974,1,0,0:0:0:0:
86,156,113057,1,0,0:0:0:0:
163,148,113221,1,8,0:0:0:0:
163,148,113386,1,0,0:0:0:0:
163,148,113551,1,0,0:0:0:0:
163,148,113881,1,8,0:0:0:0:
163,148,114210,1,0,0:0:0:0:
163,148,114375,1,0,0:0:0:0:
163,148,114540,1,8,0:0:0:0:
163,148,114870,1,0,0:0:0:0:
163,148,115035,1,0,0:0:0:0:
163,148,115199,1,8,0:0:0:0:
163,148,115364,1,8,0:0:0:0:
163,148,115529,1,0,0:0:0:0:
163,148,115612,1,0,0:0:0:0:
163,148,115694,1,0,0:0:0:0:
163,148,115859,1,8,0:0:0:0:
163,148,116024,1,8,0:0:0:0:
163,148,116188,1,0,0:0:0:0:
237,290,116518,1,8,0:0:0:0:
224,139,116683,1,0,0:0:0:0:
237,290,117013,1,0,0:0:0:0:
237,290,117177,1,8,0:0:0:0:
203,147,117342,1,8,0:0:0:0:
232,309,117507,1,0,0:0:0:0:
232,309,117837,1,8,0:0:0:0:
232,309,118002,1,0,0:0:0:0:
232,309,118166,1,8,0:0:0:0:
232,309,118249,1,8,0:0:0:0:
232,309,118331,1,0,0:0:0:0:
232,309,118496,1,8,0:0:0:0:
205,141,118826,1,8,0:0:0:0:
205,141,119155,1,0,0:0:0:0:
205,141,119320,1,8,0:0:0:0:
205,141,119485,1,8,0:0:0:0:
239,134,119568,1,8,0:0:0:0:
205,141,119650,1,8,0:0:0:0:
240,142,119815,1,0,0:0:0:0:
240,142,119980,1,8,0:0:0:0:
239,134,120145,1,0,0:0:0:0:
223,138,120474,1,0,0:0:0:0:
223,138,120639,1,8,0:0:0:0:
223,138,120804,1,8,0:0:0:0:
223,138,120886,1,8,0:0:0:0:
223,138,120969,1,0,0:0:0:0:
222,138,121051,1,0,0:0:0:0:
222,137,121134,1,8,0:0:0:0:
223,138,121298,1,8,0:0:0:0:
223,138,121463,1,0,0:0:0:0:
200,209,121793,1,8,0:0:0:0:
148,186,121958,1,0,0:0:0:0:
200,209,122287,1,0,0:0:0:0:
246,200,122452,1,0,0:0:0:0:
200,209,122617,1,8,0:0:0:0:
200,209,122782,1,0,0:0:0:0:
246,200,123112,1,8,0:0:0:0:
246,200,123276,1,0,0:0:0:0:
246,200,123441,1,0,0:0:0:0:
246,200,123524,1,0,0:0:0:0:
110,139,123606,1,0,0:0:0:0:
257,192,123771,1,8,0:0:0:0:
257,193,123936,1,0,0:0:0:0:
157,191,124101,1,8,0:0:0:0:
190,128,124430,1,0,0:0:0:0:
190,128,124595,1,0,0:0:0:0:
195,124,124677,1,0,0:0:0:0:
190,128,124760,1,8,0:0:0:0:
194,129,124925,1,8,0:0:0:0:
190,128,125090,1,8,0:0:0:0:
190,128,125172,1,8,0:0:0:0:
194,127,125254,1,0,0:0:0:0:
195,123,125419,1,8,0:0:0:0:
195,123,125584,1,0,0:0:0:0:
195,124,125749,1,8,0:0:0:0:
176,173,125914,1,0,0:0:0:0:
176,173,125996,1,0,0:0:0:0:
176,173,126079,1,8,0:0:0:0:
176,173,126243,1,0,0:0:0:0:
176,173,126408,1,8,0:0:0:0:
176,173,126573,1,8,0:0:0:0:
176,173,126738,1,0,0:0:0:0:
331,140,127068,1,8,0:0:0:0:
331,140,127232,1,0,0:0:0:0:
331,140,127562,1,0,0:0:0:0:
331,140,127727,1,8,0:0:0:0:
331,140,127892,1,8,0:0:0:0:
331,140,128057,1,0,0:0:0:0:
147,207,128221,1,0,0:0:0:0:
147,207,128304,1,0,0:0:0:0:
331,140,128386,1,8,0:0:0:0:
152,203,128551,1,8,0:0:0:0:
331,140,128716,1,0,0:0:0:0:
206,140,128881,1,8,0:0:0:0:
206,140,129046,1,8,0:0:0:0:
331,140,129375,1,8,0:0:0:0:
317,163,129705,1,0,0:0:0:0:
317,163,129870,1,0,0:0:0:0:
317,163,130035,1,8,0:0:0:0:
305,123,130199,1,8,0:0:0:0:
198,185,130364,1,8,0:0:0:0:
145,170,130447,1,8,0:0:0:0:
198,185,130529,1,8,0:0:0:0:
219,217,130694,1,0,0:0:0:0:
236,158,131024,1,8,0:0:0:0:
236,158,131188,1,0,0:0:0:0:
236,158,131353,1,8,0:0:0:0:
236,158,131435,1,8,0:0:0:0:
236,158,131518,1,0,0:0:0:0:
236,158,131683,1,8,0:0:0:0:
236,158,131848,1,8,0:0:0:0:
236,158,132013,1,0,0:0:0:0:
247,153,132342,1,8,0:0:0:0:
247,153,132507,1,0,0:0:0:0:
247,153,132837,1,0,0:0:0:0:
247,153,133002,1,8,0:0:0:0:
231,149,133166,1,8,0:0:0:0:
247,153,133331,1,0,0:0:0:0:
227,191,133661,1,0,0:0:0:0:
204,230,133826,1,8,0:0:0:0:
204,230,133991,1,0,0:0:0:0:
204,230,134073,1,0,0:0:0:0:
204,230,134155,1,0,0:0:0:0:
209,226,134320,1,8,0:0:0:0:
209,226,134485,1,8,0:0:0:0:
209,226,134650,1,0,0:0:0:0:
295,144,134980,1,0,0:0:0:0:
295,144,135145,1,8,0:0:0:0:
295,144,135309,1,0,0:0:0:0:
299,192,135474,1,8,0:0:0:0:
299,192,135639,1,8,0:0:0:0:
299,192,135721,1,8,0:0:0:0:
299,192,135804,1,8,0:0:0:0:
296,239,135969,1,0,0:0:0:0:
296,239,136298,1,0,0:0:0:0:
296,239,136463,1,8,0:0:0:0:
296,239,136628,1,8,0:0:0:0:
296,239,136710,1,8,0:0:0:0:
296,239,136793,1,0,0:0:0:0:
296,239,136875,1,0,0:0:0:0:
296,239,136958,1,8,0:0:0:0:
285,230,137123,1,8,0:0:0:0:
285,230,137287,1,0,0:0:0:0:
290,205,137617,1,8,0:0:0:0:
290,205,137782,1,0,0:0:0:0:
290,205,138112,1,0,0:0:0:0:
290,205,138276,1,8,0:0:0:0:
290,205,138606,1,0,0:0:0:0:
290,205,138936,1,8,0:0:0:0:
290,205,139101,1,0,0:0:0:0:
295,211,139265,1,8,0:0:0:0:
295,211,139348,1,8,0:0:0:0:
295,211,139430,1,0,0:0:0:0:
295,211,139595,1,8,0:0:0:0:
295,211,139925,1,8,0:0:0:0:
295,211,140254,1,8,0:0:0:0:
295,211,140419,1,0,0:0:0:0:
295,211,140749,1,0,0:0:0:0:
295,211,140914,1,8,0:0:0:0:
295,211,141243,1,0,0:0:0:0:
295,211,141573,1,0,0:0:0:0:
295,211,141738,1,8,0:0:0:0:
295,211,141903,1,0,0:0:0:0:
295,211,141985,1,0,0:0:0:0:
295,211,142068,1,0,0:0:0:0:
295,211,142232,1,8,0:0:0:0:
273,224,142397,1,8,0:0:0:0:
295,211,142562,1,0,0:0:0:0:
177,216,142892,1,8,0:0:0:0:
177,216,143057,1,0,0:0:0:0:
177,216,143386,1,0,0:0:0:0:
177,216,143551,1,8,0:0:0:0:
216,96,143881,1,0,0:0:0:0:
216,96,144210,1,8,0:0:0:0:
232,129,144375,1,0,0:0:0:0:
232,129,144540,1,0,0:0:0:0:
232,129,144623,1,8,0:0:0:0:
232,129,144705,1,0,0:0:0:0:
232,129,144870,1,8,0:0:0:0:
262,156,145199,1,8,0:0:0:0:
275,146,145529,1,8,0:0:0:0:
275,146,145694,1,0,0:0:0:0:
275,146,146024,1,0,0:0:0:0:
275,146,146188,1,8,0:0:0:0:
275,146,146518,1,0,0:0:0:0:
275,146,146848,1,8,0:0:0:0:
275,146,147013,1,8,0:0:0:0:
275,146,147177,1,0,0:0:0:0:
275,146,147260,1,0,0:0:0:0:
275,146,147342,1,8,0:0:0:0:
275,146,147507,1,8,0:0:0:0:
275,146,147672,1,8,0:0:0:0:
252,163,147837,1,0,0:0:0:0:
142,213,148166,1,8,0:0:0:0:
142,213,148331,1,0,0:0:0:0:
142,213,148661,1,0,0:0:0:0:
142,213,148826,1,8,0:0:0:0:
142,213,149155,1,0,0:0:0:0:
142,213,149485,1,8,0:0:0:0:
142,213,149650,1,0,0:0:0:0:
142,213,149732,1,0,0:0:0:0:
142,213,149815,1,0,0:0:0:0:
142,213,149980,1,0,0:0:0:0:
142,213,150145,1,8,0:0:0:0:
142,213,150474,1,8,0:0:0:0:
142,213,150804,1,8,0:0:0:0:
142,213,150969,1,0,0:0:0:0:
142,213,151298,1,0,0:0:0:0:
142,213,151463,1,8,0:0:0:0:
88,186,151793,1,0,0:0:0:0:
88,186,152123,1,8,0:0:0:0:
88,186,152287,1,8,0:0:0:0:
311,235,152452,1,8,0:0:0:0:
220,83,152535,1,8,0:0:0:0:
220,83,152617,1,0,0:0:0:0:
248,143,152782,1,8,0:0:0:0:
248,143,152947,1,8,0:0:0:0:
248,143,153112,1,0,0:0:0:0:
248,143,153441,1,8,0:0:0:0:
248,143,153606,1,0,0:0:0:0:
248,143,153936,1,0,0:0:0:0:
248,143,154101,1,8,0:0:0:0:
120,124,154430,1,0,0:0:0:0:
120,124,154760,1,8,0:0:0:0:
120,124,154925,1,8,0:0:0:0:
148,115,155090,1,0,0:0:0:0:
148,115,155172,1,8,0:0:0:0:
148,115,155254,1,0,0:0:0:0:
177,141,155419,1,8,0:0:0:0:
177,141,155749,1,8,0:0:0:0:
219,112,156079,1,8,0:0:0:0:
219,112,156243,1,0,0:0:0:0:
219,112,156573,1,0,0:0:0:0:
219,112,156738,1,8,0:0:0:0:
204,114,157068,1,0,0:0:0:0:
123,219,157232,1,0,0:0:0:0:
123,219,157315,1,0,0:0:0:0:
204,114,157397,1,8,0:0:0:0:
204,114,157562,1,0,0:0:0:0:
204,115,157727,1,8,0:0:0:0:
204,114,157809,1,8,0:0:0:0:
204,114,157892,1,0,0:0:0:0:
204,114,158057,1,8,0:0:0:0:
204,114,158221,1,8,0:0:0:0:
256,192,158386,1,0,0:0:0:0:
256,192,161024,1,0,0:0:0:0:
256,192,162342,1,0,0:0:0:0:
256,192,163661,1,0,0:0:0:0:
256,192,166298,1,8,0:0:0:0:
256,192,167617,1,8,0:0:0:0:
256,192,168936,1,8,0:0:0:0:
256,192,171573,1,0,0:0:0:0:
256,192,172232,1,8,0:0:0:0:
256,192,172892,1,0,0:0:0:0:
256,192,173551,1,8,0:0:0:0:
256,192,174210,1,0,0:0:0:0:
256,192,174870,1,8,0:0:0:0:
256,192,175364,1,8,0:0:0:0:
256,192,175529,1,0,0:0:0:0:
256,192,175859,1,0,0:0:0:0:
256,192,176188,1,8,0:0:0:0:
256,192,176848,1,8,0:0:0:0:
256,192,177507,1,8,0:0:0:0:
256,192,178002,1,8,0:0:0:0:
256,192,178166,1,8,0:0:0:0:
256,192,178496,1,0,0:0:0:0:
256,192,178661,1,0,0:0:0:0:
256,192,178826,1,8,0:0:0:0:
256,192,179155,1,8,0:0:0:0:
256,192,179485,1,4,0:0:0:0:
256,192,180145,1,8,0:0:0:0:
256,192,180474,1,0,0:0:0:0:
256,192,180804,1,8,0:0:0:0:
256,192,180969,1,8,0:0:0:0:
256,192,181298,1,0,0:0:0:0:
256,192,181463,1,8,0:0:0:0:
256,192,182123,1,0,0:0:0:0:
256,192,182782,1,0,0:0:0:0:
256,192,183441,1,8,0:0:0:0:
256,192,184101,1,8,0:0:0:0:
256,192,184760,1,0,0:0:0:0:
256,192,185254,1,0,0:0:0:0:
256,192,185419,1,8,0:0:0:0:
256,192,185749,1,0,0:0:0:0:
256,192,185914,1,0,0:0:0:0:
256,192,186079,1,0,0:0:0:0:
256,192,186408,1,0,0:0:0:0:
256,192,186738,1,8,0:0:0:0:
256,192,187397,1,0,0:0:0:0:
256,192,188057,1,0,0:0:0:0:
256,192,188716,1,8,0:0:0:0:
256,192,189375,1,8,0:0:0:0:
135,157,190035,1,4,0:0:0:0:
147,191,190365,1,8,0:0:0:0:
147,191,190530,1,0,0:0:0:0:
147,191,190859,1,0,0:0:0:0:
147,191,191024,1,8,0:0:0:0:
147,191,191189,1,8,0:0:0:0:
249,190,191354,1,0,0:0:0:0:
249,190,191683,1,8,0:0:0:0:
249,190,191848,1,0,0:0:0:0:
249,190,192013,1,8,0:0:0:0:
249,190,192095,1,8,0:0:0:0:
249,190,192178,1,8,0:0:0:0:
89,191,192343,1,8,0:0:0:0:
89,191,192508,1,0,0:0:0:0:
89,191,192672,1,8,0:0:0:0:
192,218,193002,1,0,0:0:0:0:
152,213,193167,1,8,0:0:0:0:
152,213,193496,1,8,0:0:0:0:
152,213,193661,1,8,0:0:0:0:
152,213,193826,1,0,0:0:0:0:
145,112,193991,1,8,0:0:0:0:
145,112,194156,1,0,0:0:0:0:
145,112,194238,1,0,0:0:0:0:
145,112,194321,1,8,0:0:0:0:
148,117,194486,1,8,0:0:0:0:
148,117,194650,1,0,0:0:0:0:
110,249,194732,1,0,0:0:0:0:
148,117,194815,1,0,0:0:0:0:
148,117,194980,1,8,0:0:0:0:
110,249,195145,1,8,0:0:0:0:
110,249,195227,1,8,0:0:0:0:
169,141,195310,1,0,0:0:0:0:
182,149,195639,1,8,0:0:0:0:
182,148,195804,1,0,0:0:0:0:
182,148,196134,1,0,0:0:0:0:
182,148,196299,1,8,0:0:0:0:
182,149,196464,1,8,0:0:0:0:
182,149,196628,1,0,0:0:0:0:
86,156,196958,1,8,0:0:0:0:
86,156,197123,1,0,0:0:0:0:
86,156,197288,1,0,0:0:0:0:
86,156,197370,1,0,0:0:0:0:
86,156,197453,1,0,0:0:0:0:
163,148,197617,1,8,0:0:0:0:
163,148,197782,1,0,0:0:0:0:
116,191,197947,1,8,0:0:0:0:
163,148,198277,1,8,0:0:0:0:
163,148,198441,1,0,0:0:0:0:
163,148,198771,1,0,0:0:0:0:
163,148,198936,1,8,0:0:0:0:
163,148,199266,1,0,0:0:0:0:
163,148,199431,1,0,0:0:0:0:
332,191,199513,1,0,0:0:0:0:
163,148,199595,1,8,0:0:0:0:
163,148,199760,1,8,0:0:0:0:
163,148,199925,1,0,0:0:0:0:
163,148,200090,1,0,0:0:0:0:
197,120,200172,1,0,0:0:0:0:
163,148,200255,1,8,0:0:0:0:
197,120,200337,1,8,0:0:0:0:
244,93,200419,1,8,0:0:0:0:
163,148,200584,1,0,0:0:0:0:
237,290,200914,1,8,0:0:0:0:
224,139,201079,1,0,0:0:0:0:
237,290,201409,1,0,0:0:0:0:
237,290,201573,1,8,0:0:0:0:
203,147,201738,1,8,0:0:0:0:
232,309,201903,1,0,0:0:0:0:
232,309,202233,1,8,0:0:0:0:
232,309,202398,1,0,0:0:0:0:
232,309,202562,1,8,0:0:0:0:
232,309,202645,1,8,0:0:0:0:
232,309,202727,1,0,0:0:0:0:
232,309,202892,1,8,0:0:0:0:
205,141,203222,1,8,0:0:0:0:
205,141,203551,1,8,0:0:0:0:
205,141,203716,1,0,0:0:0:0:
205,141,203881,1,8,0:0:0:0:
239,134,203964,1,8,0:0:0:0:
205,141,204046,1,8,0:0:0:0:
240,142,204210,1,8,0:0:0:0:
239,134,204541,1,0,0:0:0:0:
223,138,204870,1,0,0:0:0:0:
223,138,205035,1,8,0:0:0:0:
223,138,205200,1,0,0:0:0:0:
223,138,205282,1,0,0:0:0:0:
223,138,205365,1,0,0:0:0:0:
222,138,205447,1,0,0:0:0:0:
222,137,205530,1,8,0:0:0:0:
223,138,205694,1,8,0:0:0:0:
223,138,205859,1,0,0:0:0:0:
256,192,206188,1,8,0:0:0:0:
256,192,206353,1,0,0:0:0:0:
256,192,206683,1,8,0:0:0:0:
256,192,207177,1,0,0:0:0:0:
256,192,207507,1,8,0:0:0:0:
256,192,207672,1,0,0:0:0:0:
256,192,208002,1,0,0:0:0:0:
256,192,208496,1,0,0:0:0:0:
256,192,209485,1,0,0:0:0:0:
256,192,209815,1,0,0:0:0:0:
256,192,210804,1,8,0:0:0:0:
97,232,211134,1,4,0:0:0:0:
97,232,211299,1,0,0:0:0:0:
178,246,211464,1,8,0:0:0:0:
207,222,211629,1,0,0:0:0:0:
207,222,211711,1,0,0:0:0:0:
169,250,211793,1,0,0:0:0:0:
244,241,211958,1,0,0:0:0:0:
244,241,212123,1,8,0:0:0:0:
137,235,212288,1,8,0:0:0:0:
137,235,212370,1,8,0:0:0:0:
137,235,212453,1,0,0:0:0:0:
180,269,212618,1,0,0:0:0:0:
180,269,212782,1,8,0:0:0:0:
190,284,212947,1,0,0:0:0:0:
190,284,213112,1,0,0:0:0:0:
190,284,213194,1,0,0:0:0:0:
190,283,213277,1,8,0:0:0:0:
193,281,213442,1,0,0:0:0:0:
192,281,213524,1,0,0:0:0:0:
193,281,213607,1,8,0:0:0:0:
248,222,213771,1,8,0:0:0:0:
377,168,214101,1,0,0:0:0:0:
377,168,214183,1,0,0:0:0:0:
377,168,214266,1,8,0:0:0:0:
377,168,214348,1,8,0:0:0:0:
377,168,214431,1,8,0:0:0:0:
271,169,214596,1,0,0:0:0:0:
271,169,214760,1,8,0:0:0:0:
271,169,214843,1,8,0:0:0:0:
271,169,214925,1,0,0:0:0:0:
271,169,215090,1,8,0:0:0:0:
271,169,215255,1,0,0:0:0:0:
271,169,215420,1,8,0:0:0:0:
271,169,215585,1,0,0:0:0:0:
271,169,215749,1,0,0:0:0:0:
271,169,215832,1,0,0:0:0:0:
271,169,215914,1,8,0:0:0:0:
271,169,216079,1,0,0:0:0:0:
271,169,216162,1,0,0:0:0:0:
271,169,216244,1,8,0:0:0:0:
307,108,216409,1,8,0:0:0:0:
173,202,216738,1,8,0:0:0:0:
240,233,216903,1,8,0:0:0:0:
173,202,217068,1,0,0:0:0:0:
173,202,217233,1,0,0:0:0:0:
173,202,217315,1,0,0:0:0:0:
173,202,217398,1,8,0:0:0:0:
186,217,217563,1,0,0:0:0:0:
401,117,217727,1,0,0:0:0:0:
401,117,217837,1,0,0:0:0:0:
401,117,217947,1,0,0:0:0:0:
401,117,218057,1,8,0:0:0:0:
374,95,218222,1,0,0:0:0:0:
374,95,218387,1,8,0:0:0:0:
374,95,218469,1,8,0:0:0:0:
374,95,218552,1,0,0:0:0:0:
147,191,218716,1,6,0:0:0:0:
137,256,219046,1,0,0:0:0:0:
137,256,219129,1,0,0:0:0:0:
137,256,219211,1,0,0:0:0:0:
137,256,219293,1,0,0:0:0:0:
137,256,219376,1,8,0:0:0:0:
195,239,219541,1,0,0:0:0:0:
195,239,219705,1,0,0:0:0:0:
195,239,219788,1,0,0:0:0:0:
195,239,219870,1,8,0:0:0:0:
195,239,220035,1,0,0:0:0:0:
195,239,220200,1,8,0:0:0:0:
195,239,220282,1,8,0:0:0:0:
195,239,220365,1,0,0:0:0:0:
272,222,220530,1,0,0:0:0:0:
272,222,220694,1,8,0:0:0:0:
260,234,220859,1,8,0:0:0:0:
260,234,220942,1,0,0:0:0:0:
260,234,221107,1,8,0:0:0:0:
260,234,221189,1,0,0:0:0:0:
260,234,221354,1,8,0:0:0:0:
260,234,221436,1,8,0:0:0:0:
260,233,221519,1,8,0:0:0:0:
139,185,221683,1,8,0:0:0:0:
139,185,221848,1,0,0:0:0:0:
139,185,221931,1,0,0:0:0:0:
139,185,222013,1,8,0:0:0:0:
174,189,222178,1,0,0:0:0:0:
174,189,222260,1,8,0:0:0:0:
174,189,222425,1,0,0:0:0:0:
174,189,222508,1,8,0:0:0:0:
174,189,222672,1,8,0:0:0:0:
174,189,222837,1,0,0:0:0:0:
174,189,223002,1,8,0:0:0:0:
117,165,223332,1,8,0:0:0:0:
117,165,223497,1,0,0:0:0:0:
117,165,223662,1,0,0:0:0:0:
217,239,223744,1,0,0:0:0:0:
117,165,223826,1,0,0:0:0:0:
217,239,223909,1,0,0:0:0:0:
117,165,223991,1,8,0:0:0:0:
35,168,224156,1,8,0:0:0:0:
35,168,224238,1,8,0:0:0:0:
35,168,224321,1,0,0:0:0:0:
243,156,224651,1,8,0:0:0:0:
243,156,224733,1,8,0:0:0:0:
243,156,224815,1,8,0:0:0:0:
243,156,224898,1,8,0:0:0:0:
243,156,224980,1,0,0:0:0:0:
226,154,225145,1,0,0:0:0:0:
226,154,225310,1,0,0:0:0:0:
226,154,225392,1,0,0:0:0:0:
226,154,225475,1,8,0:0:0:0:
68,177,225557,1,8,0:0:0:0:
224,155,225640,1,0,0:0:0:0:
211,153,225969,1,8,0:0:0:0:
211,153,226052,1,8,0:0:0:0:
211,153,226134,1,0,0:0:0:0:
211,153,226299,1,8,0:0:0:0:
168,176,226464,1,0,0:0:0:0:
152,233,226629,1,8,0:0:0:0:
318,248,226793,1,0,0:0:0:0:
156,203,226958,1,0,0:0:0:0:
156,203,227123,1,0,0:0:0:0:
203,203,227288,1,8,0:0:0:0:
334,219,227453,1,0,0:0:0:0:
334,219,227535,1,0,0:0:0:0:
334,219,227618,1,0,0:0:0:0:
334,219,227700,1,0,0:0:0:0:
334,219,227783,1,8,0:0:0:0:
334,219,227947,1,0,0:0:0:0:
334,219,228112,1,8,0:0:0:0:
284,145,228277,1,0,0:0:0:0:
203,87,228442,1,0,0:0:0:0:
203,87,228524,1,0,0:0:0:0:
207,187,228607,1,8,0:0:0:0:
222,155,228772,1,0,0:0:0:0:
222,155,228854,1,8,0:0:0:0:
222,155,229101,1,8,0:0:0:0:
163,159,229266,1,8,0:0:0:0:
163,245,229596,1,0,0:0:0:0:
163,245,229678,1,0,0:0:0:0:
163,245,229761,1,0,0:0:0:0:
163,245,229843,1,0,0:0:0:0:
163,245,229925,1,0,0:0:0:0:
163,245,230008,1,0,0:0:0:0:
163,245,230090,1,0,0:0:0:0:
163,245,230173,1,0,0:0:0:0:
163,245,230255,1,0,0:0:0:0:
172,232,230420,1,0,0:0:0:0:
88,181,230585,1,8,0:0:0:0:
88,181,230667,1,8,0:0:0:0:
88,181,230750,1,8,0:0:0:0:
186,119,230914,1,0,0:0:0:0:
186,119,231024,1,0,0:0:0:0:
186,119,231134,1,0,0:0:0:0:
186,119,231244,1,0,0:0:0:0:
126,132,231409,1,0,0:0:0:0:
299,144,231491,1,0,0:0:0:0:
183,148,231656,1,0,0:0:0:0:
185,126,231739,1,0,0:0:0:0:
188,129,231903,1,8,0:0:0:0:
188,128,231986,1,8,0:0:0:0:
188,128,232068,1,8,0:0:0:0:
188,128,232151,1,8,0:0:0:0:
188,128,232233,1,0,0:0:0:0:
126,198,232398,1,0,0:0:0:0:
126,198,232480,1,0,0:0:0:0:
126,198,232563,1,8,0:0:0:0:
126,198,232728,1,0,0:0:0:0:
216,160,232892,1,0,0:0:0:0:
205,113,232975,1,0,0:0:0:0:
216,160,233057,1,0,0:0:0:0:
205,113,233140,1,0,0:0:0:0:
205,113,233222,1,8,0:0:0:0:
205,113,233387,1,8,0:0:0:0:
205,113,233469,1,8,0:0:0:0:
205,113,233552,1,0,0:0:0:0:
205,113,233717,1,0,0:0:0:0:
239,56,233881,1,8,0:0:0:0:
239,56,233964,1,8,0:0:0:0:
205,113,234046,1,8,0:0:0:0:
78,108,234129,1,8,0:0:0:0:
205,113,234211,1,0,0:0:0:0:
142,142,234376,1,0,0:0:0:0:
165,182,234541,1,8,0:0:0:0:
196,280,234870,1,0,0:0:0:0:
196,280,234953,1,0,0:0:0:0:
123,254,235035,1,0,0:0:0:0:
196,280,235118,1,0,0:0:0:0:
231,177,235200,1,8,0:0:0:0:
237,191,235365,1,0,0:0:0:0:
236,186,235530,1,0,0:0:0:0:
211,102,235612,1,0,0:0:0:0:
236,186,235695,1,8,0:0:0:0:
236,186,235859,1,8,0:0:0:0:
236,186,236024,1,8,0:0:0:0:
235,188,236107,1,8,0:0:0:0:
234,187,236189,1,0,0:0:0:0:
237,191,236354,1,0,0:0:0:0:
237,191,236519,1,8,0:0:0:0:
227,251,236684,1,8,0:0:0:0:
233,251,236848,1,0,0:0:0:0:
233,251,236931,1,0,0:0:0:0:
165,137,237013,1,8,0:0:0:0:
86,186,237096,1,8,0:0:0:0:
165,137,237178,1,8,0:0:0:0:
291,205,237508,1,0,0:0:0:0:
291,205,237590,1,0,0:0:0:0:
291,205,237755,1,0,0:0:0:0:
291,204,237838,1,8,0:0:0:0:
296,206,238002,1,0,0:0:0:0:
296,206,238167,1,0,0:0:0:0:
296,206,238250,1,0,0:0:0:0:
447,325,238332,1,8,0:0:0:0:
447,325,238414,1,8,0:0:0:0:
297,207,238497,1,8,0:0:0:0:
297,207,238662,1,8,0:0:0:0:
299,206,238827,1,0,0:0:0:0:
296,206,238909,1,8,0:0:0:0:
296,206,238991,1,0,0:0:0:0:
296,206,239156,1,8,0:0:0:0:
202,304,239321,1,8,0:0:0:0:
209,295,239486,1,0,0:0:0:0:
209,295,239568,1,0,0:0:0:0:
209,297,239651,1,0,0:0:0:0:
209,295,239733,1,0,0:0:0:0:
209,295,239816,1,8,0:0:0:0:
228,282,240145,1,0,0:0:0:0:
180,150,240310,1,0,0:0:0:0:
180,150,240392,1,0,0:0:0:0:
113,154,240474,1,8,0:0:0:0:
113,154,240640,1,8,0:0:0:0:
230,216,240805,1,0,0:0:0:0:
230,216,240887,1,8,0:0:0:0:
230,216,240969,1,0,0:0:0:0:
230,216,241052,1,0,0:0:0:0:
230,216,241134,1,8,0:0:0:0:
230,216,241299,1,8,0:0:0:0:
230,216,241464,1,0,0:0:0:0:
230,216,241629,1,0,0:0:0:0:
110,123,241794,1,0,0:0:0:0:
110,123,241876,1,0,0:0:0:0:
110,123,241958,1,8,0:0:0:0:
110,123,242041,1,8,0:0:0:0:
230,216,242123,1,8,0:0:0:0:
230,216,242288,1,0,0:0:0:0:
230,216,242453,1,8,0:0:0:0:
232,201,242783,1,8,0:0:0:0:
232,201,242865,1,8,0:0:0:0:
232,201,242947,1,0,0:0:0:0:
232,201,243030,1,0,0:0:0:0:
231,199,243112,1,8,0:0:0:0:
231,200,243277,1,0,0:0:0:0:
231,200,243442,1,0,0:0:0:0:
211,143,243524,1,8,0:0:0:0:
232,201,243607,1,0,0:0:0:0:
232,201,243772,1,8,0:0:0:0:
211,143,243936,1,8,0:0:0:0:
211,143,244101,1,0,0:0:0:0:
199,56,244211,1,0,0:0:0:0:
199,56,244321,1,0,0:0:0:0:
199,56,244431,1,8,0:0:0:0:
223,140,244596,1,0,0:0:0:0:
223,141,244761,1,8,0:0:0:0:
223,141,244843,1,0,0:0:0:0:
223,141,244925,1,0,0:0:0:0:
223,141,245008,1,0,0:0:0:0:
223,141,245090,1,8,0:0:0:0:
197,100,245420,1,0,0:0:0:0:
197,100,245585,1,0,0:0:0:0:
197,100,245750,1,8,0:0:0:0:
197,100,245914,1,8,0:0:0:0:
197,100,245997,1,8,0:0:0:0:
174,131,246079,1,8,0:0:0:0:
197,100,246162,1,8,0:0:0:0:
197,100,246244,1,0,0:0:0:0:
191,135,246409,1,8,0:0:0:0:
172,120,246574,1,8,0:0:0:0:
174,131,246739,1,0,0:0:0:0:
191,65,246821,1,0,0:0:0:0:
174,131,246903,1,0,0:0:0:0:
174,131,247068,1,8,0:0:0:0:
225,189,247233,1,0,0:0:0:0:
225,189,247398,1,0,0:0:0:0:
265,176,247480,1,8,0:0:0:0:
191,65,247563,1,0,0:0:0:0:
191,65,247728,1,8,0:0:0:0:
113,167,247892,1,8,0:0:0:0:
113,167,248057,1,0,0:0:0:0:
256,192,250694,1,0,0:0:0:0:
256,192,252013,1,0,0:0:0:0:
256,192,253331,12,0,257287,0:0:0:0:
