osu file format v14

[General]
AudioFilename: The Flashbulb - Back of the Yards.mp3
AudioLeadIn: 0
PreviewTime: 25975
Countdown: 0
SampleSet: Normal
StackLeniency: 0.7
Mode: 3
LetterboxInBreaks: 0
SpecialStyle: 0
WidescreenStoryboard: 0

[Editor]
DistanceSpacing: 0.8
BeatDivisor: 8
GridSize: 32
TimelineZoom: 2.8

[Metadata]
Title:Back of the Yards
TitleUnicode:Back of the Yards
Artist:The Flashbulb
ArtistUnicode:The Flashbulb
Creator:Halogen-
Version:Stage 1: Boundary
Source:
Tags:
BeatmapID:1527721
BeatmapSetID:723624

[Difficulty]
HPDrainRate:8
CircleSize:4
OverallDifficulty:7
ApproachRate:5
SliderMultiplier:1.4
SliderTickRate:1

[Events]
//Background and Video events
0,0,"back.jpg",0,0
//Break Periods
//Storyboard Layer 0 (Background)
//Storyboard Layer 1 (Fail)
//Storyboard Layer 2 (Pass)
//Storyboard Layer 3 (Foreground)
//Storyboard Sound Samples

[TimingPoints]
2032,375,4,1,0,30,1,0
26594,23.4375,4,1,0,30,1,0
26594,-10,4,1,0,30,0,0
26782,375,4,1,0,30,1,0
26782,-100,4,1,0,30,0,0
28094,23.4375,4,1,0,30,1,0
28094,-10,4,1,0,30,0,0
28282,375,4,1,0,30,1,0
28282,-100,4,1,0,30,0,0
28844,-400,4,1,0,30,0,0
28938,-57.1428571428571,4,1,0,30,0,0
29032,375,4,1,0,30,1,0
29032,-100,4,1,0,30,0,0
29594,23.4375,4,1,0,30,1,0
29594,-10,4,1,0,30,0,0
29782,375,4,1,0,30,1,0
29782,-100,4,1,0,30,0,0
31094,23.4375,4,1,0,30,1,0
31094,-10,4,1,0,30,0,0
31282,375,4,1,0,30,1,0
31282,-100,4,1,0,30,0,0
31844,-833.333333333333,4,1,0,30,0,0
31914,-50,4,1,0,30,0,0
31938,-909.090909090909,4,1,0,30,0,0
32008,-50,4,1,0,30,0,0
32032,-1000,4,1,0,30,0,0
32102,-50,4,1,0,30,0,0
32125,-1111.11111111111,4,1,0,30,0,0
32196,-50,4,1,0,30,0,0
32219,-1250,4,1,0,30,0,0
32289,-50,4,1,0,30,0,0
32313,-1428.57142857143,4,1,0,30,0,0
32383,-50,4,1,0,30,0,0
32407,-100,4,1,0,30,0,0
32782,-200,4,1,0,30,0,0
32875,-50,4,1,0,30,0,0
32969,-100,4,1,0,30,0,0
34094,23.4375,4,1,0,30,1,0
34094,-10,4,1,0,30,0,0
34282,375,4,1,0,30,1,0
34282,-100,4,1,0,30,0,0
34844,-400,4,1,0,30,0,0
34938,-57.1428571428571,4,1,0,30,0,0
35032,-100,4,1,0,30,0,0
36032,-400,4,1,0,30,0,0
36188,-57.1428571428571,4,1,0,30,0,0
36344,-100,4,1,0,30,0,0
37094,23.4375,4,1,0,30,1,0
37094,-10,4,1,0,30,0,0
37282,375,4,1,0,30,1,0
37282,-100,4,1,0,30,0,0
38594,23.4375,4,1,0,30,1,0
38594,-10,4,1,0,30,0,0
38782,375,4,1,0,30,1,0
38782,-100,4,1,0,30,0,0
39032,-200,4,1,0,30,0,0
39188,-66.6666666666667,4,1,0,30,0,0
39344,-100,4,1,0,30,0,0
40844,-400,4,1,0,30,0,0
40938,-57.1428571428571,4,1,0,30,0,0
41032,-100,4,1,0,30,0,0
41500,-800,4,1,0,30,0,0
41571,-25,4,1,0,30,0,0
41594,-100,4,1,0,30,0,0
41688,-800,4,1,0,30,0,0
41758,-25,4,1,0,30,0,0
41782,-100,4,1,0,30,0,0
43094,23.4375,4,1,0,30,1,0
43094,-10,4,1,0,30,0,0
43282,375,4,1,0,30,1,0
43282,-100,4,1,0,30,0,0
44125,-1000,4,1,0,30,0,0
44160,-50,4,1,0,30,0,0
44172,-1111.11111111111,4,1,0,30,0,0
44207,-41.6666666666667,4,1,0,30,0,0
44219,-1250,4,1,0,30,0,0
44254,-35.7142857142857,4,1,0,30,0,0
44266,-1428.57142857143,4,1,0,30,0,0
44301,-31.25,4,1,0,30,0,0
44313,-1666.66666666667,4,1,0,30,0,0
44348,-27.7777777777778,4,1,0,30,0,0
44360,-2000,4,1,0,30,0,0
44395,-25,4,1,0,30,0,0
44407,-100,4,1,0,30,0,0
45532,-66.6666666666667,4,1,0,30,0,0
45578,-200,4,1,0,30,0,0
45625,-66.6666666666667,4,1,0,30,0,0
45672,-200,4,1,0,30,0,0
45719,-66.6666666666667,4,1,0,30,0,0
45766,-200,4,1,0,30,0,0
45813,-66.6666666666667,4,1,0,30,0,0
45860,-200,4,1,0,30,0,0
45907,-66.6666666666667,4,1,0,30,0,0
46000,-200,4,1,0,30,0,0
46094,23.4375,4,1,0,30,1,0
46094,-10,4,1,0,30,0,0
46282,375,4,1,0,30,1,0
46282,-100,4,1,0,30,0,0
46844,-400,4,1,0,30,0,0
46938,-57.1428571428571,4,1,0,30,0,0
47032,-100,4,1,0,30,0,0
48063,-66.6666666666667,4,1,0,30,0,0
48110,-200,4,1,0,30,0,0
48157,-400,4,1,0,30,0,0
48251,-57.1428571428571,4,1,0,30,0,0
48345,-100,4,1,0,30,0,0
50032,-25,4,1,0,30,0,0
50055,-400,4,1,0,30,0,0
50172,-100,4,1,0,30,0,0
50782,-25,4,1,0,30,0,0
50805,-400,4,1,0,30,0,0
50922,-100,4,1,0,30,0,0
51532,-25,4,1,0,30,0,0
51555,-400,4,1,0,30,0,0
51672,-100,4,1,0,30,0,0
52282,-25,4,1,0,30,0,0
52305,-400,4,1,0,30,0,0
52422,-100,4,1,0,30,0,0
53032,-25,4,1,0,30,0,0
53055,-400,4,1,0,30,0,0
53172,-100,4,1,0,30,0,0
53407,-25,4,1,0,30,0,0
53430,-400,4,1,0,30,0,0
53547,-100,4,1,0,30,0,0
53782,-25,4,1,0,30,0,0
53805,-400,4,1,0,30,0,0
53922,-100,4,1,0,30,0,0
54157,-25,4,1,0,30,0,0
54180,-400,4,1,0,30,0,0
54297,-100,4,1,0,30,0,0
54532,-25,4,1,0,30,0,0
54555,-400,4,1,0,30,0,0
54672,-100,4,1,0,30,0,0
54813,-25,4,1,0,30,0,0
54836,-400,4,1,0,30,0,0
54953,-100,4,1,0,30,0,0
55094,-25,4,1,0,30,0,0
55117,-400,4,1,0,30,0,0
55234,-100,4,1,0,30,0,0
55375,-25,4,1,0,30,0,0
55398,-400,4,1,0,30,0,0
55515,-100,4,1,0,30,0,0
55657,-25,4,1,0,30,0,0
55680,-400,4,1,0,30,0,0
55797,-100,4,1,0,30,0,0
55938,-25,4,1,0,30,0,0
55961,-400,4,1,0,30,0,0
56032,-100,4,1,0,30,0,0
59594,23.4375,4,1,0,30,1,0
59594,-10,4,1,0,30,0,0
59782,375,4,1,0,30,1,0
59782,-100,4,1,0,30,0,0
61094,23.4375,4,1,0,30,1,0
61094,-10,4,1,0,30,0,0
61282,375,4,1,0,30,1,0
61282,-100,4,1,0,30,0,0
61844,-400,4,1,0,30,0,0
61938,-57.1428571428571,4,1,0,30,0,0
62032,-100,4,1,0,30,0,0
62594,23.4375,4,1,0,30,1,0
62594,-10,4,1,0,30,0,0
62782,375,4,1,0,30,1,0
62782,-100,4,1,0,30,0,0
63032,-200,4,1,0,30,0,0
63188,-66.6666666666667,4,1,0,30,0,0
63344,-100,4,1,0,30,0,0
63907,-400,4,1,0,30,0,0
64001,-57.1428571428571,4,1,0,30,0,0
64094,23.4375,4,1,0,30,1,0
64094,-10,4,1,0,30,0,0
64282,375,4,1,0,30,1,0
64282,-100,4,1,0,30,0,0
64657,-200,4,1,0,30,0,0
64750,-50,4,1,0,30,0,0
64844,-200,4,1,0,30,0,0
64937,-50,4,1,0,30,0,0
65032,-100,4,1,0,30,0,0
65782,-200,4,1,0,30,0,0
65875,-50,4,1,0,30,0,0
65969,-100,4,1,0,30,0,0
67094,-200,4,1,0,30,0,0
67141,-100,4,1,0,30,0,0
67188,-50,4,1,0,30,0,0
67235,-100,4,1,0,30,0,0
67282,-100,4,1,0,30,0,0
69532,-10000,4,1,0,30,0,0
69672,-33.4448160535117,4,1,0,30,0,0
69719,-10000,4,1,0,30,0,0
69860,-33.4448160535117,4,1,0,30,0,0
69907,-10000,4,1,0,30,0,0
70047,-33.4448160535117,4,1,0,30,0,0
70094,23.4375,4,1,0,30,1,0
70094,-10,4,1,0,30,0,0
70282,375,4,1,0,30,1,0
70282,-100,4,1,0,30,0,0
71594,23.4375,4,1,0,30,1,0
71594,-10,4,1,0,30,0,0
71782,375,4,1,0,30,1,0
71782,-100,4,1,0,30,0,0
72032,-200,4,1,0,30,0,0
72188,-66.6666666666667,4,1,0,30,0,0
72344,-100,4,1,0,30,0,0
72532,-66.6666666666667,4,1,0,30,0,0
72578,-200,4,1,0,30,0,0
72625,-66.6666666666667,4,1,0,30,0,0
72672,-200,4,1,0,30,0,0
72719,-66.6666666666667,4,1,0,30,0,0
72766,-200,4,1,0,30,0,0
72813,-66.6666666666667,4,1,0,30,0,0
72860,-200,4,1,0,30,0,0
72907,-66.6666666666667,4,1,0,30,0,0
73000,-200,4,1,0,30,0,0
73094,-100,4,1,0,30,0,0
73844,-400,4,1,0,30,0,0
73938,-57.1428571428571,4,1,0,30,0,0
74032,-100,4,1,0,30,0,0
75157,23.4375,4,1,0,30,1,0
75157,-10,4,1,0,30,0,0
75345,375,4,1,0,30,1,0
75345,-100,4,1,0,30,0,0
76095,23.4375,4,1,0,30,1,0
76095,-10,4,1,0,30,0,0
76283,375,4,1,0,30,1,0
76283,-100,4,1,0,30,0,0
77173,-1111.11111111111,4,1,0,30,0,0
77208,-41.6666666666667,4,1,0,30,0,0
77220,-1250,4,1,0,30,0,0
77255,-35.7142857142857,4,1,0,30,0,0
77267,-1428.57142857143,4,1,0,30,0,0
77302,-31.25,4,1,0,30,0,0
77314,-1666.66666666667,4,1,0,30,0,0
77349,-27.7777777777778,4,1,0,30,0,0
77361,-2000,4,1,0,30,0,0
77396,-25,4,1,0,30,0,0
77408,-100,4,1,0,30,0,0
78533,-66.6666666666667,4,1,0,30,0,0
78579,-200,4,1,0,30,0,0
78626,-66.6666666666667,4,1,0,30,0,0
78673,-200,4,1,0,30,0,0
78720,-66.6666666666667,4,1,0,30,0,0
78767,-200,4,1,0,30,0,0
78814,-66.6666666666667,4,1,0,30,0,0
78861,-200,4,1,0,30,0,0
78908,-66.6666666666667,4,1,0,30,0,0
79001,-200,4,1,0,30,0,0
79095,23.4375,4,1,0,30,1,0
79095,-10,4,1,0,30,0,0
79283,375,4,1,0,30,1,0
79283,-100,4,1,0,30,0,0
79845,-400,4,1,0,30,0,0
79939,-57.1428571428571,4,1,0,30,0,0
80033,-100,4,1,0,30,0,0
80220,-66.6666666666667,4,1,0,30,0,0
80314,-200,4,1,0,30,0,0
80408,-100,4,1,0,30,0,0
81158,-400,4,1,0,30,0,0
81251,-57.1428571428571,4,1,0,30,0,0
81345,-100,4,1,0,30,0,0
83033,-10000,4,1,0,30,0,0
83056,-50.251256281407,4,1,0,30,0,0
83079,-10000,4,1,0,30,0,0
83102,-50.251256281407,4,1,0,30,0,0
83126,-10000,4,1,0,30,0,0
83149,-50.251256281407,4,1,0,30,0,0
83173,-10000,4,1,0,30,0,0
83196,-50.251256281407,4,1,0,30,0,0
83220,-10000,4,1,0,30,0,0
83243,-50.251256281407,4,1,0,30,0,0
83267,-10000,4,1,0,30,0,0
83290,-50.251256281407,4,1,0,30,0,0
83314,-10000,4,1,0,30,0,0
83337,-50.251256281407,4,1,0,30,0,0
83361,-10000,4,1,0,30,0,0
83384,-50.251256281407,4,1,0,30,0,0
83408,-10000,4,1,0,30,0,0
83431,-50.251256281407,4,1,0,30,0,0
83454,-10000,4,1,0,30,0,0
83477,-50.251256281407,4,1,0,30,0,0
83501,-10000,4,1,0,30,0,0
83524,-50.251256281407,4,1,0,30,0,0
83548,-10000,4,1,0,30,0,0
83571,-50.251256281407,4,1,0,30,0,0
83595,-10000,4,1,0,30,0,0
83618,-50.251256281407,4,1,0,30,0,0
83642,-100,4,1,0,30,0,0
85095,23.4375,4,1,0,30,1,0
85095,-10,4,1,0,30,0,0
85283,375,4,1,0,30,1,0
85283,-100,4,1,0,30,0,0
85470,-66.6666666666667,4,1,0,30,0,0
85564,-200,4,1,0,30,0,0
85658,-66.6666666666667,4,1,0,30,0,0
85751,-200,4,1,0,30,0,0
85845,-66.6666666666667,4,1,0,30,0,0
85939,-200,4,1,0,30,0,0
86033,-100,4,1,0,30,0,0
86595,23.4375,4,1,0,30,1,0
86595,-10,4,1,0,30,0,0
86783,375,4,1,0,30,1,0
86783,-100,4,1,0,30,0,0
87908,-400,4,1,0,30,0,0
88001,-57.1428571428571,4,1,0,30,0,0
88095,23.4375,4,1,0,30,1,0
88095,-10,4,1,0,30,0,0
88283,375,4,1,0,30,1,0
88283,-100,4,1,0,30,0,0
88845,-200,4,1,0,30,0,0
88939,-66.6666666666667,4,1,0,30,0,0
89033,-200,4,1,0,30,0,0
89126,-66.6666666666667,4,1,0,30,0,0
89220,-200,4,1,0,30,0,0
89314,-66.6666666666667,4,1,0,30,0,0
89408,-100,4,1,0,30,0,0
91072,-200,4,1,0,30,0,0
91142,-100,4,1,0,30,0,0
91212,-50,4,1,0,30,0,0
91283,-100,4,1,0,30,0,0
92314,-1000,4,1,0,30,0,0
92345,-52.6315789473684,4,1,0,30,0,0
92376,-1000,4,1,0,30,0,0
92408,-52.6315789473684,4,1,0,30,0,0
92439,-1000,4,1,0,30,0,0
92470,-52.6315789473684,4,1,0,30,0,0
92501,-1000,4,1,0,30,0,0
92533,-52.6315789473684,4,1,0,30,0,0
92564,-1000,4,1,0,30,0,0
92595,-100,4,1,0,30,0,0
93158,-50,4,1,0,30,0,0
93204,-100,4,1,0,30,0,0
93251,-200,4,1,0,30,0,0
93298,-400,4,1,0,30,0,0
93345,-100,4,1,0,30,0,0
93626,-50,4,1,0,30,0,0
93672,-100,4,1,0,30,0,0
93719,-200,4,1,0,30,0,0
93766,-400,4,1,0,30,0,0
93813,-100,4,1,0,30,0,0
94095,23.4375,4,1,0,30,1,0
94095,-10,4,1,0,30,0,0
94283,375,4,1,0,30,1,0
94283,-100,4,1,0,30,0,0
97845,-400,4,1,0,30,0,0
97939,-57.1428571428571,4,1,0,30,0,0
98033,-100,4,1,0,30,0,0
98408,-400,4,1,0,30,0,0
98501,-57.1428571428571,4,1,0,30,0,0
98595,-400,4,1,0,30,0,0
98642,-57.1428571428571,4,1,0,30,0,0
98689,-400,4,1,0,30,0,0
98736,-57.1428571428571,4,1,0,30,0,0
98783,-99.009900990099,4,1,0,30,0,0
99158,23.4375,4,1,0,30,1,0
99158,-10,4,1,0,30,0,0
99346,375,4,1,0,30,1,0
99346,-100,4,1,0,30,0,0
100096,23.4375,4,1,0,30,1,0
100096,-10,4,1,0,30,0,0
100284,375,4,1,0,30,1,0
100284,-100,4,1,0,30,0,0
100659,-10000,4,1,0,30,0,0
100682,-50.251256281407,4,1,0,30,0,0
100705,-10000,4,1,0,30,0,0
100728,-50.251256281407,4,1,0,30,0,0
100752,-10000,4,1,0,30,0,0
100775,-50.251256281407,4,1,0,30,0,0
100799,-10000,4,1,0,30,0,0
100822,-50.251256281407,4,1,0,30,0,0
100846,-10000,4,1,0,30,0,0
100869,-50.251256281407,4,1,0,30,0,0
100893,-10000,4,1,0,30,0,0
100916,-50.251256281407,4,1,0,30,0,0
100940,-10000,4,1,0,30,0,0
100963,-50.251256281407,4,1,0,30,0,0
100987,-10000,4,1,0,30,0,0
101010,-50.251256281407,4,1,0,30,0,0
101034,-66.6666666666667,4,1,0,30,0,0
101127,-200,4,1,0,30,0,0
101221,-66.6666666666667,4,1,0,30,0,0
101315,-200,4,1,0,30,0,0
101409,-100,4,1,0,30,0,0
102534,-66.6666666666667,4,1,0,30,0,0
102580,-200,4,1,0,30,0,0
102627,-66.6666666666667,4,1,0,30,0,0
102674,-200,4,1,0,30,0,0
102721,-66.6666666666667,4,1,0,30,0,0
102768,-200,4,1,0,30,0,0
102815,-66.6666666666667,4,1,0,30,0,0
102862,-200,4,1,0,30,0,0
102909,-66.6666666666667,4,1,0,30,0,0
103002,-200,4,1,0,30,0,0
103096,23.4375,4,1,0,30,1,0
103096,-10,4,1,0,30,0,0
103284,375,4,1,0,30,1,0
103284,-100,4,1,0,30,0,0
103846,-400,4,1,0,30,0,0
103940,-57.1428571428571,4,1,0,30,0,0
104034,-100,4,1,0,30,0,0
104221,-50,4,1,0,30,0,0
104268,-100,4,1,0,30,0,0
104315,-200,4,1,0,30,0,0
104362,-400,4,1,0,30,0,0
104409,-100,4,1,0,30,0,0
106096,-400,4,1,0,30,0,0
106143,-200,4,1,0,30,0,0
106190,-100,4,1,0,30,0,0
106237,-50,4,1,0,30,0,0
106284,-100,4,1,0,30,0,0
107034,-133.333333333333,4,1,0,30,0,0
107971,-533.333333333333,4,1,0,30,0,0
108018,-76.1904761904762,4,1,0,30,0,0
108065,-533.333333333333,4,1,0,30,0,0
108112,-76.1904761904762,4,1,0,30,0,0
108159,-533.333333333333,4,1,0,30,0,0
108205,-76.1904761904762,4,1,0,30,0,0
108252,-533.333333333333,4,1,0,30,0,0
108299,-76.1904761904762,4,1,0,30,0,0
108346,-133.333333333333,4,1,0,30,0,0
109471,-533.333333333333,4,1,0,30,0,0
109518,-76.1904761904762,4,1,0,30,0,0
109565,-533.333333333333,4,1,0,30,0,0
109612,-76.1904761904762,4,1,0,30,0,0
109659,-533.333333333333,4,1,0,30,0,0
109705,-76.1904761904762,4,1,0,30,0,0
109752,-533.333333333333,4,1,0,30,0,0
109799,-76.1904761904762,4,1,0,30,0,0
109846,-133.333333333333,4,1,0,30,0,0
110971,-533.333333333333,4,1,0,30,0,0
111018,-76.1904761904762,4,1,0,30,0,0
111065,-533.333333333333,4,1,0,30,0,0
111112,-76.1904761904762,4,1,0,30,0,0
111159,-533.333333333333,4,1,0,30,0,0
111205,-76.1904761904762,4,1,0,30,0,0
111252,-533.333333333333,4,1,0,30,0,0
111299,-76.1904761904762,4,1,0,30,0,0
111346,-133.333333333333,4,1,0,30,0,0
112471,-533.333333333333,4,1,0,30,0,0
112518,-76.1904761904762,4,1,0,30,0,0
112565,-533.333333333333,4,1,0,30,0,0
112612,-76.1904761904762,4,1,0,30,0,0
112659,-533.333333333333,4,1,0,30,0,0
112705,-76.1904761904762,4,1,0,30,0,0
112752,-533.333333333333,4,1,0,30,0,0
112799,-76.1904761904762,4,1,0,30,0,0
112846,-133.333333333333,4,1,0,30,0,0
113034,-25,4,1,0,30,0,0
113080,-400,4,1,0,30,0,0
113409,-133.333333333333,4,1,0,30,0,0
119034,-100,4,1,0,30,0,0
119221,-10000,4,1,0,30,0,0
119244,-50.251256281407,4,1,0,30,0,0
119268,-10000,4,1,0,30,0,0
119291,-50.251256281407,4,1,0,30,0,0
119315,-10000,4,1,0,30,0,0
119338,-50.251256281407,4,1,0,30,0,0
119362,-10000,4,1,0,30,0,0
119385,-50.251256281407,4,1,0,30,0,0
119409,-10000,4,1,0,30,0,0
119432,-50.251256281407,4,1,0,30,0,0
119455,-10000,4,1,0,30,0,0
119479,-50.251256281407,4,1,0,30,0,0
119502,-10000,4,1,0,30,0,0
119526,-50.251256281407,4,1,0,30,0,0
119549,-10000,4,1,0,30,0,0
119573,-50.251256281407,4,1,0,30,0,0
119596,-10000,4,1,0,30,0,0
119619,-50.251256281407,4,1,0,30,0,0
119643,-10000,4,1,0,30,0,0
119666,-50.251256281407,4,1,0,30,0,0
119690,-10000,4,1,0,30,0,0
119713,-50.251256281407,4,1,0,30,0,0
119737,-10000,4,1,0,30,0,0
119760,-50.251256281407,4,1,0,30,0,0
119784,-100,4,1,0,30,0,0
121471,-66.6666666666667,4,1,0,30,0,0
121565,-200,4,1,0,30,0,0
121659,-66.6666666666667,4,1,0,30,0,0
121752,-200,4,1,0,30,0,0
121846,-66.6666666666667,4,1,0,30,0,0
121940,-200,4,1,0,30,0,0
122034,-100,4,1,0,30,0,0
122596,23.4375,4,1,0,30,1,0
122596,-10,4,1,0,30,0,0
122784,375,4,1,0,30,1,0
122784,-100,4,1,0,30,0,0
124096,23.4375,4,1,0,30,1,0
124096,-10,4,1,0,30,0,0
124284,375,4,1,0,30,1,0
124284,-100,4,1,0,30,0,0
127096,-400,4,1,0,30,0,0
127143,-200,4,1,0,30,0,0
127190,-100,4,1,0,30,0,0
127237,-50,4,1,0,30,0,0
127284,-100,4,1,0,30,0,0
129159,-50,4,1,0,30,0,0
129205,-100,4,1,0,30,0,0
129252,-200,4,1,0,30,0,0
129299,-400,4,1,0,30,0,0
129346,-100,4,1,0,30,0,0
129534,-10000,4,1,0,30,0,0
129674,-33.4448160535117,4,1,0,30,0,0
129721,-10000,4,1,0,30,0,0
129862,-33.4448160535117,4,1,0,30,0,0
129909,-10000,4,1,0,30,0,0
130049,-33.4448160535117,4,1,0,30,0,0
130096,23.4375,4,1,0,30,1,0
130096,-10,4,1,0,30,0,0
130284,375,4,1,0,30,1,0
130284,-100,4,1,0,30,0,0
130659,-10000,4,1,0,30,0,0
130682,-50.251256281407,4,1,0,30,0,0
130705,-10000,4,1,0,30,0,0
130728,-50.251256281407,4,1,0,30,0,0
130752,-10000,4,1,0,30,0,0
130775,-50.251256281407,4,1,0,30,0,0
130799,-10000,4,1,0,30,0,0
130822,-50.251256281407,4,1,0,30,0,0
130846,-10000,4,1,0,30,0,0
130869,-50.251256281407,4,1,0,30,0,0
130893,-10000,4,1,0,30,0,0
130916,-50.251256281407,4,1,0,30,0,0
130940,-10000,4,1,0,30,0,0
130963,-50.251256281407,4,1,0,30,0,0
130987,-10000,4,1,0,30,0,0
131010,-50.251256281407,4,1,0,30,0,0
131034,-100,4,1,0,30,0,0
131596,23.4375,4,1,0,30,1,0
131596,-10,4,1,0,30,0,0
131784,375,4,1,0,30,1,0
131784,-100,4,1,0,30,0,0
132159,-66.6666666666667,4,1,0,30,0,0
132252,-200,4,1,0,30,0,0
132346,-100,4,1,0,30,0,0
135159,23.4375,4,1,0,30,1,0
135159,-10,4,1,0,30,0,0
135347,375,4,1,0,30,1,0
135347,-100,4,1,0,30,0,0
135909,-1000,4,1,0,30,0,0
135932,-52.6315789473684,4,1,0,30,0,0
135956,-1000,4,1,0,30,0,0
135979,-52.6315789473684,4,1,0,30,0,0
136003,-1000,4,1,0,30,0,0
136026,-52.6315789473684,4,1,0,30,0,0
136050,-1000,4,1,0,30,0,0
136073,-52.6315789473684,4,1,0,30,0,0
136097,23.4375,4,1,0,30,1,0
136097,-10,4,1,0,30,0,0
136285,375,4,1,0,30,1,0
136285,-100,4,1,0,30,0,0
136660,-66.6666666666667,4,1,0,30,0,0
136753,-133.333333333333,4,1,0,30,0,0
136847,-266.666666666667,4,1,0,30,0,0
136941,-533.333333333333,4,1,0,30,0,0
137035,-100,4,1,0,30,0,0
138535,-66.6666666666667,4,1,0,30,0,0
138581,-200,4,1,0,30,0,0
138628,-66.6666666666667,4,1,0,30,0,0
138675,-200,4,1,0,30,0,0
138722,-66.6666666666667,4,1,0,30,0,0
138769,-200,4,1,0,30,0,0
138816,-66.6666666666667,4,1,0,30,0,0
138863,-200,4,1,0,30,0,0
138910,-66.6666666666667,4,1,0,30,0,0
139003,-200,4,1,0,30,0,0
139097,23.4375,4,1,0,30,1,0
139097,-10,4,1,0,30,0,0
139285,375,4,1,0,30,1,0
139285,-100,4,1,0,30,0,0
139847,-400,4,1,0,30,0,0
139941,-57.1428571428571,4,1,0,30,0,0
140035,-100,4,1,0,30,0,0
140222,-50,4,1,0,30,0,0
140269,-100,4,1,0,30,0,0
140316,-200,4,1,0,30,0,0
140363,-400,4,1,0,30,0,0
140410,-100,4,1,0,30,0,0
141160,-400,4,1,0,30,0,0
141253,-57.1428571428571,4,1,0,30,0,0
141347,-100,4,1,0,30,0,0
142097,-400,4,1,0,30,0,0
142144,-200,4,1,0,30,0,0
142191,-100,4,1,0,30,0,0
142238,-50,4,1,0,30,0,0
142285,-100,4,1,0,30,0,0

[HitObjects]
192,192,8407,5,0,0:0:0:0:
320,192,8407,1,0,0:0:0:0:
320,192,8594,1,0,0:0:0:0:
448,192,8688,1,0,0:0:0:0:
192,192,8688,1,0,0:0:0:0:
192,192,8969,1,0,0:0:0:0:
64,192,8969,1,0,0:0:0:0:
448,192,9344,1,0,0:0:0:0:
320,192,9344,1,0,0:0:0:0:
320,192,10282,128,0,10657:0:0:0:0:
64,192,10282,128,0,10469:0:0:0:0:
448,192,11032,1,0,0:0:0:0:
64,192,11157,1,0,0:0:0:0:
192,192,11594,1,0,0:0:0:0:
448,192,11782,1,0,0:0:0:0:
64,192,11782,1,0,0:0:0:0:
320,192,12157,1,0,0:0:0:0:
192,192,12344,1,0,0:0:0:0:
64,192,12344,1,0,0:0:0:0:
448,192,12907,1,0,0:0:0:0:
320,192,12907,1,0,0:0:0:0:
448,192,13282,128,0,13657:0:0:0:0:
64,192,13282,128,0,13469:0:0:0:0:
320,192,14032,1,0,0:0:0:0:
192,192,14032,1,0,0:0:0:0:
320,192,14782,1,0,0:0:0:0:
320,192,14969,1,0,0:0:0:0:
192,192,15157,1,0,0:0:0:0:
64,192,15157,1,0,0:0:0:0:
448,192,15344,1,0,0:0:0:0:
320,192,15532,128,0,16094:0:0:0:0:
448,192,15719,128,0,16094:0:0:0:0:
192,192,15719,128,0,15907:0:0:0:0:
192,192,16094,1,0,0:0:0:0:
64,192,16188,1,0,0:0:0:0:
448,192,16282,1,0,0:0:0:0:
320,192,16375,1,0,0:0:0:0:
192,192,16469,1,0,0:0:0:0:
64,192,16469,1,0,0:0:0:0:
448,192,17032,1,0,0:0:0:0:
64,192,17032,1,0,0:0:0:0:
320,192,17782,128,0,18157:0:0:0:0:
448,192,18157,1,0,0:0:0:0:
448,192,18344,1,0,0:0:0:0:
64,192,18344,1,0,0:0:0:0:
64,192,18907,1,0,0:0:0:0:
320,192,19094,1,0,0:0:0:0:
64,192,19188,1,0,0:0:0:0:
448,192,19282,1,0,0:0:0:0:
192,192,19282,1,0,0:0:0:0:
320,192,19469,1,0,0:0:0:0:
64,192,19657,1,0,0:0:0:0:
64,192,19844,1,0,0:0:0:0:
192,192,19938,1,0,0:0:0:0:
448,192,20032,1,0,0:0:0:0:
448,192,20219,1,0,0:0:0:0:
64,192,20407,1,0,0:0:0:0:
320,192,20469,1,0,0:0:0:0:
320,192,20594,1,0,0:0:0:0:
320,192,20719,1,0,0:0:0:0:
192,192,20782,1,0,0:0:0:0:
64,192,20969,1,0,0:0:0:0:
64,192,21344,1,0,0:0:0:0:
448,192,22282,1,0,0:0:0:0:
64,192,22375,1,0,0:0:0:0:
192,192,22469,1,0,0:0:0:0:
320,192,22563,1,0,0:0:0:0:
64,192,23032,1,0,0:0:0:0:
320,192,23782,1,0,0:0:0:0:
192,192,23782,1,0,0:0:0:0:
448,192,23969,1,0,0:0:0:0:
320,192,24157,1,0,0:0:0:0:
192,192,24157,1,0,0:0:0:0:
64,192,24344,1,0,0:0:0:0:
448,192,24532,1,0,0:0:0:0:
320,192,24719,1,0,0:0:0:0:
64,192,24719,1,0,0:0:0:0:
320,192,24907,1,0,0:0:0:0:
64,192,24907,1,0,0:0:0:0:
320,192,25094,1,0,0:0:0:0:
64,192,25094,1,0,0:0:0:0:
448,192,25282,128,0,25844:0:0:0:0:
64,192,25282,1,0,0:0:0:0:
64,192,25469,1,0,0:0:0:0:
64,192,25657,1,0,0:0:0:0:
64,192,25844,1,0,0:0:0:0:
448,192,26032,1,0,0:0:0:0:
320,192,26032,1,0,0:0:0:0:
192,192,26157,1,0,0:0:0:0:
192,192,26282,1,0,0:0:0:0:
192,192,26407,1,0,0:0:0:0:
448,192,26594,128,0,26782:0:0:0:0:
320,192,26782,1,0,0:0:0:0:
192,192,26782,1,0,0:0:0:0:
64,192,26782,1,0,0:0:0:0:
448,192,27063,1,0,0:0:0:0:
192,192,27157,1,0,0:0:0:0:
320,192,27250,1,0,0:0:0:0:
192,192,27344,1,0,0:0:0:0:
64,192,27344,1,0,0:0:0:0:
448,192,27532,1,0,0:0:0:0:
64,192,27657,1,0,0:0:0:0:
64,192,27782,1,0,0:0:0:0:
64,192,27907,1,0,0:0:0:0:
320,192,28094,128,0,28282:0:0:0:0:
448,192,28282,1,0,0:0:0:0:
192,192,28282,1,0,0:0:0:0:
64,192,28282,1,0,0:0:0:0:
320,192,28563,1,0,0:0:0:0:
192,192,28657,1,0,0:0:0:0:
64,192,28750,1,0,0:0:0:0:
448,192,28844,128,0,29032:0:0:0:0:
64,192,29032,1,0,0:0:0:0:
448,192,29157,1,0,0:0:0:0:
448,192,29282,1,0,0:0:0:0:
320,192,29407,1,0,0:0:0:0:
192,192,29407,1,0,0:0:0:0:
64,192,29407,1,0,0:0:0:0:
64,192,29594,128,0,29782:0:0:0:0:
448,192,29782,1,0,0:0:0:0:
320,192,29782,1,0,0:0:0:0:
192,192,29782,1,0,0:0:0:0:
64,192,30063,1,0,0:0:0:0:
320,192,30157,1,0,0:0:0:0:
192,192,30250,1,0,0:0:0:0:
448,192,30344,1,0,0:0:0:0:
320,192,30344,1,0,0:0:0:0:
192,192,30532,1,0,0:0:0:0:
320,192,30657,1,0,0:0:0:0:
320,192,30782,1,0,0:0:0:0:
320,192,30907,1,0,0:0:0:0:
192,192,31094,128,0,31282:0:0:0:0:
448,192,31282,1,0,0:0:0:0:
320,192,31282,1,0,0:0:0:0:
64,192,31282,1,0,0:0:0:0:
192,192,31563,1,0,0:0:0:0:
448,192,31657,1,0,0:0:0:0:
320,192,31750,1,0,0:0:0:0:
64,192,31844,128,0,32407:0:0:0:0:
448,192,32407,1,0,0:0:0:0:
320,192,32407,1,0,0:0:0:0:
192,192,32407,1,0,0:0:0:0:
64,192,32688,1,0,0:0:0:0:
448,192,32782,128,0,32969:0:0:0:0:
192,192,32969,1,0,0:0:0:0:
64,192,32969,1,0,0:0:0:0:
320,192,33063,1,0,0:0:0:0:
448,192,33157,1,0,0:0:0:0:
320,192,33250,1,0,0:0:0:0:
192,192,33344,1,0,0:0:0:0:
64,192,33344,1,0,0:0:0:0:
448,192,33532,1,0,0:0:0:0:
192,192,33657,1,0,0:0:0:0:
192,192,33782,1,0,0:0:0:0:
192,192,33907,1,0,0:0:0:0:
448,192,34094,128,0,34282:0:0:0:0:
320,192,34282,1,0,0:0:0:0:
192,192,34282,1,0,0:0:0:0:
64,192,34282,1,0,0:0:0:0:
448,192,34563,1,0,0:0:0:0:
192,192,34657,1,0,0:0:0:0:
64,192,34750,1,0,0:0:0:0:
320,192,34844,128,0,35032:0:0:0:0:
192,192,35032,1,0,0:0:0:0:
64,192,35032,1,0,0:0:0:0:
448,192,35157,1,0,0:0:0:0:
448,192,35282,1,0,0:0:0:0:
448,192,35407,1,0,0:0:0:0:
192,192,35594,1,0,0:0:0:0:
448,192,35782,1,0,0:0:0:0:
320,192,35782,1,0,0:0:0:0:
64,192,35782,1,0,0:0:0:0:
192,192,36032,128,0,36344:0:0:0:0:
448,192,36344,1,0,0:0:0:0:
320,192,36344,1,0,0:0:0:0:
64,192,36532,1,0,0:0:0:0:
320,192,36657,1,0,0:0:0:0:
320,192,36782,1,0,0:0:0:0:
320,192,36907,1,0,0:0:0:0:
64,192,37094,128,0,37282:0:0:0:0:
448,192,37282,1,0,0:0:0:0:
320,192,37282,1,0,0:0:0:0:
192,192,37282,1,0,0:0:0:0:
64,192,37563,1,0,0:0:0:0:
448,192,37657,1,0,0:0:0:0:
320,192,37750,1,0,0:0:0:0:
192,192,37844,1,0,0:0:0:0:
192,192,37938,1,0,0:0:0:0:
448,192,38032,1,0,0:0:0:0:
320,192,38032,1,0,0:0:0:0:
64,192,38219,1,0,0:0:0:0:
64,192,38344,1,0,0:0:0:0:
64,192,38469,1,0,0:0:0:0:
320,192,38594,128,0,38782:0:0:0:0:
448,192,38782,1,0,0:0:0:0:
192,192,38782,1,0,0:0:0:0:
64,192,38782,1,0,0:0:0:0:
320,192,39032,128,0,39344:0:0:0:0:
192,192,39344,1,0,0:0:0:0:
448,192,39344,1,0,0:0:0:0:
448,192,39532,1,0,0:0:0:0:
192,192,39657,1,0,0:0:0:0:
192,192,39782,1,0,0:0:0:0:
192,192,39907,1,0,0:0:0:0:
192,192,40094,1,0,0:0:0:0:
448,192,40282,1,0,0:0:0:0:
320,192,40282,1,0,0:0:0:0:
64,192,40282,1,0,0:0:0:0:
192,192,40563,1,0,0:0:0:0:
64,192,40657,1,0,0:0:0:0:
320,192,40750,1,0,0:0:0:0:
448,192,40844,128,0,41032:0:0:0:0:
192,192,41032,1,0,0:0:0:0:
64,192,41032,1,0,0:0:0:0:
320,192,41157,1,0,0:0:0:0:
320,192,41282,1,0,0:0:0:0:
320,192,41407,1,0,0:0:0:0:
64,192,41500,128,0,41594:0:0:0:0:
320,192,41594,1,0,0:0:0:0:
192,192,41688,128,0,41782:0:0:0:0:
448,192,41782,1,0,0:0:0:0:
320,192,41782,1,0,0:0:0:0:
64,192,41782,1,0,0:0:0:0:
192,192,42063,1,0,0:0:0:0:
320,192,42157,1,0,0:0:0:0:
448,192,42250,1,0,0:0:0:0:
192,192,42344,1,0,0:0:0:0:
64,192,42344,1,0,0:0:0:0:
320,192,42532,1,0,0:0:0:0:
192,192,42657,1,0,0:0:0:0:
192,192,42782,1,0,0:0:0:0:
192,192,42907,1,0,0:0:0:0:
320,192,43094,128,0,43282:0:0:0:0:
448,192,43282,1,0,0:0:0:0:
192,192,43282,1,0,0:0:0:0:
64,192,43282,1,0,0:0:0:0:
320,192,43563,1,0,0:0:0:0:
192,192,43657,1,0,0:0:0:0:
64,192,43750,1,0,0:0:0:0:
448,192,43844,128,0,44407:0:0:0:0:
192,192,44407,1,0,0:0:0:0:
320,192,44407,1,0,0:0:0:0:
448,192,44782,1,0,0:0:0:0:
64,192,44782,1,0,0:0:0:0:
320,192,45032,1,0,0:0:0:0:
192,192,45157,1,0,0:0:0:0:
64,192,45282,1,0,0:0:0:0:
448,192,45344,1,0,0:0:0:0:
320,192,45344,1,0,0:0:0:0:
64,192,45532,128,0,45625:0:0:0:0:
192,192,45625,128,0,45719:0:0:0:0:
320,192,45719,128,0,45813:0:0:0:0:
448,192,45813,128,0,45907:0:0:0:0:
64,192,45907,128,0,46094:0:0:0:0:
448,192,46094,128,0,46282:0:0:0:0:
320,192,46282,1,0,0:0:0:0:
192,192,46282,1,0,0:0:0:0:
64,192,46282,1,0,0:0:0:0:
448,192,46563,1,0,0:0:0:0:
320,192,46657,1,0,0:0:0:0:
192,192,46750,1,0,0:0:0:0:
64,192,46844,128,0,47032:0:0:0:0:
448,192,47032,1,0,0:0:0:0:
320,192,47032,1,0,0:0:0:0:
64,192,47157,1,0,0:0:0:0:
64,192,47282,1,0,0:0:0:0:
64,192,47407,1,0,0:0:0:0:
448,192,47594,1,0,0:0:0:0:
320,192,47782,1,0,0:0:0:0:
192,192,47782,1,0,0:0:0:0:
64,192,47782,1,0,0:0:0:0:
448,192,48063,128,0,48157:0:0:0:0:
64,192,48157,128,0,48344:0:0:0:0:
448,192,48344,1,0,0:0:0:0:
192,192,48344,1,0,0:0:0:0:
192,192,48532,1,0,0:0:0:0:
448,192,48657,1,0,0:0:0:0:
448,192,48782,1,0,0:0:0:0:
448,192,48907,1,0,0:0:0:0:
192,192,49094,1,0,0:0:0:0:
448,192,49282,1,0,0:0:0:0:
320,192,49282,1,0,0:0:0:0:
64,192,49282,1,0,0:0:0:0:
320,192,49469,1,0,0:0:0:0:
192,192,49563,1,0,0:0:0:0:
448,192,49657,1,0,0:0:0:0:
320,192,49657,1,0,0:0:0:0:
64,192,49657,1,0,0:0:0:0:
192,192,49844,128,0,50032:0:0:0:0:
320,192,50032,1,0,0:0:0:0:
64,192,50172,128,0,50782:0:0:0:0:
448,192,50782,1,0,0:0:0:0:
192,192,50922,128,0,51532:0:0:0:0:
64,192,51532,1,0,0:0:0:0:
320,192,51672,128,0,52282:0:0:0:0:
192,192,52282,1,0,0:0:0:0:
448,192,52422,128,0,53032:0:0:0:0:
320,192,53032,1,0,0:0:0:0:
64,192,53172,128,0,53407:0:0:0:0:
320,192,53407,1,0,0:0:0:0:
192,192,53547,128,0,53782:0:0:0:0:
448,192,53782,1,0,0:0:0:0:
320,192,53922,128,0,54157:0:0:0:0:
64,192,54157,1,0,0:0:0:0:
448,192,54297,128,0,54532:0:0:0:0:
192,192,54532,1,0,0:0:0:0:
64,192,54672,128,0,54813:0:0:0:0:
320,192,54813,1,0,0:0:0:0:
192,192,54953,128,0,55094:0:0:0:0:
448,192,55094,1,0,0:0:0:0:
320,192,55235,128,0,55375:0:0:0:0:
64,192,55375,1,0,0:0:0:0:
448,192,55516,128,0,55657:0:0:0:0:
192,192,55657,1,0,0:0:0:0:
320,192,55797,128,0,55938:0:0:0:0:
64,192,55938,1,0,0:0:0:0:
192,192,56032,1,0,0:0:0:0:
320,192,56172,1,0,0:0:0:0:
448,192,56360,1,0,0:0:0:0:
64,192,56547,1,0,0:0:0:0:
320,192,56782,1,0,0:0:0:0:
192,192,57016,1,0,0:0:0:0:
448,192,57203,1,0,0:0:0:0:
64,192,57391,1,0,0:0:0:0:
192,192,57532,1,0,0:0:0:0:
320,192,57672,1,0,0:0:0:0:
448,192,57813,1,0,0:0:0:0:
64,192,57907,1,0,0:0:0:0:
320,192,58024,1,0,0:0:0:0:
192,192,58141,1,0,0:0:0:0:
448,192,58211,1,0,0:0:0:0:
64,192,58282,1,0,0:0:0:0:
192,192,58344,1,0,0:0:0:0:
320,192,58407,128,0,58891:0:0:0:0:
448,192,58469,128,0,58938:0:0:0:0:
320,192,58938,1,0,0:0:0:0:
448,192,58985,1,0,0:0:0:0:
192,192,59032,1,0,0:0:0:0:
64,192,59032,1,0,0:0:0:0:
320,192,59157,1,0,0:0:0:0:
320,192,59282,1,0,0:0:0:0:
320,192,59407,1,0,0:0:0:0:
64,192,59594,128,0,59782:0:0:0:0:
448,192,59782,1,0,0:0:0:0:
320,192,59782,1,0,0:0:0:0:
192,192,59782,1,0,0:0:0:0:
64,192,60063,1,0,0:0:0:0:
320,192,60157,1,0,0:0:0:0:
448,192,60250,1,0,0:0:0:0:
320,192,60344,1,0,0:0:0:0:
192,192,60344,1,0,0:0:0:0:
448,192,60532,1,0,0:0:0:0:
192,192,60657,1,0,0:0:0:0:
192,192,60782,1,0,0:0:0:0:
192,192,60907,1,0,0:0:0:0:
448,192,61094,128,0,61282:0:0:0:0:
320,192,61282,1,0,0:0:0:0:
192,192,61282,1,0,0:0:0:0:
64,192,61282,1,0,0:0:0:0:
448,192,61563,1,0,0:0:0:0:
320,192,61657,1,0,0:0:0:0:
64,192,61750,1,0,0:0:0:0:
192,192,61844,128,0,62032:0:0:0:0:
320,192,62032,1,0,0:0:0:0:
64,192,62032,1,0,0:0:0:0:
448,192,62172,1,0,0:0:0:0:
448,192,62313,1,0,0:0:0:0:
320,192,62407,1,0,0:0:0:0:
192,192,62407,1,0,0:0:0:0:
64,192,62407,1,0,0:0:0:0:
64,192,62594,128,0,62782:0:0:0:0:
448,192,62782,1,0,0:0:0:0:
320,192,62782,1,0,0:0:0:0:
192,192,62782,1,0,0:0:0:0:
64,192,63032,128,0,63344:0:0:0:0:
448,192,63344,1,0,0:0:0:0:
320,192,63344,1,0,0:0:0:0:
320,192,63532,1,0,0:0:0:0:
192,192,63672,1,0,0:0:0:0:
192,192,63813,1,0,0:0:0:0:
64,192,63907,128,0,64094:0:0:0:0:
320,192,64094,128,0,64282:0:0:0:0:
448,192,64282,1,0,0:0:0:0:
192,192,64282,1,0,0:0:0:0:
64,192,64282,1,0,0:0:0:0:
320,192,64563,1,0,0:0:0:0:
192,192,64657,128,0,64844:0:0:0:0:
448,192,64844,128,0,65032:0:0:0:0:
64,192,65032,128,0,65407:0:0:0:0:
448,192,65407,1,0,0:0:0:0:
320,192,65407,1,0,0:0:0:0:
192,192,65407,1,0,0:0:0:0:
64,192,65594,1,0,0:0:0:0:
192,192,65688,1,0,0:0:0:0:
320,192,65782,128,0,65969:0:0:0:0:
192,192,65969,1,0,0:0:0:0:
64,192,65969,1,0,0:0:0:0:
448,192,66157,1,0,0:0:0:0:
320,192,66250,1,0,0:0:0:0:
448,192,66344,1,0,0:0:0:0:
192,192,66344,1,0,0:0:0:0:
320,192,66532,1,0,0:0:0:0:
64,192,66657,1,0,0:0:0:0:
64,192,66782,1,0,0:0:0:0:
192,192,66907,1,0,0:0:0:0:
448,192,67094,128,0,67282:0:0:0:0:
320,192,67282,1,0,0:0:0:0:
192,192,67282,1,0,0:0:0:0:
64,192,67282,1,0,0:0:0:0:
448,192,67563,1,0,0:0:0:0:
320,192,67657,1,0,0:0:0:0:
192,192,67750,1,0,0:0:0:0:
64,192,67844,1,0,0:0:0:0:
448,192,68032,1,0,0:0:0:0:
320,192,68032,1,0,0:0:0:0:
64,192,68172,1,0,0:0:0:0:
64,192,68313,1,0,0:0:0:0:
320,192,68594,1,0,0:0:0:0:
192,192,68688,1,0,0:0:0:0:
448,192,68782,1,0,0:0:0:0:
320,192,68782,1,0,0:0:0:0:
64,192,68782,1,0,0:0:0:0:
64,192,69157,1,0,0:0:0:0:
320,192,69250,1,0,0:0:0:0:
448,192,69344,1,0,0:0:0:0:
192,192,69344,1,0,0:0:0:0:
64,192,69532,128,0,69719:0:0:0:0:
192,192,69719,128,0,69907:0:0:0:0:
448,192,69907,128,0,70094:0:0:0:0:
320,192,70094,128,0,70282:0:0:0:0:
448,192,70282,1,0,0:0:0:0:
192,192,70282,1,0,0:0:0:0:
64,192,70282,1,0,0:0:0:0:
320,192,70563,1,0,0:0:0:0:
192,192,70657,1,0,0:0:0:0:
64,192,70750,1,0,0:0:0:0:
320,192,70844,1,0,0:0:0:0:
320,192,70938,1,0,0:0:0:0:
448,192,71032,1,0,0:0:0:0:
64,192,71032,1,0,0:0:0:0:
320,192,71219,1,0,0:0:0:0:
320,192,71344,1,0,0:0:0:0:
320,192,71469,1,0,0:0:0:0:
192,192,71594,128,0,71782:0:0:0:0:
448,192,71782,1,0,0:0:0:0:
320,192,71782,1,0,0:0:0:0:
64,192,71782,1,0,0:0:0:0:
192,192,72032,128,0,72344:0:0:0:0:
448,192,72344,1,0,0:0:0:0:
64,192,72344,1,0,0:0:0:0:
320,192,72532,128,0,72625:0:0:0:0:
448,192,72625,128,0,72719:0:0:0:0:
64,192,72719,128,0,72813:0:0:0:0:
192,192,72813,128,0,72907:0:0:0:0:
320,192,72907,128,0,73094:0:0:0:0:
64,192,73094,1,0,0:0:0:0:
448,192,73282,1,0,0:0:0:0:
320,192,73282,1,0,0:0:0:0:
192,192,73282,1,0,0:0:0:0:
448,192,73563,1,0,0:0:0:0:
320,192,73657,1,0,0:0:0:0:
192,192,73750,1,0,0:0:0:0:
448,192,73844,128,0,74032:0:0:0:0:
320,192,74032,1,0,0:0:0:0:
192,192,74032,1,0,0:0:0:0:
64,192,74219,1,0,0:0:0:0:
448,192,74313,1,0,0:0:0:0:
320,192,74407,1,0,0:0:0:0:
192,192,74688,1,0,0:0:0:0:
448,192,74782,1,0,0:0:0:0:
320,192,74782,1,0,0:0:0:0:
64,192,74782,1,0,0:0:0:0:
192,192,75063,1,0,0:0:0:0:
448,192,75157,128,0,75344:0:0:0:0:
192,192,75344,1,0,0:0:0:0:
64,192,75344,1,0,0:0:0:0:
320,192,75345,1,0,0:0:0:0:
448,192,75532,1,0,0:0:0:0:
448,192,75673,1,0,0:0:0:0:
448,192,75813,1,0,0:0:0:0:
192,192,75907,1,0,0:0:0:0:
64,192,76095,128,0,76282:0:0:0:0:
448,192,76282,1,0,0:0:0:0:
320,192,76282,1,0,0:0:0:0:
192,192,76282,1,0,0:0:0:0:
64,192,76564,1,0,0:0:0:0:
192,192,76658,1,0,0:0:0:0:
320,192,76751,1,0,0:0:0:0:
448,192,76845,128,0,77408:0:0:0:0:
192,192,76939,128,0,77408:0:0:0:0:
320,192,77408,1,0,0:0:0:0:
64,192,77408,1,0,0:0:0:0:
448,192,77783,1,0,0:0:0:0:
320,192,77783,1,0,0:0:0:0:
192,192,77783,1,0,0:0:0:0:
64,192,78033,1,0,0:0:0:0:
320,192,78158,1,0,0:0:0:0:
320,192,78283,1,0,0:0:0:0:
192,192,78345,1,0,0:0:0:0:
64,192,78345,1,0,0:0:0:0:
448,192,78533,128,0,78626:0:0:0:0:
192,192,78626,128,0,78720:0:0:0:0:
320,192,78720,128,0,78814:0:0:0:0:
64,192,78814,128,0,78908:0:0:0:0:
448,192,78908,128,0,79095:0:0:0:0:
192,192,79095,128,0,79282:0:0:0:0:
448,192,79282,1,0,0:0:0:0:
320,192,79282,1,0,0:0:0:0:
64,192,79282,1,0,0:0:0:0:
192,192,79564,1,0,0:0:0:0:
448,192,79658,1,0,0:0:0:0:
320,192,79751,1,0,0:0:0:0:
64,192,79845,128,0,80033:0:0:0:0:
448,192,80033,1,0,0:0:0:0:
192,192,80033,1,0,0:0:0:0:
64,192,80220,128,0,80408:0:0:0:0:
448,192,80408,1,0,0:0:0:0:
320,192,80525,1,0,0:0:0:0:
192,192,80595,1,0,0:0:0:0:
448,192,80783,1,0,0:0:0:0:
320,192,80783,1,0,0:0:0:0:
64,192,80783,1,0,0:0:0:0:
320,192,81064,1,0,0:0:0:0:
64,192,81158,128,0,81345:0:0:0:0:
320,192,81345,1,0,0:0:0:0:
192,192,81345,1,0,0:0:0:0:
448,192,81533,1,0,0:0:0:0:
448,192,81673,1,0,0:0:0:0:
448,192,81814,1,0,0:0:0:0:
64,192,81908,1,0,0:0:0:0:
320,192,82048,1,0,0:0:0:0:
448,192,82283,1,0,0:0:0:0:
192,192,82283,1,0,0:0:0:0:
64,192,82283,1,0,0:0:0:0:
192,192,82470,1,0,0:0:0:0:
320,192,82564,1,0,0:0:0:0:
448,192,82658,1,0,0:0:0:0:
192,192,82658,1,0,0:0:0:0:
64,192,82658,1,0,0:0:0:0:
64,192,82845,1,0,0:0:0:0:
64,192,83033,128,0,83642:0:0:0:0:
320,192,83642,1,0,0:0:0:0:
320,192,83783,1,0,0:0:0:0:
192,192,83783,1,0,0:0:0:0:
64,192,83783,1,0,0:0:0:0:
448,192,84064,1,0,0:0:0:0:
320,192,84158,1,0,0:0:0:0:
192,192,84251,1,0,0:0:0:0:
448,192,84345,1,0,0:0:0:0:
64,192,84345,1,0,0:0:0:0:
320,192,84533,1,0,0:0:0:0:
192,192,84658,1,0,0:0:0:0:
192,192,84783,1,0,0:0:0:0:
192,192,84908,1,0,0:0:0:0:
320,192,85095,128,0,85282:0:0:0:0:
448,192,85282,1,0,0:0:0:0:
192,192,85282,1,0,0:0:0:0:
64,192,85282,1,0,0:0:0:0:
320,192,85470,128,0,85658:0:0:0:0:
64,192,85658,128,0,85845:0:0:0:0:
192,192,85845,128,0,86033:0:0:0:0:
448,192,86033,1,0,0:0:0:0:
320,192,86173,1,0,0:0:0:0:
320,192,86314,1,0,0:0:0:0:
448,192,86408,1,0,0:0:0:0:
192,192,86408,1,0,0:0:0:0:
64,192,86408,1,0,0:0:0:0:
64,192,86595,128,0,86782:0:0:0:0:
448,192,86782,1,0,0:0:0:0:
320,192,86782,1,0,0:0:0:0:
192,192,86782,1,0,0:0:0:0:
64,192,87064,1,0,0:0:0:0:
64,192,87251,1,0,0:0:0:0:
448,192,87345,1,0,0:0:0:0:
320,192,87345,1,0,0:0:0:0:
192,192,87533,1,0,0:0:0:0:
192,192,87673,1,0,0:0:0:0:
192,192,87814,1,0,0:0:0:0:
448,192,87908,128,0,88095:0:0:0:0:
64,192,88095,128,0,88282:0:0:0:0:
448,192,88282,1,0,0:0:0:0:
320,192,88282,1,0,0:0:0:0:
192,192,88282,1,0,0:0:0:0:
64,192,88564,1,0,0:0:0:0:
320,192,88658,1,0,0:0:0:0:
448,192,88751,1,0,0:0:0:0:
192,192,88845,128,0,89033:0:0:0:0:
320,192,89033,128,0,89220:0:0:0:0:
448,192,89220,128,0,89408:0:0:0:0:
320,192,89408,1,0,0:0:0:0:
192,192,89408,1,0,0:0:0:0:
64,192,89408,1,0,0:0:0:0:
448,192,89595,1,0,0:0:0:0:
192,192,89689,1,0,0:0:0:0:
320,192,89783,1,0,0:0:0:0:
192,192,89970,1,0,0:0:0:0:
64,192,89970,1,0,0:0:0:0:
320,192,90158,1,0,0:0:0:0:
448,192,90251,1,0,0:0:0:0:
192,192,90345,1,0,0:0:0:0:
64,192,90345,1,0,0:0:0:0:
448,192,90533,1,0,0:0:0:0:
448,192,90658,1,0,0:0:0:0:
448,192,90783,1,0,0:0:0:0:
192,192,90908,1,0,0:0:0:0:
64,192,91072,128,0,91283:0:0:0:0:
448,192,91283,1,0,0:0:0:0:
320,192,91283,1,0,0:0:0:0:
192,192,91283,1,0,0:0:0:0:
64,192,91564,1,0,0:0:0:0:
192,192,91658,1,0,0:0:0:0:
448,192,91751,1,0,0:0:0:0:
64,192,91845,1,0,0:0:0:0:
320,192,92033,1,0,0:0:0:0:
192,192,92033,1,0,0:0:0:0:
448,192,92173,1,0,0:0:0:0:
448,192,92314,128,0,92595:0:0:0:0:
64,192,92595,1,0,0:0:0:0:
448,192,92783,1,0,0:0:0:0:
320,192,92783,1,0,0:0:0:0:
192,192,92783,1,0,0:0:0:0:
64,192,92876,1,0,0:0:0:0:
320,192,93158,128,0,93345:0:0:0:0:
448,192,93345,1,0,0:0:0:0:
192,192,93345,1,0,0:0:0:0:
64,192,93533,1,0,0:0:0:0:
320,192,93626,128,0,93814:0:0:0:0:
192,192,93814,1,0,0:0:0:0:
448,192,93908,1,0,0:0:0:0:
192,192,94095,128,0,94282:0:0:0:0:
448,192,94282,1,0,0:0:0:0:
320,192,94282,1,0,0:0:0:0:
64,192,94282,1,0,0:0:0:0:
192,192,94564,1,0,0:0:0:0:
448,192,94658,1,0,0:0:0:0:
320,192,94775,1,0,0:0:0:0:
64,192,94845,1,0,0:0:0:0:
448,192,94939,1,0,0:0:0:0:
320,192,95033,1,0,0:0:0:0:
192,192,95033,1,0,0:0:0:0:
64,192,95220,1,0,0:0:0:0:
64,192,95345,1,0,0:0:0:0:
64,192,95470,1,0,0:0:0:0:
320,192,95595,1,0,0:0:0:0:
448,192,95689,1,0,0:0:0:0:
320,192,95783,1,0,0:0:0:0:
192,192,95783,1,0,0:0:0:0:
64,192,95783,1,0,0:0:0:0:
448,192,96087,1,0,0:0:0:0:
192,192,96228,1,0,0:0:0:0:
448,192,96345,1,0,0:0:0:0:
64,192,96345,1,0,0:0:0:0:
448,192,96533,1,0,0:0:0:0:
64,192,96533,1,0,0:0:0:0:
192,192,96673,1,0,0:0:0:0:
448,192,96908,1,0,0:0:0:0:
64,192,96908,1,0,0:0:0:0:
192,192,97048,1,0,0:0:0:0:
320,192,97189,1,0,0:0:0:0:
448,192,97283,1,0,0:0:0:0:
192,192,97283,1,0,0:0:0:0:
64,192,97283,1,0,0:0:0:0:
320,192,97564,1,0,0:0:0:0:
64,192,97658,1,0,0:0:0:0:
448,192,97751,1,0,0:0:0:0:
192,192,97845,128,0,98033:0:0:0:0:
320,192,98033,1,0,0:0:0:0:
64,192,98033,1,0,0:0:0:0:
448,192,98173,1,0,0:0:0:0:
64,192,98408,128,0,98595:0:0:0:0:
192,192,98595,128,0,98689:0:0:0:0:
448,192,98689,128,0,98783:0:0:0:0:
320,192,98783,1,0,0:0:0:0:
192,192,98783,1,0,0:0:0:0:
64,192,98783,1,0,0:0:0:0:
448,192,99017,1,0,0:0:0:0:
320,192,99158,128,0,99344:0:0:0:0:
448,192,99344,1,0,0:0:0:0:
192,192,99344,1,0,0:0:0:0:
64,192,99344,1,0,0:0:0:0:
320,192,99533,1,0,0:0:0:0:
320,192,99674,1,0,0:0:0:0:
320,192,99814,1,0,0:0:0:0:
192,192,99908,1,0,0:0:0:0:
64,192,100096,128,0,100284:0:0:0:0:
192,192,100284,1,0,0:0:0:0:
320,192,100284,1,0,0:0:0:0:
448,192,100284,1,0,0:0:0:0:
64,192,100565,1,0,0:0:0:0:
320,192,100659,128,0,101034:0:0:0:0:
64,192,101034,128,0,101221:0:0:0:0:
448,192,101221,128,0,101409:0:0:0:0:
64,192,101409,1,0,0:0:0:0:
320,192,101409,1,0,0:0:0:0:
192,192,101534,1,0,0:0:0:0:
320,192,101659,1,0,0:0:0:0:
64,192,101784,1,0,0:0:0:0:
192,192,101784,1,0,0:0:0:0:
448,192,101784,1,0,0:0:0:0:
320,192,102041,1,0,0:0:0:0:
64,192,102159,1,0,0:0:0:0:
64,192,102284,1,0,0:0:0:0:
320,192,102346,1,0,0:0:0:0:
448,192,102346,1,0,0:0:0:0:
192,192,102534,128,0,102627:0:0:0:0:
64,192,102627,128,0,102721:0:0:0:0:
448,192,102721,128,0,102815:0:0:0:0:
320,192,102815,128,0,102909:0:0:0:0:
64,192,102909,128,0,103096:0:0:0:0:
192,192,103096,128,0,103284:0:0:0:0:
64,192,103284,1,0,0:0:0:0:
320,192,103284,1,0,0:0:0:0:
448,192,103284,1,0,0:0:0:0:
192,192,103565,1,0,0:0:0:0:
448,192,103659,1,0,0:0:0:0:
64,192,103752,1,0,0:0:0:0:
320,192,103846,128,0,104034:0:0:0:0:
64,192,104034,1,0,0:0:0:0:
192,192,104034,1,0,0:0:0:0:
448,192,104221,128,0,104409:0:0:0:0:
64,192,104409,1,0,0:0:0:0:
64,192,104526,1,0,0:0:0:0:
320,192,104596,1,0,0:0:0:0:
64,192,104784,1,0,0:0:0:0:
192,192,104784,1,0,0:0:0:0:
448,192,104784,1,0,0:0:0:0:
448,192,105034,128,0,105159:0:0:0:0:
64,192,105159,1,0,0:0:0:0:
192,192,105346,1,0,0:0:0:0:
320,192,105346,1,0,0:0:0:0:
448,192,105534,1,0,0:0:0:0:
448,192,105674,1,0,0:0:0:0:
448,192,105815,1,0,0:0:0:0:
192,192,105909,1,0,0:0:0:0:
64,192,106096,128,0,106284:0:0:0:0:
192,192,106284,1,0,0:0:0:0:
320,192,106284,1,0,0:0:0:0:
448,192,106284,1,0,0:0:0:0:
192,192,106659,1,0,0:0:0:0:
320,192,106659,1,0,0:0:0:0:
448,192,106659,1,0,0:0:0:0:
448,192,106846,1,0,0:0:0:0:
64,192,107034,1,0,0:0:0:0:
192,192,107034,1,0,0:0:0:0:
320,192,107409,1,0,0:0:0:0:
64,192,107784,1,0,0:0:0:0:
448,192,107784,1,0,0:0:0:0:
320,192,107971,1,0,0:0:0:0:
192,192,108065,1,0,0:0:0:0:
64,192,108159,1,0,0:0:0:0:
448,192,108252,1,0,0:0:0:0:
192,192,108346,1,0,0:0:0:0:
320,192,108346,1,0,0:0:0:0:
64,192,108909,1,0,0:0:0:0:
320,192,109284,1,0,0:0:0:0:
448,192,109284,1,0,0:0:0:0:
192,192,109471,1,0,0:0:0:0:
320,192,109565,1,0,0:0:0:0:
448,192,109659,1,0,0:0:0:0:
64,192,109752,1,0,0:0:0:0:
192,192,110034,1,0,0:0:0:0:
448,192,110034,1,0,0:0:0:0:
192,192,110409,1,0,0:0:0:0:
320,192,110409,1,0,0:0:0:0:
64,192,110784,1,0,0:0:0:0:
448,192,110784,1,0,0:0:0:0:
320,192,110971,1,0,0:0:0:0:
192,192,111065,1,0,0:0:0:0:
64,192,111159,1,0,0:0:0:0:
320,192,111159,1,0,0:0:0:0:
448,192,111252,1,0,0:0:0:0:
64,192,111534,1,0,0:0:0:0:
192,192,111534,1,0,0:0:0:0:
448,192,111909,1,0,0:0:0:0:
192,192,112284,1,0,0:0:0:0:
320,192,112284,1,0,0:0:0:0:
64,192,112471,1,0,0:0:0:0:
192,192,112565,1,0,0:0:0:0:
448,192,112659,1,0,0:0:0:0:
320,192,112752,1,0,0:0:0:0:
64,192,113409,1,0,0:0:0:0:
192,192,113409,1,0,0:0:0:0:
320,192,113502,1,0,0:0:0:0:
448,192,113596,1,0,0:0:0:0:
192,192,113784,1,0,0:0:0:0:
320,192,113784,1,0,0:0:0:0:
448,192,113971,1,0,0:0:0:0:
64,192,114159,1,0,0:0:0:0:
320,192,114252,1,0,0:0:0:0:
448,192,114346,1,0,0:0:0:0:
64,192,114534,128,0,116034:0:0:0:0:
320,192,114534,1,0,0:0:0:0:
448,192,116034,1,0,0:0:0:0:
192,192,116034,128,0,117534:0:0:0:0:
320,192,116784,1,0,0:0:0:0:
448,192,116784,1,0,0:0:0:0:
64,192,117534,128,0,118659:0:0:0:0:
448,192,117534,1,0,0:0:0:0:
320,192,118659,128,0,119034:0:0:0:0:
448,192,118659,1,0,0:0:0:0:
192,192,119034,1,0,0:0:0:0:
448,192,119034,1,0,0:0:0:0:
64,192,119221,128,0,119784:0:0:0:0:
192,192,119784,1,0,0:0:0:0:
320,192,119784,1,0,0:0:0:0:
448,192,119784,1,0,0:0:0:0:
64,192,120065,1,0,0:0:0:0:
448,192,120159,1,0,0:0:0:0:
192,192,120252,1,0,0:0:0:0:
64,192,120346,1,0,0:0:0:0:
320,192,120346,1,0,0:0:0:0:
448,192,120534,1,0,0:0:0:0:
448,192,120659,1,0,0:0:0:0:
192,192,120784,1,0,0:0:0:0:
192,192,120909,1,0,0:0:0:0:
320,192,121034,1,0,0:0:0:0:
320,192,121159,1,0,0:0:0:0:
64,192,121284,1,0,0:0:0:0:
192,192,121284,1,0,0:0:0:0:
448,192,121284,1,0,0:0:0:0:
320,192,121471,128,0,121659:0:0:0:0:
64,192,121659,128,0,121846:0:0:0:0:
192,192,121846,128,0,122034:0:0:0:0:
320,192,122034,1,0,0:0:0:0:
448,192,122034,1,0,0:0:0:0:
448,192,122221,1,0,0:0:0:0:
64,192,122409,1,0,0:0:0:0:
192,192,122409,1,0,0:0:0:0:
320,192,122409,1,0,0:0:0:0:
320,192,122596,128,0,122783:0:0:0:0:
64,192,122784,1,0,0:0:0:0:
448,192,122784,1,0,0:0:0:0:
192,192,122784,1,0,0:0:0:0:
320,192,123041,1,0,0:0:0:0:
320,192,123182,1,0,0:0:0:0:
320,192,123299,1,0,0:0:0:0:
64,192,123346,1,0,0:0:0:0:
192,192,123346,1,0,0:0:0:0:
448,192,123534,1,0,0:0:0:0:
448,192,123674,1,0,0:0:0:0:
448,192,123815,1,0,0:0:0:0:
64,192,123909,1,0,0:0:0:0:
320,192,124096,128,0,124284:0:0:0:0:
64,192,124284,1,0,0:0:0:0:
192,192,124284,1,0,0:0:0:0:
448,192,124284,1,0,0:0:0:0:
320,192,124518,1,0,0:0:0:0:
320,192,124635,1,0,0:0:0:0:
320,192,124752,1,0,0:0:0:0:
64,192,124846,1,0,0:0:0:0:
192,192,125034,128,0,125127:0:0:0:0:
320,192,125127,128,0,125221:0:0:0:0:
448,192,125221,128,0,125315:0:0:0:0:
64,192,125315,128,0,125409:0:0:0:0:
192,192,125409,1,0,0:0:0:0:
320,192,125409,1,0,0:0:0:0:
448,192,125596,1,0,0:0:0:0:
64,192,125690,128,0,125784:0:0:0:0:
320,192,125784,128,0,125877:0:0:0:0:
192,192,125877,128,0,125971:0:0:0:0:
64,192,125971,1,0,0:0:0:0:
448,192,125971,1,0,0:0:0:0:
320,192,126159,1,0,0:0:0:0:
448,192,126252,1,0,0:0:0:0:
64,192,126346,1,0,0:0:0:0:
192,192,126346,1,0,0:0:0:0:
448,192,126534,1,0,0:0:0:0:
448,192,126659,1,0,0:0:0:0:
448,192,126784,1,0,0:0:0:0:
192,192,126909,1,0,0:0:0:0:
448,192,127096,128,0,127284:0:0:0:0:
64,192,127284,1,0,0:0:0:0:
192,192,127284,1,0,0:0:0:0:
320,192,127284,1,0,0:0:0:0:
448,192,127565,1,0,0:0:0:0:
320,192,127659,1,0,0:0:0:0:
192,192,127752,1,0,0:0:0:0:
64,192,127846,1,0,0:0:0:0:
192,192,128034,1,0,0:0:0:0:
448,192,128034,1,0,0:0:0:0:
192,192,128174,1,0,0:0:0:0:
192,192,128315,1,0,0:0:0:0:
448,192,128596,1,0,0:0:0:0:
64,192,128690,1,0,0:0:0:0:
192,192,128784,1,0,0:0:0:0:
320,192,128784,1,0,0:0:0:0:
448,192,128784,1,0,0:0:0:0:
64,192,129065,1,0,0:0:0:0:
320,192,129159,128,0,129346:0:0:0:0:
64,192,129346,1,0,0:0:0:0:
192,192,129346,1,0,0:0:0:0:
448,192,129534,128,0,129721:0:0:0:0:
192,192,129721,128,0,129909:0:0:0:0:
320,192,129909,128,0,130096:0:0:0:0:
64,192,130096,128,0,130284:0:0:0:0:
192,192,130284,1,0,0:0:0:0:
320,192,130284,1,0,0:0:0:0:
448,192,130284,1,0,0:0:0:0:
64,192,130565,1,0,0:0:0:0:
320,192,130659,128,0,131034:0:0:0:0:
64,192,131034,1,0,0:0:0:0:
448,192,131034,1,0,0:0:0:0:
192,192,131221,1,0,0:0:0:0:
192,192,131346,1,0,0:0:0:0:
192,192,131471,1,0,0:0:0:0:
448,192,131596,128,0,131784:0:0:0:0:
64,192,131784,1,0,0:0:0:0:
192,192,131784,1,0,0:0:0:0:
320,192,131784,1,0,0:0:0:0:
448,192,132065,1,0,0:0:0:0:
64,192,132159,128,0,132346:0:0:0:0:
192,192,132346,1,0,0:0:0:0:
448,192,132346,1,0,0:0:0:0:
320,192,132534,128,0,132784:0:0:0:0:
192,192,132784,1,0,0:0:0:0:
192,192,132909,1,0,0:0:0:0:
192,192,133034,1,0,0:0:0:0:
64,192,133284,1,0,0:0:0:0:
192,192,133284,1,0,0:0:0:0:
448,192,133284,1,0,0:0:0:0:
320,192,133565,1,0,0:0:0:0:
192,192,133659,1,0,0:0:0:0:
64,192,133752,1,0,0:0:0:0:
320,192,133846,1,0,0:0:0:0:
64,192,134034,1,0,0:0:0:0:
448,192,134034,1,0,0:0:0:0:
192,192,134127,128,0,134221:0:0:0:0:
320,192,134221,128,0,134315:0:0:0:0:
448,192,134315,128,0,134409:0:0:0:0:
192,192,134409,128,0,134502:0:0:0:0:
320,192,134502,128,0,134596:0:0:0:0:
192,192,134596,128,0,134690:0:0:0:0:
64,192,134690,128,0,134784:0:0:0:0:
192,192,134784,1,0,0:0:0:0:
320,192,134784,1,0,0:0:0:0:
448,192,134784,1,0,0:0:0:0:
64,192,135065,1,0,0:0:0:0:
448,192,135159,128,0,135346:0:0:0:0:
64,192,135346,1,0,0:0:0:0:
192,192,135346,1,0,0:0:0:0:
320,192,135346,1,0,0:0:0:0:
448,192,135534,1,0,0:0:0:0:
448,192,135675,1,0,0:0:0:0:
448,192,135815,1,0,0:0:0:0:
64,192,135909,128,0,136097:0:0:0:0:
192,192,136097,128,0,136284:0:0:0:0:
448,192,136284,1,0,0:0:0:0:
320,192,136284,1,0,0:0:0:0:
64,192,136284,1,0,0:0:0:0:
192,192,136566,1,0,0:0:0:0:
448,192,136660,128,0,137035:0:0:0:0:
192,192,137035,1,0,0:0:0:0:
64,192,137410,1,0,0:0:0:0:
448,192,137410,1,0,0:0:0:0:
320,192,137535,1,0,0:0:0:0:
64,192,137785,1,0,0:0:0:0:
192,192,137785,1,0,0:0:0:0:
448,192,137785,1,0,0:0:0:0:
320,192,138035,1,0,0:0:0:0:
320,192,138160,1,0,0:0:0:0:
320,192,138277,1,0,0:0:0:0:
64,192,138347,1,0,0:0:0:0:
192,192,138347,1,0,0:0:0:0:
448,192,138535,128,0,138628:0:0:0:0:
320,192,138628,128,0,138722:0:0:0:0:
64,192,138722,128,0,138816:0:0:0:0:
192,192,138816,128,0,138910:0:0:0:0:
448,192,138910,128,0,139097:0:0:0:0:
64,192,139097,128,0,139285:0:0:0:0:
192,192,139285,1,0,0:0:0:0:
320,192,139285,1,0,0:0:0:0:
448,192,139285,1,0,0:0:0:0:
64,192,139566,1,0,0:0:0:0:
192,192,139660,1,0,0:0:0:0:
448,192,139753,1,0,0:0:0:0:
320,192,139847,128,0,140035:0:0:0:0:
192,192,140035,1,0,0:0:0:0:
448,192,140222,128,0,140410:0:0:0:0:
64,192,140410,1,0,0:0:0:0:
64,192,140527,1,0,0:0:0:0:
320,192,140597,1,0,0:0:0:0:
64,192,140785,1,0,0:0:0:0:
192,192,140785,1,0,0:0:0:0:
448,192,140785,1,0,0:0:0:0:
320,192,141035,1,0,0:0:0:0:
64,192,141160,128,0,141347:0:0:0:0:
448,192,141347,1,0,0:0:0:0:
192,192,141347,1,0,0:0:0:0:
320,192,141535,1,0,0:0:0:0:
320,192,141675,1,0,0:0:0:0:
320,192,141816,1,0,0:0:0:0:
192,192,141910,1,0,0:0:0:0:
64,192,142097,128,0,142285:0:0:0:0:
192,192,142285,1,0,0:0:0:0:
320,192,142285,1,0,0:0:0:0:
448,192,142285,1,0,0:0:0:0:
64,192,142472,1,0,0:0:0:0:
192,192,142566,1,0,0:0:0:0:
64,192,142660,1,0,0:0:0:0:
320,192,142660,1,0,0:0:0:0:
448,192,142660,1,0,0:0:0:0:
448,192,142847,1,0,0:0:0:0:
64,192,143035,1,0,0:0:0:0:
