osu file format v14

[General]
AudioFilename: audio.mp3
AudioLeadIn: 0
PreviewTime: 46130
Countdown: 0
SampleSet: Normal
StackLeniency: 0.7
Mode: 1
LetterboxInBreaks: 0
WidescreenStoryboard: 0

[Editor]
Bookmarks: 97,14284,30835,47387,66303,82855,100293,105906,122269
DistanceSpacing: 1.8
BeatDivisor: 4
GridSize: 32
TimelineZoom: 3.080001

[Metadata]
Title:Amen Iraq
TitleUnicode:Amen Iraq
Artist:The Flashbulb
ArtistUnicode:The Flashbulb
Creator:Kqrth
Version:Tenebrae
Source:osu!
Tags:electronic instrumental nifty mappers' guild fa featured artist benn jordan flexing habitual breakcore
BeatmapID:2022517
BeatmapSetID:966251

[Difficulty]
HPDrainRate:4
CircleSize:5
OverallDifficulty:7.5
ApproachRate:5
SliderMultiplier:1.4
SliderTickRate:1

[Events]
//Background and Video events
0,0,"bg.jpg",0,20
//Break Periods
//Storyboard Layer 0 (Background)
//Storyboard Layer 1 (Fail)
//Storyboard Layer 2 (Pass)
//Storyboard Layer 3 (Foreground)
//Storyboard Layer 4 (Overlay)
//Storyboard Sound Samples

[TimingPoints]
97,295.566502463054,4,1,0,50,1,0
97,-142.857142857143,4,1,0,50,0,0
13028,-142.857142857143,4,1,0,70,0,0
14210,-100,4,1,0,70,0,0
14284,-100,4,1,0,70,0,1
15466,295.566502463054,6,1,0,70,1,1
18421,295.566502463054,4,1,0,70,1,9
18422,295.566502463054,4,1,0,70,1,1
19604,295.566502463054,6,1,0,70,1,1
22559,295.566502463054,4,1,0,70,1,9
22560,295.566502463054,4,1,0,70,1,1
23742,295.566502463054,6,1,0,70,1,1
26697,295.566502463054,4,1,0,70,1,1
27879,295.566502463054,4,1,0,70,1,9
27880,295.566502463054,6,1,0,70,1,1
30835,295.566502463054,4,1,0,70,1,0
30835,-100,4,1,0,70,0,0
31057,-111.111111111111,4,1,0,70,0,0
32017,295.566502463054,4,1,0,70,1,8
32018,295.566502463054,6,1,0,70,1,0
32018,-111.111111111111,4,1,0,70,0,0
34973,295.566502463054,4,1,0,70,1,0
34973,-111.111111111111,4,1,0,70,0,0
36155,295.566502463054,4,1,0,70,1,8
36156,295.566502463054,6,1,0,70,1,0
36156,-111.111111111111,4,1,0,70,0,0
39111,295.566502463054,4,1,0,70,1,0
39111,-111.111111111111,4,1,0,70,0,0
40293,295.566502463054,4,1,0,70,1,8
40294,295.566502463054,6,1,0,70,1,0
40294,-111.111111111111,4,1,0,70,0,0
43249,295.566502463054,4,1,0,70,1,0
43249,-111.111111111111,4,1,0,70,0,0
44431,295.566502463054,6,1,0,70,1,0
44431,-111.111111111111,4,1,0,70,0,0
47313,-90.9090909090908,6,1,0,70,0,0
47386,295.566502463054,4,1,0,70,1,8
47387,295.566502463054,4,1,0,70,1,1
47387,-90.9090909090908,4,1,0,70,0,1
66303,-90.9090909090908,4,1,0,70,0,0
66525,-100,4,1,0,70,0,0
67485,295.566502463054,4,1,0,70,1,8
67486,295.566502463054,6,1,0,70,1,0
70441,295.566502463054,4,1,0,70,1,0
71623,295.566502463054,4,1,0,70,1,8
71624,295.566502463054,6,1,0,70,1,0
74579,295.566502463054,4,1,0,70,1,0
75761,295.566502463054,4,1,0,70,1,8
75762,295.566502463054,6,1,0,70,1,0
78717,295.566502463054,4,1,0,70,1,0
79899,295.566502463054,6,1,0,70,1,0
82781,-83.3333333333333,6,1,0,70,0,0
82854,295.566502463054,4,1,0,70,1,8
82855,295.566502463054,4,1,0,70,1,1
82855,-83.3333333333333,4,1,0,70,0,1
100293,-83.3333333333333,4,1,0,70,0,0
100367,-100,4,1,0,5,0,0
100588,295.566502463054,18,1,0,5,1,8
102880,-100,7,1,0,20,0,0
104060,-500,7,1,0,10,0,0
105835,-100,4,1,0,70,0,0
105908,295.566502463054,4,1,0,70,1,8
105909,272.727272727273,7,1,0,70,1,0
105909,-83.3333333333333,4,1,0,70,0,0
113545,272.727272727273,8,1,0,70,1,0
113545,-83.3333333333333,4,1,0,70,0,0
117363,272.727272727273,7,1,0,70,1,0
117363,-83.3333333333333,4,1,0,70,0,0
122203,-166.666666666667,4,1,0,70,0,0
122272,545.454545454546,4,1,0,70,1,0
122272,-83.3333333333333,4,1,0,70,0,0

[HitObjects]
256,192,13101,5,0,0:0:0:0:
256,192,13397,1,0,0:0:0:0:
256,192,13693,1,0,0:0:0:0:
256,192,13988,1,8,0:0:0:0:
256,192,14025,1,8,0:0:0:0:
256,192,14284,1,4,0:0:0:0:
256,192,14431,1,0,0:0:0:0:
256,192,14579,1,8,0:0:0:0:
256,192,14727,1,0,0:0:0:0:
256,192,14801,1,8,0:0:0:0:
256,192,14875,1,0,0:0:0:0:
256,192,14949,1,0,0:0:0:0:
256,192,15023,1,8,0:0:0:0:
256,192,15096,1,0,0:0:0:0:
256,192,15170,1,8,0:0:0:0:
256,192,15244,1,8,0:0:0:0:
256,192,15318,1,0,0:0:0:0:
256,192,15392,1,8,0:0:0:0:
256,192,15466,1,0,0:0:0:0:
256,192,15613,1,0,0:0:0:0:
256,192,15687,1,8,0:0:0:0:
256,192,15761,1,0,0:0:0:0:
256,192,15835,1,0,0:0:0:0:
256,192,15909,1,8,0:0:0:0:
256,192,16057,1,8,0:0:0:0:
256,192,16204,1,0,0:0:0:0:
256,192,16278,1,8,0:0:0:0:
256,192,16352,1,0,0:0:0:0:
256,192,16426,1,0,0:0:0:0:
256,192,16475,1,8,0:0:0:0:
256,192,16525,1,8,0:0:0:0:
256,192,16574,1,8,0:0:0:0:
256,192,16648,1,0,0:0:0:0:
256,192,16796,1,0,0:0:0:0:
256,192,16943,1,8,0:0:0:0:
256,192,17091,1,8,0:0:0:0:
256,192,17165,1,0,0:0:0:0:
256,192,17239,1,0,0:0:0:0:
256,192,17387,1,8,0:0:0:0:
256,192,17461,1,8,0:0:0:0:
256,192,17534,1,0,0:0:0:0:
256,192,17682,1,8,0:0:0:0:
256,192,17756,1,8,0:0:0:0:
256,192,17830,1,0,0:0:0:0:
256,192,17978,1,8,0:0:0:0:
256,192,18052,1,8,0:0:0:0:
256,192,18126,1,0,0:0:0:0:
256,192,18163,1,0,0:0:0:0:
256,192,18199,1,0,0:0:0:0:
256,192,18273,1,8,0:0:0:0:
256,192,18310,1,8,0:0:0:0:
256,192,18347,1,8,0:0:0:0:
256,192,18422,1,0,0:0:0:0:
256,192,18569,1,0,0:0:0:0:
256,192,18717,1,8,0:0:0:0:
256,192,18865,1,0,0:0:0:0:
256,192,18939,1,8,0:0:0:0:
256,192,19013,1,0,0:0:0:0:
256,192,19087,1,8,0:0:0:0:
256,192,19160,1,0,0:0:0:0:
256,192,19234,1,0,0:0:0:0:
256,192,19308,1,8,0:0:0:0:
256,192,19357,1,8,0:0:0:0:
256,192,19407,1,8,0:0:0:0:
256,192,19456,1,8,0:0:0:0:
256,192,19505,1,8,0:0:0:0:
256,192,19604,1,0,0:0:0:0:
256,192,19751,1,0,0:0:0:0:
256,192,19899,1,0,0:0:0:0:
256,192,19973,1,0,0:0:0:0:
256,192,20047,1,8,0:0:0:0:
256,192,20195,1,8,0:0:0:0:
256,192,20269,1,0,0:0:0:0:
256,192,20342,1,8,0:0:0:0:
256,192,20490,1,0,0:0:0:0:
256,192,20564,1,0,0:0:0:0:
256,192,20638,1,8,0:0:0:0:
256,192,20712,1,8,0:0:0:0:
256,192,20786,1,0,0:0:0:0:
256,192,20860,1,8,0:0:0:0:
256,192,20934,1,0,0:0:0:0:
256,192,21007,1,0,0:0:0:0:
256,192,21081,1,8,0:0:0:0:
256,192,21229,1,8,0:0:0:0:
256,192,21377,1,0,0:0:0:0:
256,192,21525,1,8,0:0:0:0:
256,192,21599,1,8,0:0:0:0:
256,192,21672,1,0,0:0:0:0:
256,192,21820,1,8,0:0:0:0:
256,192,21894,1,8,0:0:0:0:
256,192,21968,1,0,0:0:0:0:
256,192,22116,1,8,0:0:0:0:
256,192,22190,1,0,0:0:0:0:
256,192,22264,1,8,0:0:0:0:
256,192,22411,1,8,0:0:0:0:
256,192,22560,1,0,0:0:0:0:
256,192,22707,1,0,0:0:0:0:
256,192,22781,1,0,0:0:0:0:
256,192,22855,1,8,0:0:0:0:
256,192,22904,1,8,0:0:0:0:
256,192,22954,1,8,0:0:0:0:
256,192,23003,1,0,0:0:0:0:
256,192,23077,1,8,0:0:0:0:
256,192,23151,1,0,0:0:0:0:
256,192,23225,1,8,0:0:0:0:
256,192,23298,1,0,0:0:0:0:
256,192,23372,1,0,0:0:0:0:
256,192,23446,1,8,0:0:0:0:
256,192,23594,1,8,0:0:0:0:
256,192,23668,1,8,0:0:0:0:
256,192,23742,1,0,0:0:0:0:
256,192,23889,1,0,0:0:0:0:
256,192,23963,1,8,0:0:0:0:
256,192,24037,1,0,0:0:0:0:
256,192,24111,1,0,0:0:0:0:
256,192,24185,1,8,0:0:0:0:
256,192,24333,1,8,0:0:0:0:
256,192,24480,1,8,0:0:0:0:
256,192,24554,1,8,0:0:0:0:
256,192,24628,1,0,0:0:0:0:
256,192,24702,1,8,0:0:0:0:
256,192,24776,1,8,0:0:0:0:
256,192,24850,1,8,0:0:0:0:
256,192,24924,1,0,0:0:0:0:
256,192,24998,1,0,0:0:0:0:
256,192,25072,1,0,0:0:0:0:
256,192,25145,1,0,0:0:0:0:
256,192,25219,1,8,0:0:0:0:
256,192,25367,1,0,0:0:0:0:
256,192,25416,1,8,0:0:0:0:
256,192,25466,1,8,0:0:0:0:
256,192,25515,1,0,0:0:0:0:
256,192,25810,1,0,0:0:0:0:
256,192,26106,1,0,0:0:0:0:
256,192,26402,1,8,0:0:0:0:
256,192,26697,1,0,0:0:0:0:
256,192,26844,1,0,0:0:0:0:
256,192,26918,1,0,0:0:0:0:
256,192,26992,1,8,0:0:0:0:
256,192,27140,1,0,0:0:0:0:
256,192,27214,1,8,0:0:0:0:
256,192,27288,1,0,0:0:0:0:
256,192,27362,1,8,0:0:0:0:
256,192,27435,1,8,0:0:0:0:
256,192,27583,1,0,0:0:0:0:
256,192,27657,1,8,0:0:0:0:
256,192,27731,1,0,0:0:0:0:
256,192,27805,1,8,0:0:0:0:
256,192,27880,1,0,0:0:0:0:
256,192,28027,1,0,0:0:0:0:
256,192,28175,1,8,0:0:0:0:
256,192,28323,1,0,0:0:0:0:
256,192,28397,1,8,0:0:0:0:
256,192,28471,1,0,0:0:0:0:
256,192,28545,1,0,0:0:0:0:
256,192,28618,1,8,0:0:0:0:
256,192,28766,1,8,0:0:0:0:
256,192,28914,1,8,0:0:0:0:
256,192,29062,1,0,0:0:0:0:
256,192,29136,1,8,0:0:0:0:
256,192,29210,1,0,0:0:0:0:
256,192,29283,1,8,0:0:0:0:
256,192,29357,1,8,0:0:0:0:
256,192,29505,1,8,0:0:0:0:
256,192,29604,1,8,0:0:0:0:
256,192,29653,1,0,0:0:0:0:
256,192,29948,1,0,0:0:0:0:
256,192,30244,1,0,0:0:0:0:
256,192,30540,1,8,0:0:0:0:
256,192,30835,1,4,0:0:0:0:
256,192,31130,1,8,0:0:0:0:
256,192,31278,1,0,0:0:0:0:
256,192,31352,1,8,0:0:0:0:
256,192,31426,1,0,0:0:0:0:
256,192,31500,1,8,0:0:0:0:
256,192,31573,1,8,0:0:0:0:
256,192,31721,1,0,0:0:0:0:
256,192,31795,1,8,0:0:0:0:
256,192,31869,1,0,0:0:0:0:
256,192,31943,1,8,0:0:0:0:
256,192,32018,1,0,0:0:0:0:
256,192,32165,1,0,0:0:0:0:
256,192,32313,1,8,0:0:0:0:
256,192,32461,1,0,0:0:0:0:
256,192,32535,1,8,0:0:0:0:
256,192,32609,1,0,0:0:0:0:
256,192,32683,1,0,0:0:0:0:
256,192,32756,1,8,0:0:0:0:
256,192,32904,1,8,0:0:0:0:
256,192,32978,1,8,0:0:0:0:
256,192,33052,1,0,0:0:0:0:
256,192,33126,1,0,0:0:0:0:
256,192,33200,1,0,0:0:0:0:
256,192,33348,1,0,0:0:0:0:
256,192,33495,1,8,0:0:0:0:
256,192,33643,1,8,0:0:0:0:
256,192,33717,1,8,0:0:0:0:
256,192,33791,1,0,0:0:0:0:
256,192,34086,1,0,0:0:0:0:
256,192,34382,1,0,0:0:0:0:
256,192,34678,1,8,0:0:0:0:
256,192,34825,1,8,0:0:0:0:
256,192,34973,1,0,0:0:0:0:
256,192,35268,1,8,0:0:0:0:
256,192,35416,1,0,0:0:0:0:
256,192,35490,1,8,0:0:0:0:
256,192,35564,1,0,0:0:0:0:
256,192,35638,1,0,0:0:0:0:
256,192,35711,1,8,0:0:0:0:
256,192,35859,1,8,0:0:0:0:
256,192,35933,1,8,0:0:0:0:
256,192,36007,1,8,0:0:0:0:
256,192,36081,1,8,0:0:0:0:
256,192,36156,1,0,0:0:0:0:
256,192,36303,1,0,0:0:0:0:
256,192,36451,1,8,0:0:0:0:
256,192,36599,1,0,0:0:0:0:
256,192,36673,1,8,0:0:0:0:
256,192,36747,1,0,0:0:0:0:
256,192,36821,1,0,0:0:0:0:
256,192,36894,1,8,0:0:0:0:
256,192,36944,1,8,0:0:0:0:
256,192,36993,1,8,0:0:0:0:
256,192,37042,1,0,0:0:0:0:
256,192,37116,1,8,0:0:0:0:
256,192,37190,1,0,0:0:0:0:
256,192,37264,1,0,0:0:0:0:
256,192,37338,1,0,0:0:0:0:
256,192,37486,1,0,0:0:0:0:
256,192,37633,1,8,0:0:0:0:
256,192,37683,1,8,0:0:0:0:
256,192,37732,1,0,0:0:0:0:
256,192,37781,1,0,0:0:0:0:
256,192,37929,1,0,0:0:0:0:
256,192,38224,1,0,0:0:0:0:
256,192,38520,1,0,0:0:0:0:
256,192,38816,1,8,0:0:0:0:
256,192,38963,1,8,0:0:0:0:
256,192,39013,1,8,0:0:0:0:
256,192,39062,1,8,0:0:0:0:
256,192,39111,1,0,0:0:0:0:
256,192,39258,1,0,0:0:0:0:
256,192,39406,1,8,0:0:0:0:
256,192,39554,1,0,0:0:0:0:
256,192,39628,1,8,0:0:0:0:
256,192,39702,1,0,0:0:0:0:
256,192,39776,1,0,0:0:0:0:
256,192,39849,1,8,0:0:0:0:
256,192,39997,1,0,0:0:0:0:
256,192,40071,1,0,0:0:0:0:
256,192,40145,1,8,0:0:0:0:
256,192,40194,1,8,0:0:0:0:
256,192,40294,1,0,0:0:0:0:
256,192,40367,1,0,0:0:0:0:
256,192,40441,1,8,0:0:0:0:
256,192,40478,1,8,0:0:0:0:
256,192,40515,1,8,0:0:0:0:
256,192,40589,1,8,0:0:0:0:
256,192,40737,1,0,0:0:0:0:
256,192,40811,1,8,0:0:0:0:
256,192,40885,1,0,0:0:0:0:
256,192,40959,1,0,0:0:0:0:
256,192,41032,1,8,0:0:0:0:
256,192,41180,1,0,0:0:0:0:
256,192,41254,1,8,0:0:0:0:
256,192,41328,1,8,0:0:0:0:
256,192,41402,1,0,0:0:0:0:
256,192,41476,1,8,0:0:0:0:
256,192,41624,1,8,0:0:0:0:
256,192,41771,1,8,0:0:0:0:
256,192,41919,1,8,0:0:0:0:
256,192,41968,1,8,0:0:0:0:
256,192,42018,1,8,0:0:0:0:
256,192,42067,1,0,0:0:0:0:
256,192,42362,1,0,0:0:0:0:
256,192,42658,1,0,0:0:0:0:
256,192,42732,1,0,0:0:0:0:
256,192,42954,1,8,0:0:0:0:
256,192,43249,1,0,0:0:0:0:
256,192,43396,1,0,0:0:0:0:
256,192,43544,1,8,0:0:0:0:
256,192,43692,1,0,0:0:0:0:
256,192,43766,1,0,0:0:0:0:
256,192,43840,1,8,0:0:0:0:
256,192,43987,1,0,0:0:0:0:
256,192,44061,1,0,0:0:0:0:
256,192,44135,1,0,0:0:0:0:
256,192,44209,1,0,0:0:0:0:
256,192,44283,1,8,0:0:0:0:
256,192,44431,1,0,0:0:0:0:
256,192,44578,1,0,0:0:0:0:
256,192,44726,1,8,0:0:0:0:
256,192,44874,1,0,0:0:0:0:
256,192,44948,1,0,0:0:0:0:
256,192,45022,1,8,0:0:0:0:
256,192,45169,1,0,0:0:0:0:
256,192,45243,1,0,0:0:0:0:
256,192,45317,1,0,0:0:0:0:
256,192,45391,1,0,0:0:0:0:
256,192,45465,1,8,0:0:0:0:
256,192,45613,1,0,0:0:0:0:
256,192,46204,5,0,0:0:0:0:
256,192,46499,1,0,0:0:0:0:
256,192,46795,1,0,0:0:0:0:
256,192,47091,1,8,0:0:0:0:
256,192,47387,1,4,0:0:0:0:
256,192,47682,1,8,0:0:0:0:
256,192,47830,1,0,0:0:0:0:
256,192,47904,1,8,0:0:0:0:
256,192,47978,1,0,0:0:0:0:
256,192,48052,1,8,0:0:0:0:
256,192,48125,1,8,0:0:0:0:
256,192,48273,1,0,0:0:0:0:
256,192,48347,1,8,0:0:0:0:
256,192,48421,1,0,0:0:0:0:
256,192,48495,1,8,0:0:0:0:
256,192,48569,1,0,0:0:0:0:
256,192,48717,1,0,0:0:0:0:
256,192,48864,1,8,0:0:0:0:
256,192,49012,1,0,0:0:0:0:
256,192,49086,1,8,0:0:0:0:
256,192,49160,1,0,0:0:0:0:
256,192,49234,1,0,0:0:0:0:
256,192,49308,1,8,0:0:0:0:
256,192,49455,1,8,0:0:0:0:
256,192,49529,1,8,0:0:0:0:
256,192,49603,1,8,0:0:0:0:
256,192,49751,1,0,0:0:0:0:
256,192,49899,1,0,0:0:0:0:
256,192,50047,1,8,0:0:0:0:
256,192,50194,1,0,0:0:0:0:
256,192,50268,1,8,0:0:0:0:
256,192,50342,1,0,0:0:0:0:
256,192,50490,1,8,0:0:0:0:
256,192,50539,1,8,0:0:0:0:
256,192,50588,1,8,0:0:0:0:
256,192,50638,1,8,0:0:0:0:
256,192,50786,1,8,0:0:0:0:
256,192,50822,1,8,0:0:0:0:
256,192,50859,1,8,0:0:0:0:
256,192,50933,1,0,0:0:0:0:
256,192,51229,1,0,0:0:0:0:
256,192,51524,1,0,0:0:0:0:
256,192,51820,1,8,0:0:0:0:
256,192,51968,1,8,0:0:0:0:
256,192,52116,1,4,0:0:0:0:
256,192,52411,1,8,0:0:0:0:
256,192,52559,1,8,0:0:0:0:
256,192,52633,1,8,0:0:0:0:
256,192,52707,1,0,0:0:0:0:
256,192,52781,1,8,0:0:0:0:
256,192,52854,1,0,0:0:0:0:
256,192,52928,1,0,0:0:0:0:
256,192,53002,1,8,0:0:0:0:
256,192,53039,1,8,0:0:0:0:
256,192,53076,1,8,0:0:0:0:
256,192,53150,1,0,0:0:0:0:
256,192,53187,1,0,0:0:0:0:
256,192,53224,1,0,0:0:0:0:
256,192,53298,1,0,0:0:0:0:
256,192,53446,1,0,0:0:0:0:
256,192,53520,1,0,0:0:0:0:
256,192,53593,1,8,0:0:0:0:
256,192,53741,1,8,0:0:0:0:
256,192,53815,1,8,0:0:0:0:
256,192,53889,1,0,0:0:0:0:
256,192,53963,1,8,0:0:0:0:
256,192,54037,1,0,0:0:0:0:
256,192,54111,1,8,0:0:0:0:
256,192,54185,1,8,0:0:0:0:
256,192,54234,1,0,0:0:0:0:
256,192,54332,1,8,0:0:0:0:
256,192,54480,1,0,0:0:0:0:
256,192,54628,1,0,0:0:0:0:
256,192,54776,1,8,0:0:0:0:
256,192,54923,1,0,0:0:0:0:
256,192,54997,1,8,0:0:0:0:
256,192,55071,1,0,0:0:0:0:
256,192,55145,1,8,0:0:0:0:
256,192,55219,1,8,0:0:0:0:
256,192,55367,1,0,0:0:0:0:
256,192,55662,1,0,0:0:0:0:
256,192,55958,1,0,0:0:0:0:
256,192,56253,1,0,0:0:0:0:
256,192,56401,1,0,0:0:0:0:
256,192,56475,1,0,0:0:0:0:
256,192,56549,1,8,0:0:0:0:
256,192,56586,1,8,0:0:0:0:
256,192,56623,1,8,0:0:0:0:
256,192,56660,1,8,0:0:0:0:
256,192,56697,1,8,0:0:0:0:
256,192,56845,1,4,0:0:0:0:
256,192,57140,1,8,0:0:0:0:
256,192,57288,1,0,0:0:0:0:
256,192,57362,1,8,0:0:0:0:
256,192,57436,1,0,0:0:0:0:
256,192,57510,1,8,0:0:0:0:
256,192,57584,1,8,0:0:0:0:
256,192,57731,1,0,0:0:0:0:
256,192,57805,1,8,0:0:0:0:
256,192,57879,1,0,0:0:0:0:
256,192,57953,1,8,0:0:0:0:
256,192,58027,1,0,0:0:0:0:
256,192,58175,1,0,0:0:0:0:
256,192,58322,1,8,0:0:0:0:
256,192,58470,1,0,0:0:0:0:
256,192,58544,1,8,0:0:0:0:
256,192,58618,1,0,0:0:0:0:
256,192,58692,1,0,0:0:0:0:
256,192,58766,1,8,0:0:0:0:
256,192,58914,1,8,0:0:0:0:
256,192,58987,1,8,0:0:0:0:
256,192,59061,1,0,0:0:0:0:
256,192,59135,1,0,0:0:0:0:
256,192,59209,1,8,0:0:0:0:
256,192,59505,1,8,0:0:0:0:
256,192,59800,1,0,0:0:0:0:
256,192,59948,1,8,0:0:0:0:
256,192,60096,1,8,0:0:0:0:
256,192,60145,1,8,0:0:0:0:
256,192,60194,1,8,0:0:0:0:
256,192,60244,1,8,0:0:0:0:
256,192,60318,1,8,0:0:0:0:
256,192,60391,1,0,0:0:0:0:
256,192,60687,1,0,0:0:0:0:
256,192,60983,1,0,0:0:0:0:
256,192,61278,1,8,0:0:0:0:
256,192,61574,1,4,0:0:0:0:
256,192,61869,1,8,0:0:0:0:
256,192,62017,1,8,0:0:0:0:
256,192,62091,1,8,0:0:0:0:
256,192,62165,1,0,0:0:0:0:
256,192,62239,1,0,0:0:0:0:
256,192,62313,1,8,0:0:0:0:
256,192,62350,1,8,0:0:0:0:
256,192,62386,1,8,0:0:0:0:
256,192,62460,1,0,0:0:0:0:
256,192,62534,1,8,0:0:0:0:
256,192,62608,1,0,0:0:0:0:
256,192,62682,1,0,0:0:0:0:
256,192,62756,1,0,0:0:0:0:
256,192,62904,1,0,0:0:0:0:
256,192,63052,1,8,0:0:0:0:
256,192,63199,1,8,0:0:0:0:
256,192,63273,1,8,0:0:0:0:
256,192,63347,1,0,0:0:0:0:
256,192,63421,1,8,0:0:0:0:
256,192,63495,1,0,0:0:0:0:
256,192,63569,1,0,0:0:0:0:
256,192,63643,1,8,0:0:0:0:
256,192,63790,1,8,0:0:0:0:
256,192,63827,1,8,0:0:0:0:
256,192,63864,1,8,0:0:0:0:
256,192,63901,1,8,0:0:0:0:
256,192,63938,1,0,0:0:0:0:
256,192,64012,1,0,0:0:0:0:
256,192,64086,1,0,0:0:0:0:
256,192,64160,1,0,0:0:0:0:
256,192,64234,1,8,0:0:0:0:
256,192,64382,1,0,0:0:0:0:
256,192,64455,1,8,0:0:0:0:
256,192,64529,1,0,0:0:0:0:
256,192,64603,1,8,0:0:0:0:
256,192,64677,1,0,0:0:0:0:
256,192,64825,1,8,0:0:0:0:
256,192,65120,1,0,0:0:0:0:
256,192,65416,1,0,0:0:0:0:
256,192,65465,1,0,0:0:0:0:
256,192,65515,1,0,0:0:0:0:
256,192,65564,1,0,0:0:0:0:
256,192,65712,1,0,0:0:0:0:
256,192,65749,1,0,0:0:0:0:
256,192,65786,1,0,0:0:0:0:
256,192,65822,1,0,0:0:0:0:
256,192,65859,1,0,0:0:0:0:
256,192,66007,1,0,0:0:0:0:
256,192,66056,1,8,0:0:0:0:
256,192,66106,1,8,0:0:0:0:
256,192,66155,1,8,0:0:0:0:
256,192,66303,1,4,0:0:0:0:
256,192,66598,1,8,0:0:0:0:
256,192,66746,1,0,0:0:0:0:
256,192,66820,1,8,0:0:0:0:
256,192,66894,1,0,0:0:0:0:
256,192,66968,1,8,0:0:0:0:
256,192,67042,1,8,0:0:0:0:
256,192,67189,1,0,0:0:0:0:
256,192,67263,1,0,0:0:0:0:
256,192,67337,1,8,0:0:0:0:
256,192,67411,1,8,0:0:0:0:
256,192,67486,1,0,0:0:0:0:
256,192,67633,1,0,0:0:0:0:
256,192,67781,1,8,0:0:0:0:
256,192,67929,1,0,0:0:0:0:
256,192,68003,1,8,0:0:0:0:
256,192,68077,1,0,0:0:0:0:
256,192,68151,1,0,0:0:0:0:
256,192,68224,1,8,0:0:0:0:
256,192,68261,1,8,0:0:0:0:
256,192,68298,1,8,0:0:0:0:
256,192,68372,1,8,0:0:0:0:
256,192,68446,1,0,0:0:0:0:
256,192,68520,1,8,0:0:0:0:
256,192,68594,1,0,0:0:0:0:
256,192,68668,1,0,0:0:0:0:
256,192,68742,1,0,0:0:0:0:
256,192,68816,1,0,0:0:0:0:
256,192,68889,1,0,0:0:0:0:
256,192,68963,1,8,0:0:0:0:
256,192,69022,1,8,0:0:0:0:
256,192,69081,1,8,0:0:0:0:
256,192,69140,1,8,0:0:0:0:
256,192,69199,1,8,0:0:0:0:
256,192,69259,1,0,0:0:0:0:
256,192,69554,1,0,0:0:0:0:
256,192,69850,1,0,0:0:0:0:
256,192,70146,1,8,0:0:0:0:
256,192,70441,1,4,0:0:0:0:
256,192,70736,1,8,0:0:0:0:
256,192,70884,1,0,0:0:0:0:
256,192,70958,1,8,0:0:0:0:
256,192,71032,1,0,0:0:0:0:
256,192,71106,1,0,0:0:0:0:
256,192,71179,1,8,0:0:0:0:
256,192,71327,1,0,0:0:0:0:
256,192,71376,1,0,0:0:0:0:
256,192,71426,1,0,0:0:0:0:
256,192,71475,1,8,0:0:0:0:
256,192,71524,1,8,0:0:0:0:
256,192,71574,1,8,0:0:0:0:
256,192,71624,1,0,0:0:0:0:
256,192,72067,1,0,0:0:0:0:
256,192,72215,1,0,0:0:0:0:
256,192,72289,1,0,0:0:0:0:
256,192,72362,1,8,0:0:0:0:
256,192,72510,1,8,0:0:0:0:
256,192,72559,1,8,0:0:0:0:
256,192,72609,1,8,0:0:0:0:
256,192,72658,1,0,0:0:0:0:
256,192,72707,1,0,0:0:0:0:
256,192,72757,1,0,0:0:0:0:
256,192,72806,1,0,0:0:0:0:
256,192,73101,1,8,0:0:0:0:
256,192,73175,1,8,0:0:0:0:
256,192,73249,1,8,0:0:0:0:
256,192,73298,1,8,0:0:0:0:
256,192,73348,1,8,0:0:0:0:
256,192,73397,1,0,0:0:0:0:
256,192,73526,1,0,0:0:0:0:
256,192,73692,1,0,0:0:0:0:
256,192,73822,1,0,0:0:0:0:
256,192,73988,1,0,0:0:0:0:
256,192,74117,1,0,0:0:0:0:
256,192,74284,1,8,0:0:0:0:
256,192,74431,1,8,0:0:0:0:
256,192,74579,1,4,0:0:0:0:
256,192,74726,1,0,0:0:0:0:
256,192,74800,1,0,0:0:0:0:
256,192,74874,1,8,0:0:0:0:
256,192,75022,1,0,0:0:0:0:
256,192,75367,1,0,0:0:0:0:
256,192,75465,1,8,0:0:0:0:
256,192,75564,1,8,0:0:0:0:
256,192,75687,1,8,0:0:0:0:
256,192,75762,1,0,0:0:0:0:
256,192,75909,1,0,0:0:0:0:
256,192,76057,1,8,0:0:0:0:
256,192,76094,1,8,0:0:0:0:
256,192,76131,1,8,0:0:0:0:
256,192,76279,1,8,0:0:0:0:
256,192,76353,1,0,0:0:0:0:
256,192,76427,1,0,0:0:0:0:
256,192,76500,1,8,0:0:0:0:
256,192,76648,1,8,0:0:0:0:
256,192,76722,1,8,0:0:0:0:
256,192,76796,1,0,0:0:0:0:
256,192,76870,1,0,0:0:0:0:
256,192,76944,1,8,0:0:0:0:
256,192,77055,1,8,0:0:0:0:
256,192,77165,1,8,0:0:0:0:
256,192,77258,1,8,0:0:0:0:
256,192,77350,1,8,0:0:0:0:
256,192,77424,1,8,0:0:0:0:
256,192,77461,1,8,0:0:0:0:
256,192,77498,1,8,0:0:0:0:
256,192,77535,1,0,0:0:0:0:
256,192,77683,1,8,0:0:0:0:
256,192,77757,1,8,0:0:0:0:
256,192,77830,1,0,0:0:0:0:
256,192,77978,1,8,0:0:0:0:
256,192,78052,1,8,0:0:0:0:
256,192,78126,1,0,0:0:0:0:
256,192,78274,1,8,0:0:0:0:
256,192,78348,1,8,0:0:0:0:
256,192,78422,1,8,0:0:0:0:
256,192,78471,1,0,0:0:0:0:
256,192,78717,1,4,0:0:0:0:
256,192,78864,1,0,0:0:0:0:
256,192,79012,1,8,0:0:0:0:
256,192,79160,1,0,0:0:0:0:
256,192,79234,1,8,0:0:0:0:
256,192,79308,1,8,0:0:0:0:
256,192,79455,1,8,0:0:0:0:
256,192,79529,1,0,0:0:0:0:
256,192,79603,1,8,0:0:0:0:
256,192,79677,1,0,0:0:0:0:
256,192,79751,1,8,0:0:0:0:
256,192,79899,1,0,0:0:0:0:
256,192,80046,1,0,0:0:0:0:
256,192,80194,1,8,0:0:0:0:
256,192,80342,1,0,0:0:0:0:
256,192,80416,1,8,0:0:0:0:
256,192,80490,1,8,0:0:0:0:
256,192,80637,1,8,0:0:0:0:
256,192,80711,1,0,0:0:0:0:
256,192,80785,1,8,0:0:0:0:
256,192,80859,1,0,0:0:0:0:
256,192,80933,1,8,0:0:0:0:
256,192,81081,1,0,0:0:0:0:
256,192,81130,1,8,0:0:0:0:
256,192,81672,1,0,0:0:0:0:
256,192,81967,1,0,0:0:0:0:
256,192,82263,1,0,0:0:0:0:
256,192,82559,1,8,0:0:0:0:
256,192,82855,1,4,0:0:0:0:
256,192,83150,1,8,0:0:0:0:
256,192,83298,1,0,0:0:0:0:
256,192,83372,1,8,0:0:0:0:
256,192,83446,1,0,0:0:0:0:
256,192,83520,1,8,0:0:0:0:
256,192,83593,1,8,0:0:0:0:
256,192,83741,1,0,0:0:0:0:
256,192,83815,1,8,0:0:0:0:
256,192,83889,1,0,0:0:0:0:
256,192,83963,1,8,0:0:0:0:
256,192,84037,1,0,0:0:0:0:
256,192,84185,1,0,0:0:0:0:
256,192,84332,1,8,0:0:0:0:
256,192,84480,1,0,0:0:0:0:
256,192,84554,1,8,0:0:0:0:
256,192,84628,1,0,0:0:0:0:
256,192,84702,1,0,0:0:0:0:
256,192,84776,1,8,0:0:0:0:
256,192,84923,1,8,0:0:0:0:
256,192,84997,1,8,0:0:0:0:
256,192,85071,1,8,0:0:0:0:
256,192,85145,1,8,0:0:0:0:
256,192,85219,1,0,0:0:0:0:
256,192,85367,1,0,0:0:0:0:
256,192,85515,1,8,0:0:0:0:
256,192,85552,1,8,0:0:0:0:
256,192,85588,1,8,0:0:0:0:
256,192,85662,1,0,0:0:0:0:
256,192,85736,1,8,0:0:0:0:
256,192,85810,1,0,0:0:0:0:
256,192,85847,1,0,0:0:0:0:
256,192,85884,1,0,0:0:0:0:
256,192,85958,1,8,0:0:0:0:
256,192,86106,1,0,0:0:0:0:
256,192,86143,1,0,0:0:0:0:
256,192,86254,1,8,0:0:0:0:
256,192,86290,1,8,0:0:0:0:
256,192,86401,1,0,0:0:0:0:
256,192,86549,1,8,0:0:0:0:
256,192,86623,1,8,0:0:0:0:
256,192,86697,1,0,0:0:0:0:
256,192,86845,1,8,0:0:0:0:
256,192,86919,1,8,0:0:0:0:
256,192,86992,1,0,0:0:0:0:
256,192,87140,1,8,0:0:0:0:
256,192,87214,1,8,0:0:0:0:
256,192,87288,1,8,0:0:0:0:
256,192,87436,1,8,0:0:0:0:
256,192,87584,1,4,0:0:0:0:
256,192,87879,1,8,0:0:0:0:
256,192,88027,1,0,0:0:0:0:
256,192,88101,1,8,0:0:0:0:
256,192,88175,1,0,0:0:0:0:
256,192,88249,1,8,0:0:0:0:
256,192,88322,1,0,0:0:0:0:
256,192,88396,1,0,0:0:0:0:
256,192,88470,1,8,0:0:0:0:
256,192,88507,1,8,0:0:0:0:
256,192,88544,1,8,0:0:0:0:
256,192,88618,1,0,0:0:0:0:
256,192,88655,1,0,0:0:0:0:
256,192,88692,1,0,0:0:0:0:
256,192,88766,1,8,0:0:0:0:
256,192,88914,1,8,0:0:0:0:
256,192,89061,1,8,0:0:0:0:
256,192,89209,1,8,0:0:0:0:
256,192,89357,1,0,0:0:0:0:
256,192,89431,1,8,0:0:0:0:
256,192,89505,1,8,0:0:0:0:
256,192,89554,1,8,0:0:0:0:
256,192,89603,1,8,0:0:0:0:
256,192,89653,1,8,0:0:0:0:
256,192,89800,1,8,0:0:0:0:
256,192,89948,1,0,0:0:0:0:
256,192,90244,1,8,0:0:0:0:
256,192,90391,1,0,0:0:0:0:
256,192,90465,1,8,0:0:0:0:
256,192,90539,1,0,0:0:0:0:
256,192,90613,1,8,0:0:0:0:
256,192,90687,1,8,0:0:0:0:
256,192,90736,1,8,0:0:0:0:
256,192,90786,1,8,0:0:0:0:
256,192,90835,1,0,0:0:0:0:
256,192,91130,1,0,0:0:0:0:
256,192,91278,1,8,0:0:0:0:
256,192,91426,1,0,0:0:0:0:
256,192,91574,1,8,0:0:0:0:
256,192,91721,1,0,0:0:0:0:
256,192,91869,1,8,0:0:0:0:
256,192,91943,1,8,0:0:0:0:
256,192,92017,1,0,0:0:0:0:
256,192,92054,1,0,0:0:0:0:
256,192,92091,1,0,0:0:0:0:
256,192,92128,1,0,0:0:0:0:
256,192,92165,1,0,0:0:0:0:
256,192,92313,1,4,0:0:0:0:
256,192,92608,1,8,0:0:0:0:
256,192,92756,1,0,0:0:0:0:
256,192,92830,1,8,0:0:0:0:
256,192,92904,1,0,0:0:0:0:
256,192,92978,1,8,0:0:0:0:
256,192,93052,1,8,0:0:0:0:
256,192,93199,1,0,0:0:0:0:
256,192,93273,1,8,0:0:0:0:
256,192,93347,1,8,0:0:0:0:
256,192,93495,1,0,0:0:0:0:
256,192,93643,1,0,0:0:0:0:
256,192,93790,1,8,0:0:0:0:
256,192,93938,1,0,0:0:0:0:
256,192,93988,1,8,0:0:0:0:
256,192,94037,1,8,0:0:0:0:
256,192,94086,1,0,0:0:0:0:
256,192,94160,1,0,0:0:0:0:
256,192,94234,1,8,0:0:0:0:
256,192,94271,1,8,0:0:0:0:
256,192,94308,1,8,0:0:0:0:
256,192,94382,1,0,0:0:0:0:
256,192,94455,1,8,0:0:0:0:
256,192,94529,1,0,0:0:0:0:
256,192,94603,1,0,0:0:0:0:
256,192,94677,1,8,0:0:0:0:
256,192,94899,1,8,0:0:0:0:
256,192,95121,1,8,0:0:0:0:
256,192,95268,1,0,0:0:0:0:
256,192,95342,1,0,0:0:0:0:
256,192,95416,1,0,0:0:0:0:
256,192,95564,1,8,0:0:0:0:
256,192,95613,1,8,0:0:0:0:
256,192,95662,1,8,0:0:0:0:
256,192,95712,1,8,0:0:0:0:
256,192,95761,1,8,0:0:0:0:
256,192,95810,1,8,0:0:0:0:
256,192,95859,1,0,0:0:0:0:
256,192,96007,1,0,0:0:0:0:
256,192,96081,1,0,0:0:0:0:
256,192,96155,1,0,0:0:0:0:
256,192,96303,1,0,0:0:0:0:
256,192,96451,1,0,0:0:0:0:
256,192,96598,1,0,0:0:0:0:
256,192,96746,1,8,0:0:0:0:
256,192,96894,1,0,0:0:0:0:
256,192,97042,1,4,0:0:0:0:
256,192,97337,1,8,0:0:0:0:
256,192,97485,1,0,0:0:0:0:
256,192,97559,1,8,0:0:0:0:
256,192,97633,1,0,0:0:0:0:
256,192,97707,1,0,0:0:0:0:
256,192,97781,1,8,0:0:0:0:
256,192,97818,1,8,0:0:0:0:
256,192,97854,1,8,0:0:0:0:
256,192,97928,1,0,0:0:0:0:
256,192,98002,1,8,0:0:0:0:
256,192,98076,1,8,0:0:0:0:
256,192,98150,1,0,0:0:0:0:
256,192,98224,1,0,0:0:0:0:
256,192,98372,1,0,0:0:0:0:
256,192,98520,1,8,0:0:0:0:
256,192,98667,1,0,0:0:0:0:
256,192,98741,1,8,0:0:0:0:
256,192,98815,1,0,0:0:0:0:
256,192,98889,1,8,0:0:0:0:
256,192,98963,1,8,0:0:0:0:
256,192,99037,1,0,0:0:0:0:
256,192,99111,1,8,0:0:0:0:
256,192,99258,1,8,0:0:0:0:
256,192,99308,1,8,0:0:0:0:
256,192,99357,1,8,0:0:0:0:
256,192,99406,1,0,0:0:0:0:
256,192,99554,1,0,0:0:0:0:
256,192,99702,1,8,0:0:0:0:
256,192,99850,1,0,0:0:0:0:
256,192,99923,1,8,0:0:0:0:
256,192,99997,1,0,0:0:0:0:
256,192,100071,1,8,0:0:0:0:
256,192,100145,1,0,0:0:0:0:
256,192,100293,1,8,0:0:0:0:
256,192,102952,12,0,103987,0:0:0:0:
256,192,104134,12,8,105760,0:0:0:0:
256,192,105909,5,4,0:0:0:0:
256,192,106045,1,8,0:0:0:0:
256,192,106113,1,8,0:0:0:0:
256,192,106181,1,0,0:0:0:0:
256,192,106318,1,8,0:0:0:0:
256,192,106386,1,8,0:0:0:0:
256,192,106454,1,0,0:0:0:0:
256,192,106590,1,8,0:0:0:0:
256,192,106659,1,8,0:0:0:0:
256,192,106727,1,0,0:0:0:0:
256,192,106863,1,8,0:0:0:0:
256,192,106931,1,8,0:0:0:0:
256,192,106999,1,4,0:0:0:0:
256,192,107136,1,12,0:0:0:0:
256,192,107272,1,12,0:0:0:0:
256,192,107409,1,12,0:0:0:0:
256,192,107545,1,12,0:0:0:0:
256,192,107681,1,12,0:0:0:0:
256,192,107818,1,0,0:0:0:0:
256,192,107886,1,0,0:0:0:0:
256,192,107954,1,8,0:0:0:0:
256,192,108090,1,0,0:0:0:0:
256,192,108159,1,0,0:0:0:0:
256,192,108227,1,8,0:0:0:0:
256,192,108363,1,0,0:0:0:0:
256,192,108431,1,0,0:0:0:0:
256,192,108499,1,8,0:0:0:0:
256,192,108636,1,0,0:0:0:0:
256,192,108704,1,0,0:0:0:0:
256,192,108772,1,8,0:0:0:0:
256,192,108909,1,0,0:0:0:0:
256,192,109045,1,8,0:0:0:0:
256,192,109181,1,8,0:0:0:0:
256,192,109249,1,8,0:0:0:0:
256,192,109318,1,8,0:0:0:0:
256,192,109454,1,8,0:0:0:0:
256,192,109522,1,8,0:0:0:0:
256,192,109590,1,8,0:0:0:0:
256,192,109659,1,8,0:0:0:0:
256,192,109727,1,4,0:0:0:0:
256,192,109863,1,8,0:0:0:0:
256,192,109999,1,0,0:0:0:0:
256,192,110136,1,8,0:0:0:0:
256,192,110272,1,0,0:0:0:0:
256,192,110409,1,8,0:0:0:0:
256,192,110545,1,0,0:0:0:0:
256,192,110681,1,8,0:0:0:0:
256,192,110749,1,0,0:0:0:0:
256,192,110818,1,8,0:0:0:0:
256,192,111022,1,8,0:0:0:0:
256,192,111227,1,8,0:0:0:0:
256,192,111431,1,8,0:0:0:0:
256,192,111636,1,0,0:0:0:0:
256,192,111704,1,0,0:0:0:0:
256,192,111772,1,8,0:0:0:0:
256,192,111909,1,8,0:0:0:0:
256,192,112045,1,0,0:0:0:0:
256,192,112113,1,8,0:0:0:0:
256,192,112181,1,0,0:0:0:0:
256,192,112318,1,8,0:0:0:0:
256,192,112386,1,8,0:0:0:0:
256,192,112454,1,0,0:0:0:0:
256,192,112522,1,8,0:0:0:0:
256,192,112590,1,0,0:0:0:0:
256,192,112659,1,8,0:0:0:0:
256,192,112727,1,8,0:0:0:0:
256,192,112772,1,8,0:0:0:0:
256,192,112818,1,8,0:0:0:0:
256,192,112863,1,0,0:0:0:0:
256,192,112931,1,0,0:0:0:0:
256,192,112999,1,8,0:0:0:0:
256,192,113034,1,8,0:0:0:0:
256,192,113068,1,8,0:0:0:0:
256,192,113136,1,0,0:0:0:0:
256,192,113181,1,0,0:0:0:0:
256,192,113227,1,0,0:0:0:0:
256,192,113272,1,8,0:0:0:0:
256,192,113340,1,8,0:0:0:0:
256,192,113409,1,8,0:0:0:0:
256,192,113477,1,8,0:0:0:0:
256,192,113545,1,4,0:0:0:0:
256,192,113681,1,8,0:0:0:0:
256,192,113749,1,8,0:0:0:0:
256,192,113817,1,0,0:0:0:0:
256,192,113954,1,8,0:0:0:0:
256,192,114022,1,8,0:0:0:0:
256,192,114090,1,0,0:0:0:0:
256,192,114226,1,8,0:0:0:0:
256,192,114295,1,8,0:0:0:0:
256,192,114363,1,0,0:0:0:0:
256,192,114397,1,0,0:0:0:0:
256,192,114431,1,0,0:0:0:0:
256,192,114465,1,0,0:0:0:0:
256,192,114545,1,0,0:0:0:0:
256,192,114635,1,0,0:0:0:0:
256,192,114772,1,0,0:0:0:0:
256,192,114908,1,8,0:0:0:0:
256,192,115045,1,8,0:0:0:0:
256,192,115158,1,8,0:0:0:0:
256,192,115266,1,8,0:0:0:0:
256,192,115351,1,8,0:0:0:0:
256,192,115420,1,8,0:0:0:0:
256,192,115488,1,8,0:0:0:0:
256,192,115522,1,8,0:0:0:0:
256,192,115556,1,8,0:0:0:0:
256,192,115590,1,0,0:0:0:0:
256,192,115635,1,0,0:0:0:0:
256,192,115681,1,0,0:0:0:0:
256,192,115726,1,0,0:0:0:0:
256,192,115863,1,8,0:0:0:0:
256,192,115999,1,0,0:0:0:0:
256,192,116067,1,0,0:0:0:0:
256,192,116135,1,8,0:0:0:0:
256,192,116272,1,0,0:0:0:0:
256,192,116408,1,8,0:0:0:0:
256,192,116454,1,8,0:0:0:0:
256,192,116499,1,8,0:0:0:0:
256,192,116545,1,0,0:0:0:0:
256,192,116590,1,0,0:0:0:0:
256,192,116635,1,0,0:0:0:0:
256,192,116681,1,8,0:0:0:0:
256,192,116817,1,8,0:0:0:0:
256,192,116885,1,8,0:0:0:0:
256,192,116954,1,8,0:0:0:0:
256,192,117090,1,8,0:0:0:0:
256,192,117158,1,8,0:0:0:0:
256,192,117226,1,8,0:0:0:0:
256,192,117295,1,8,0:0:0:0:
256,192,117363,1,4,0:0:0:0:
256,192,117499,1,8,0:0:0:0:
256,192,117635,1,0,0:0:0:0:
256,192,117772,1,8,0:0:0:0:
256,192,117840,1,8,0:0:0:0:
256,192,117908,1,0,0:0:0:0:
256,192,118044,1,8,0:0:0:0:
256,192,118181,1,0,0:0:0:0:
256,192,118317,1,8,0:0:0:0:
256,192,118385,1,0,0:0:0:0:
256,192,118453,1,8,0:0:0:0:
256,192,118658,1,8,0:0:0:0:
256,192,118863,1,8,0:0:0:0:
256,192,119067,1,8,0:0:0:0:
256,192,119272,1,0,0:0:0:0:
256,192,119340,1,0,0:0:0:0:
256,192,119408,1,8,0:0:0:0:
256,192,119544,1,8,0:0:0:0:
256,192,119681,1,0,0:0:0:0:
256,192,119749,1,8,0:0:0:0:
256,192,119817,1,0,0:0:0:0:
256,192,119953,1,8,0:0:0:0:
256,192,120022,1,8,0:0:0:0:
256,192,120090,1,0,0:0:0:0:
256,192,120158,1,8,0:0:0:0:
256,192,120226,1,0,0:0:0:0:
256,192,120294,1,8,0:0:0:0:
256,192,120363,1,8,0:0:0:0:
256,192,120408,1,8,0:0:0:0:
256,192,120453,1,8,0:0:0:0:
256,192,120499,1,0,0:0:0:0:
256,192,120567,1,0,0:0:0:0:
256,192,120635,1,8,0:0:0:0:
256,192,120669,1,8,0:0:0:0:
256,192,120703,1,8,0:0:0:0:
256,192,120772,1,0,0:0:0:0:
256,192,120817,1,0,0:0:0:0:
256,192,120863,1,0,0:0:0:0:
256,192,120908,1,8,0:0:0:0:
256,192,120976,1,8,0:0:0:0:
256,192,121044,1,8,0:0:0:0:
256,192,121113,1,8,0:0:0:0:
256,192,121181,1,0,0:0:0:0:
256,192,121226,1,0,0:0:0:0:
256,192,121272,1,0,0:0:0:0:
256,192,121363,1,0,0:0:0:0:
256,192,121499,1,0,0:0:0:0:
256,192,121681,12,0,122272,0:0:0:0:
