osu file format v14

[General]
AudioFilename: audio.mp3
AudioLeadIn: 0
PreviewTime: 46130
Countdown: 0
SampleSet: Normal
StackLeniency: 0.7
Mode: 1
LetterboxInBreaks: 0
WidescreenStoryboard: 0

[Editor]
DistanceSpacing: 1.8
BeatDivisor: 4
GridSize: 32
TimelineZoom: 2.700006

[Metadata]
Title:Amen Iraq
TitleUnicode:Amen Iraq
Artist:The Flashbulb
ArtistUnicode:The Flashbulb
Creator:Kqrth
Version:Nifty's Ura Oni
Source:osu!
Tags:electronic instrumental nifty mappers' guild fa featured artist benn jordan flexing habitual breakcore
BeatmapID:2028904
BeatmapSetID:966251

[Difficulty]
HPDrainRate:5
CircleSize:2
OverallDifficulty:6.5
ApproachRate:10
SliderMultiplier:1.4
SliderTickRate:1

[Events]
//Background and Video events
0,0,"bg.jpg",0,20
//Break Periods
//Storyboard Layer 0 (Background)
//Storyboard Layer 1 (Fail)
//Storyboard Layer 2 (Pass)
//Storyboard Layer 3 (Foreground)
//Storyboard Layer 4 (Overlay)
//Storyboard Sound Samples

[TimingPoints]
97,295.566502463054,4,1,0,50,1,0
97,-145.938173975557,4,1,0,50,0,0
13100,-127.352572145546,4,1,0,70,0,0
13397,-112.966054535337,4,1,0,70,0,0
13693,-101.5,4,1,0,70,0,0
13988,-92.1470721743078,4,1,0,70,0,0
14136,-96.1538461538461,4,1,0,70,0,0
14284,-101.010101010101,4,1,0,70,0,1
15466,295.566502463054,6,1,0,70,1,1
15466,-101.5,6,1,0,70,0,1
18421,295.566502463054,4,1,0,70,1,9
18422,295.566502463054,4,1,0,70,1,1
18422,-101.5,4,1,0,70,0,1
19604,295.566502463054,6,1,0,70,1,1
19604,-101.5,6,1,0,70,0,1
22559,295.566502463054,4,1,0,70,1,9
22560,295.566502463054,4,1,0,70,1,1
22560,-101.5,4,1,0,70,0,1
23742,295.566502463054,6,1,0,70,1,1
23742,-101.5,6,1,0,70,0,1
26697,295.566502463054,4,1,0,70,1,1
26697,-101.5,4,1,0,70,0,1
27879,295.566502463054,4,1,0,70,1,9
27880,295.566502463054,6,1,0,70,1,1
27880,-101.5,6,1,0,70,0,1
30835,295.566502463054,4,1,0,70,1,0
30835,-101.5,4,1,0,70,0,0
32017,295.566502463054,4,1,0,70,1,8
32018,295.566502463054,6,1,0,70,1,0
32018,-101.5,6,1,0,70,0,0
34973,295.566502463054,4,1,0,70,1,0
34973,-101.5,4,1,0,70,0,0
36155,295.566502463054,4,1,0,70,1,8
36156,295.566502463054,6,1,0,70,1,0
36156,-101.5,6,1,0,70,0,0
39111,295.566502463054,4,1,0,70,1,0
39111,-101.5,4,1,0,70,0,0
40293,295.566502463054,4,1,0,70,1,8
40294,295.566502463054,6,1,0,70,1,0
40294,-101.5,6,1,0,70,0,0
43249,295.566502463054,4,1,0,70,1,0
43249,-101.5,4,1,0,70,0,0
44431,295.566502463054,6,1,0,70,1,0
44431,-101.5,6,1,0,70,0,0
45681,-50,6,1,0,70,0,0
46125,-101.010101010101,6,1,0,70,0,0
47386,295.566502463054,4,1,0,70,1,8
47387,295.566502463054,4,1,0,70,1,1
47387,-101.5,4,1,0,70,0,1
66303,-101.5,4,1,0,70,0,0
67485,295.566502463054,4,1,0,70,1,8
67486,295.566502463054,6,1,0,70,1,0
67486,-101.5,6,1,0,70,0,0
70441,295.566502463054,4,1,0,70,1,0
70441,-101.5,4,1,0,70,0,0
71623,295.566502463054,4,1,0,70,1,8
71624,295.566502463054,6,1,0,70,1,0
71624,-101.5,6,1,0,70,0,0
74579,295.566502463054,4,1,0,70,1,0
74579,-101.5,4,1,0,70,0,0
75761,295.566502463054,4,1,0,70,1,8
75762,295.566502463054,6,1,0,70,1,0
75762,-101.5,6,1,0,70,0,0
78717,295.566502463054,4,1,0,70,1,0
78717,-101.5,4,1,0,70,0,0
79899,295.566502463054,6,1,0,70,1,0
79899,-101.5,6,1,0,70,0,0
82854,295.566502463054,4,1,0,70,1,8
82855,295.566502463054,4,1,0,70,1,1
82855,-101.5,4,1,0,70,0,1
100293,-101.5,4,1,0,70,0,0
100435,-145.938173975557,4,1,0,30,0,0
100588,295.566502463054,18,1,0,30,1,8
105318,-92.1470721743078,4,1,0,50,0,8
105908,295.566502463054,4,1,0,70,1,9
105909,272.727272727273,7,1,0,70,1,0
105909,-99.0990990990991,4,1,0,70,0,1
113545,272.727272727273,8,1,0,70,1,0
113545,-99.0990990990991,4,1,0,70,0,1
117363,272.727272727273,7,1,0,70,1,0
117363,-99.0990990990991,4,1,0,70,0,1
122203,-123.595505618116,4,1,0,70,0,1
122272,545.454545454546,4,1,0,70,1,0
122272,-61.7977528089887,4,1,0,70,0,0

[HitObjects]
284,155,13101,5,4,0:0:0:0:
284,155,13397,1,4,0:0:0:0:
284,155,13693,1,4,0:0:0:0:
284,155,13988,1,12,0:0:0:0:
288,128,14136,1,8,0:0:0:0:
287,148,14284,1,4,0:0:0:0:
287,148,14431,1,0,0:0:0:0:
287,148,14579,1,8,0:0:0:0:
293,139,14727,1,0,0:0:0:0:
289,137,14801,1,8,0:0:0:0:
293,139,14875,1,0,0:0:0:0:
293,139,14949,1,0,0:0:0:0:
289,137,15023,1,8,0:0:0:0:
293,139,15170,1,0,0:0:0:0:
289,137,15244,1,8,0:0:0:0:
293,139,15392,1,8,0:0:0:0:
288,128,15466,1,0,0:0:0:0:
288,160,15613,1,8,0:0:0:0:
288,160,15687,1,0,0:0:0:0:
288,160,15761,1,8,0:0:0:0:
288,160,15835,1,8,0:0:0:0:
288,160,15909,1,0,0:0:0:0:
288,160,16057,1,0,0:0:0:0:
288,128,16204,1,8,0:0:0:0:
288,128,16278,1,8,0:0:0:0:
288,128,16352,1,0,0:0:0:0:
288,96,16500,1,8,0:0:0:0:
256,96,16549,1,8,0:0:0:0:
256,128,16599,1,0,0:0:0:0:
288,128,16648,1,0,0:0:0:0:
288,128,16796,1,0,0:0:0:0:
256,128,16943,1,8,0:0:0:0:
256,96,17091,1,0,0:0:0:0:
256,128,17165,1,8,0:0:0:0:
256,128,17239,1,0,0:0:0:0:
256,96,17387,1,8,0:0:0:0:
256,96,17461,1,8,0:0:0:0:
256,96,17534,1,0,0:0:0:0:
256,96,17682,1,8,0:0:0:0:
256,96,17756,1,8,0:0:0:0:
256,96,17830,1,0,0:0:0:0:
256,96,17978,1,8,0:0:0:0:
256,96,18052,1,8,0:0:0:0:
256,64,18126,1,0,0:0:0:0:
256,64,18163,1,0,0:0:0:0:
256,64,18273,1,8,0:0:0:0:
256,64,18310,1,8,0:0:0:0:
256,96,18422,1,0,0:0:0:0:
256,96,18569,1,0,0:0:0:0:
256,96,18717,1,8,0:0:0:0:
256,96,18865,1,0,0:0:0:0:
256,96,18939,1,8,0:0:0:0:
256,96,19013,1,0,0:0:0:0:
256,96,19087,1,8,0:0:0:0:
256,96,19160,1,0,0:0:0:0:
256,96,19234,1,0,0:0:0:0:
256,96,19308,1,8,0:0:0:0:
256,96,19456,1,0,0:0:0:0:
256,96,19505,1,8,0:0:0:0:
256,96,19555,1,8,0:0:0:0:
256,96,19604,1,0,0:0:0:0:
256,96,19751,1,0,0:0:0:0:
256,96,19899,1,8,0:0:0:0:
256,64,19973,1,0,0:0:0:0:
256,96,20047,1,8,0:0:0:0:
256,96,20195,1,0,0:0:0:0:
256,96,20269,1,0,0:0:0:0:
256,96,20342,1,8,0:0:0:0:
256,96,20490,1,0,0:0:0:0:
256,96,20564,1,0,0:0:0:0:
256,96,20638,1,8,0:0:0:0:
256,96,20712,1,8,0:0:0:0:
256,96,20786,1,0,0:0:0:0:
256,96,20860,1,8,0:0:0:0:
256,96,20934,1,0,0:0:0:0:
256,96,21007,1,0,0:0:0:0:
256,96,21081,1,8,0:0:0:0:
256,96,21229,1,8,0:0:0:0:
256,96,21377,1,0,0:0:0:0:
256,96,21525,1,8,0:0:0:0:
256,96,21599,1,8,0:0:0:0:
256,96,21672,1,0,0:0:0:0:
256,96,21820,1,8,0:0:0:0:
256,96,21894,1,8,0:0:0:0:
256,96,21968,1,0,0:0:0:0:
256,96,22116,1,8,0:0:0:0:
256,96,22190,1,0,0:0:0:0:
256,96,22264,1,8,0:0:0:0:
256,96,22411,1,0,0:0:0:0:
256,96,22560,1,0,0:0:0:0:
256,96,22707,1,8,0:0:0:0:
256,96,22781,1,0,0:0:0:0:
256,96,22855,1,8,0:0:0:0:
256,96,22904,1,8,0:0:0:0:
256,96,22954,1,8,0:0:0:0:
288,128,23003,1,0,0:0:0:0:
288,96,23151,1,8,0:0:0:0:
288,96,23298,1,0,0:0:0:0:
288,96,23372,1,0,0:0:0:0:
288,96,23446,1,8,0:0:0:0:
256,96,23594,1,8,0:0:0:0:
256,96,23742,1,0,0:0:0:0:
256,96,23889,1,8,0:0:0:0:
256,96,23963,1,8,0:0:0:0:
256,96,24037,1,0,0:0:0:0:
256,96,24111,1,0,0:0:0:0:
256,96,24185,1,8,0:0:0:0:
256,96,24333,1,8,0:0:0:0:
256,96,24480,1,0,0:0:0:0:
256,96,24554,1,8,0:0:0:0:
256,96,24628,1,0,0:0:0:0:
256,96,24702,1,0,0:0:0:0:
256,96,24776,1,8,0:0:0:0:
256,96,24850,1,8,0:0:0:0:
256,96,24924,1,0,0:0:0:0:
256,96,24998,1,0,0:0:0:0:
256,96,25072,1,0,0:0:0:0:
256,96,25145,1,0,0:0:0:0:
256,96,25219,1,8,0:0:0:0:
256,96,25367,1,8,0:0:0:0:
288,96,25441,1,8,0:0:0:0:
288,96,25515,1,0,0:0:0:0:
256,96,25810,1,0,0:0:0:0:
256,96,26106,1,0,0:0:0:0:
256,96,26402,1,8,0:0:0:0:
256,96,26549,1,0,0:0:0:0:
256,96,26697,1,8,0:0:0:0:
256,96,26844,1,0,0:0:0:0:
256,96,26918,1,0,0:0:0:0:
256,96,26992,1,8,0:0:0:0:
256,96,27140,1,0,0:0:0:0:
256,96,27214,1,8,0:0:0:0:
256,96,27288,1,0,0:0:0:0:
256,96,27362,1,0,0:0:0:0:
256,96,27435,1,8,0:0:0:0:
256,96,27583,1,0,0:0:0:0:
256,96,27657,1,8,0:0:0:0:
256,96,27805,1,8,0:0:0:0:
256,96,27880,1,0,0:0:0:0:
256,96,28027,1,0,0:0:0:0:
256,96,28175,1,8,0:0:0:0:
256,96,28323,1,0,0:0:0:0:
256,96,28397,1,8,0:0:0:0:
256,96,28471,1,0,0:0:0:0:
256,96,28618,1,8,0:0:0:0:
256,96,28766,1,8,0:0:0:0:
256,96,28914,1,8,0:0:0:0:
256,96,29062,1,0,0:0:0:0:
256,96,29136,1,8,0:0:0:0:
256,96,29210,1,0,0:0:0:0:
256,96,29283,1,0,0:0:0:0:
256,96,29357,1,8,0:0:0:0:
256,96,29505,1,0,0:0:0:0:
256,96,29653,1,4,0:0:0:0:
256,96,29948,1,4,0:0:0:0:
256,96,30244,1,12,0:0:0:0:
256,96,30540,1,4,0:0:0:0:
256,96,30835,1,4,0:0:0:0:
256,96,30982,1,0,0:0:0:0:
256,96,31130,1,8,0:0:0:0:
256,96,31278,1,0,0:0:0:0:
256,96,31352,1,0,0:0:0:0:
256,96,31426,1,0,0:0:0:0:
256,96,31500,1,0,0:0:0:0:
256,96,31573,1,8,0:0:0:0:
256,96,31721,1,0,0:0:0:0:
256,96,31795,1,8,0:0:0:0:
256,96,31943,1,8,0:0:0:0:
256,96,32018,1,0,0:0:0:0:
256,96,32165,1,0,0:0:0:0:
256,96,32312,1,8,0:0:0:0:
256,96,32460,1,0,0:0:0:0:
256,96,32534,1,8,0:0:0:0:
256,96,32608,1,0,0:0:0:0:
256,96,32756,1,8,0:0:0:0:
256,96,32903,1,0,0:0:0:0:
256,96,32977,1,8,0:0:0:0:
256,96,33051,1,8,0:0:0:0:
256,64,33125,1,8,0:0:0:0:
256,96,33200,1,0,0:0:0:0:
256,64,33347,1,0,0:0:0:0:
256,64,33495,1,8,0:0:0:0:
256,64,33643,1,0,0:0:0:0:
256,64,33717,1,0,0:0:0:0:
256,64,33791,1,12,0:0:0:0:
256,64,34086,1,12,0:0:0:0:
256,64,34382,1,4,0:0:0:0:
256,64,34677,1,12,0:0:0:0:
256,96,34825,1,8,0:0:0:0:
224,96,34973,1,4,0:0:0:0:
288,64,35120,1,0,0:0:0:0:
224,64,35268,1,8,0:0:0:0:
224,96,35416,1,0,0:0:0:0:
224,96,35490,1,0,0:0:0:0:
224,96,35564,1,0,0:0:0:0:
224,96,35638,1,0,0:0:0:0:
224,96,35711,1,8,0:0:0:0:
224,64,35859,1,8,0:0:0:0:
224,64,35933,1,8,0:0:0:0:
224,64,36007,1,8,0:0:0:0:
224,64,36081,1,8,0:0:0:0:
224,64,36156,1,0,0:0:0:0:
224,96,36303,1,0,0:0:0:0:
224,96,36450,1,8,0:0:0:0:
224,96,36598,1,0,0:0:0:0:
224,96,36672,1,8,0:0:0:0:
224,96,36746,1,0,0:0:0:0:
224,96,36820,1,0,0:0:0:0:
224,96,36894,1,8,0:0:0:0:
256,96,36943,1,8,0:0:0:0:
256,96,36992,1,8,0:0:0:0:
256,96,37041,1,0,0:0:0:0:
256,64,37189,1,8,0:0:0:0:
256,64,37263,1,8,0:0:0:0:
256,64,37338,1,0,0:0:0:0:
256,96,37485,1,0,0:0:0:0:
256,96,37633,1,8,0:0:0:0:
256,64,37682,1,8,0:0:0:0:
256,96,37732,1,0,0:0:0:0:
256,96,37929,1,4,0:0:0:0:
256,96,38224,1,4,0:0:0:0:
256,96,38520,1,12,0:0:0:0:
256,96,38815,1,4,0:0:0:0:
256,64,38963,1,8,0:0:0:0:
320,96,39111,1,4,0:0:0:0:
256,96,39258,1,0,0:0:0:0:
256,96,39406,1,8,0:0:0:0:
256,96,39554,1,0,0:0:0:0:
288,64,39628,1,0,0:0:0:0:
288,64,39702,1,0,0:0:0:0:
288,64,39776,1,0,0:0:0:0:
288,64,39849,1,8,0:0:0:0:
288,64,39997,1,0,0:0:0:0:
288,64,40071,1,8,0:0:0:0:
288,64,40145,1,8,0:0:0:0:
288,64,40294,1,0,0:0:0:0:
288,64,40367,1,0,0:0:0:0:
288,64,40441,1,8,0:0:0:0:
269,74,40490,1,8,0:0:0:0:
269,74,40539,1,8,0:0:0:0:
288,64,40588,1,0,0:0:0:0:
288,64,40736,1,8,0:0:0:0:
288,64,40810,1,8,0:0:0:0:
288,64,40884,1,0,0:0:0:0:
288,64,40958,1,0,0:0:0:0:
288,64,41032,1,8,0:0:0:0:
288,64,41179,1,0,0:0:0:0:
288,64,41253,1,8,0:0:0:0:
288,64,41327,1,0,0:0:0:0:
288,64,41401,1,0,0:0:0:0:
288,64,41476,1,8,0:0:0:0:
288,64,41623,1,8,0:0:0:0:
288,64,41771,1,8,0:0:0:0:
288,64,41919,1,0,0:0:0:0:
320,64,41968,1,0,0:0:0:0:
288,64,42067,1,12,0:0:0:0:
256,96,42362,1,12,0:0:0:0:
256,64,42658,1,4,0:0:0:0:
256,64,42953,1,12,0:0:0:0:
288,64,43249,1,4,0:0:0:0:
256,64,43396,1,0,0:0:0:0:
256,64,43544,1,8,0:0:0:0:
256,64,43692,1,0,0:0:0:0:
256,64,43766,1,0,0:0:0:0:
256,64,43840,1,8,0:0:0:0:
256,64,43987,1,0,0:0:0:0:
256,64,44061,1,0,0:0:0:0:
256,64,44135,1,0,0:0:0:0:
256,64,44209,1,0,0:0:0:0:
256,64,44283,1,8,0:0:0:0:
256,64,44431,1,0,0:0:0:0:
256,64,44579,1,0,0:0:0:0:
256,64,44726,1,8,0:0:0:0:
256,64,44874,1,0,0:0:0:0:
256,64,44948,1,0,0:0:0:0:
256,64,45022,1,8,0:0:0:0:
256,64,45170,1,0,0:0:0:0:
256,64,45244,1,8,0:0:0:0:
256,64,45317,1,0,0:0:0:0:
256,64,45391,1,0,0:0:0:0:
256,64,45465,1,8,0:0:0:0:
256,64,45614,1,0,0:0:0:0:
256,192,45687,12,0,46057,0:0:0:0:
224,64,46205,5,4,0:0:0:0:
224,64,46500,1,4,0:0:0:0:
224,64,46796,1,4,0:0:0:0:
224,64,47091,1,12,0:0:0:0:
224,64,47239,1,8,0:0:0:0:
256,64,47387,1,4,0:0:0:0:
256,64,47534,1,0,0:0:0:0:
256,64,47682,1,8,0:0:0:0:
256,64,47830,1,0,0:0:0:0:
256,64,47904,1,8,0:0:0:0:
256,64,47978,1,0,0:0:0:0:
256,64,48052,1,0,0:0:0:0:
256,64,48125,1,8,0:0:0:0:
256,64,48273,1,0,0:0:0:0:
256,64,48347,1,8,0:0:0:0:
256,64,48495,1,8,0:0:0:0:
256,64,48569,1,0,0:0:0:0:
256,64,48717,1,0,0:0:0:0:
263,61,48864,1,8,0:0:0:0:
263,61,49012,1,8,0:0:0:0:
263,61,49086,1,0,0:0:0:0:
263,61,49160,1,8,0:0:0:0:
263,61,49234,1,8,0:0:0:0:
263,61,49308,1,0,0:0:0:0:
252,72,49455,1,8,0:0:0:0:
263,61,49529,1,8,0:0:0:0:
259,63,49603,1,0,0:0:0:0:
263,61,49751,1,0,0:0:0:0:
263,61,49899,1,0,0:0:0:0:
263,61,50047,1,8,0:0:0:0:
270,57,50194,1,0,0:0:0:0:
263,61,50268,1,8,0:0:0:0:
270,57,50342,1,0,0:0:0:0:
285,79,50490,1,8,0:0:0:0:
286,78,50539,1,0,0:0:0:0:
285,79,50588,1,0,0:0:0:0:
285,79,50638,1,8,0:0:0:0:
279,66,50786,1,8,0:0:0:0:
279,91,50822,1,8,0:0:0:0:
192,96,50933,1,0,0:0:0:0:
284,67,51081,1,8,0:0:0:0:
192,96,51229,1,0,0:0:0:0:
284,67,51377,1,8,0:0:0:0:
192,96,51524,1,0,0:0:0:0:
284,67,51672,1,0,0:0:0:0:
192,96,51820,1,8,0:0:0:0:
224,64,51968,1,8,0:0:0:0:
224,64,52116,1,0,0:0:0:0:
240,78,52263,1,0,0:0:0:0:
234,82,52411,1,8,0:0:0:0:
254,77,52559,1,0,0:0:0:0:
254,77,52633,1,8,0:0:0:0:
261,78,52707,1,0,0:0:0:0:
260,78,52781,1,8,0:0:0:0:
260,78,52854,1,0,0:0:0:0:
261,78,52928,1,0,0:0:0:0:
260,78,53002,1,8,0:0:0:0:
302,69,53052,1,8,0:0:0:0:
302,69,53101,1,8,0:0:0:0:
302,69,53150,1,0,0:0:0:0:
292,77,53298,1,8,0:0:0:0:
292,77,53446,1,0,0:0:0:0:
292,77,53520,1,0,0:0:0:0:
292,77,53593,1,8,0:0:0:0:
292,77,53741,1,0,0:0:0:0:
290,67,53815,1,8,0:0:0:0:
292,68,53889,1,0,0:0:0:0:
292,68,53963,1,8,0:0:0:0:
290,67,54037,1,0,0:0:0:0:
292,68,54111,1,8,0:0:0:0:
292,68,54185,1,8,0:0:0:0:
292,68,54332,1,8,0:0:0:0:
301,79,54480,1,0,0:0:0:0:
301,79,54628,1,0,0:0:0:0:
301,79,54776,1,8,0:0:0:0:
301,79,54923,1,0,0:0:0:0:
301,79,54997,1,8,0:0:0:0:
301,79,55071,1,0,0:0:0:0:
301,79,55145,1,0,0:0:0:0:
301,79,55219,1,8,0:0:0:0:
301,79,55367,1,0,0:0:0:0:
192,128,55662,1,0,0:0:0:0:
278,61,55810,1,8,0:0:0:0:
192,128,55958,1,0,0:0:0:0:
296,65,56106,1,8,0:0:0:0:
192,128,56253,1,0,0:0:0:0:
296,65,56401,1,0,0:0:0:0:
296,65,56475,1,0,0:0:0:0:
192,96,56549,1,8,0:0:0:0:
309,75,56586,1,8,0:0:0:0:
224,96,56697,1,8,0:0:0:0:
261,83,56734,1,8,0:0:0:0:
192,128,56845,1,0,0:0:0:0:
261,83,56992,1,0,0:0:0:0:
261,83,57140,1,8,0:0:0:0:
261,83,57288,1,0,0:0:0:0:
261,83,57362,1,8,0:0:0:0:
261,83,57436,1,0,0:0:0:0:
261,83,57510,1,0,0:0:0:0:
261,83,57584,1,8,0:0:0:0:
261,83,57731,1,0,0:0:0:0:
261,83,57805,1,8,0:0:0:0:
261,83,57953,1,8,0:0:0:0:
261,83,58027,1,0,0:0:0:0:
261,83,58175,1,0,0:0:0:0:
274,75,58322,1,8,0:0:0:0:
238,76,58470,1,0,0:0:0:0:
267,69,58544,1,8,0:0:0:0:
269,68,58618,1,0,0:0:0:0:
267,69,58766,1,8,0:0:0:0:
267,69,58914,1,0,0:0:0:0:
267,69,58987,1,8,0:0:0:0:
267,69,59061,1,0,0:0:0:0:
267,69,59135,1,0,0:0:0:0:
267,69,59209,1,8,0:0:0:0:
259,67,59505,1,8,0:0:0:0:
259,67,59800,1,0,0:0:0:0:
259,67,59948,1,0,0:0:0:0:
259,67,60096,1,8,0:0:0:0:
233,55,60145,1,8,0:0:0:0:
233,55,60194,1,8,0:0:0:0:
224,64,60391,1,0,0:0:0:0:
267,61,60539,1,8,0:0:0:0:
224,64,60687,1,0,0:0:0:0:
267,61,60835,1,8,0:0:0:0:
224,64,60983,1,0,0:0:0:0:
266,61,61130,1,0,0:0:0:0:
224,64,61278,1,8,0:0:0:0:
228,55,61426,1,8,0:0:0:0:
224,64,61574,1,0,0:0:0:0:
245,70,61721,1,0,0:0:0:0:
245,70,61869,1,8,0:0:0:0:
245,70,62017,1,8,0:0:0:0:
245,70,62091,1,0,0:0:0:0:
245,70,62165,1,8,0:0:0:0:
245,70,62239,1,8,0:0:0:0:
245,70,62313,1,0,0:0:0:0:
269,90,62362,1,0,0:0:0:0:
270,85,62411,1,0,0:0:0:0:
270,85,62460,1,8,0:0:0:0:
263,82,62534,1,0,0:0:0:0:
263,82,62608,1,8,0:0:0:0:
270,85,62682,1,8,0:0:0:0:
263,82,62756,1,0,0:0:0:0:
270,85,62904,1,0,0:0:0:0:
260,80,63052,1,8,0:0:0:0:
260,80,63199,1,0,0:0:0:0:
260,80,63273,1,8,0:0:0:0:
260,80,63347,1,0,0:0:0:0:
260,80,63421,1,0,0:0:0:0:
260,80,63495,1,8,0:0:0:0:
260,80,63569,1,0,0:0:0:0:
260,80,63643,1,8,0:0:0:0:
260,80,63790,1,8,0:0:0:0:
292,88,63827,1,8,0:0:0:0:
260,80,63938,1,0,0:0:0:0:
271,80,64012,1,0,0:0:0:0:
271,80,64086,1,0,0:0:0:0:
271,80,64160,1,0,0:0:0:0:
271,80,64234,1,8,0:0:0:0:
271,80,64382,1,0,0:0:0:0:
264,82,64455,1,8,0:0:0:0:
264,82,64529,1,0,0:0:0:0:
264,82,64603,1,8,0:0:0:0:
264,82,64677,1,0,0:0:0:0:
278,76,64825,1,8,0:0:0:0:
224,96,65120,1,4,0:0:0:0:
224,96,65416,1,4,0:0:0:0:
224,96,65712,1,12,0:0:0:0:
244,78,66007,1,0,0:0:0:0:
269,85,66056,1,0,0:0:0:0:
269,83,66106,1,8,0:0:0:0:
269,83,66155,1,8,0:0:0:0:
243,88,66303,1,4,0:0:0:0:
243,88,66451,1,0,0:0:0:0:
281,89,66598,1,8,0:0:0:0:
269,90,66746,1,0,0:0:0:0:
266,86,66820,1,8,0:0:0:0:
269,90,66894,1,0,0:0:0:0:
269,90,66968,1,0,0:0:0:0:
266,86,67042,1,8,0:0:0:0:
266,86,67189,1,0,0:0:0:0:
266,86,67263,1,0,0:0:0:0:
266,86,67337,1,8,0:0:0:0:
266,86,67411,1,8,0:0:0:0:
266,86,67486,1,0,0:0:0:0:
258,90,67633,1,0,0:0:0:0:
258,90,67781,1,8,0:0:0:0:
258,90,67928,1,8,0:0:0:0:
258,90,68002,1,8,0:0:0:0:
258,90,68076,1,0,0:0:0:0:
258,90,68150,1,0,0:0:0:0:
298,92,68224,1,8,0:0:0:0:
298,92,68273,1,8,0:0:0:0:
362,48,68322,1,8,0:0:0:0:
297,78,68372,1,0,0:0:0:0:
288,74,68446,1,0,0:0:0:0:
288,74,68520,1,8,0:0:0:0:
288,74,68593,1,8,0:0:0:0:
288,74,68668,1,0,0:0:0:0:
288,74,68741,1,0,0:0:0:0:
288,74,68815,1,0,0:0:0:0:
288,74,68889,1,0,0:0:0:0:
288,74,68963,1,8,0:0:0:0:
282,76,69259,1,12,0:0:0:0:
282,76,69554,1,12,0:0:0:0:
282,76,69850,1,4,0:0:0:0:
282,76,70145,1,12,0:0:0:0:
282,76,70441,1,4,0:0:0:0:
264,63,70588,1,0,0:0:0:0:
264,63,70736,1,8,0:0:0:0:
264,63,70884,1,0,0:0:0:0:
264,63,70958,1,0,0:0:0:0:
264,63,71032,1,0,0:0:0:0:
264,63,71106,1,0,0:0:0:0:
264,63,71179,1,8,0:0:0:0:
274,73,71327,1,0,0:0:0:0:
295,62,71401,1,0,0:0:0:0:
293,65,71475,1,8,0:0:0:0:
293,65,71549,1,8,0:0:0:0:
293,65,71624,1,0,0:0:0:0:
288,61,72066,1,0,0:0:0:0:
288,61,72214,1,0,0:0:0:0:
288,61,72362,1,8,0:0:0:0:
288,61,72509,1,8,0:0:0:0:
288,61,72559,1,8,0:0:0:0:
288,61,72608,1,0,0:0:0:0:
288,61,72657,1,0,0:0:0:0:
288,61,72806,1,0,0:0:0:0:
289,56,73101,1,8,0:0:0:0:
289,56,73175,1,8,0:0:0:0:
306,65,73224,1,8,0:0:0:0:
295,60,73397,1,4,0:0:0:0:
295,60,73544,1,8,0:0:0:0:
295,58,73692,1,4,0:0:0:0:
295,58,73840,1,8,0:0:0:0:
295,60,73988,1,12,0:0:0:0:
295,60,74136,1,0,0:0:0:0:
295,60,74283,1,12,0:0:0:0:
295,60,74431,1,8,0:0:0:0:
295,60,74579,1,4,0:0:0:0:
295,60,74726,1,0,0:0:0:0:
295,60,74800,1,0,0:0:0:0:
317,89,74874,1,8,0:0:0:0:
315,84,75022,1,0,0:0:0:0:
323,79,75367,1,0,0:0:0:0:
323,79,75465,1,8,0:0:0:0:
339,83,75564,1,8,0:0:0:0:
302,78,75762,1,0,0:0:0:0:
302,78,75909,1,0,0:0:0:0:
341,88,76056,1,8,0:0:0:0:
342,79,76106,1,8,0:0:0:0:
342,79,76155,1,8,0:0:0:0:
342,79,76204,1,0,0:0:0:0:
342,79,76278,1,8,0:0:0:0:
342,79,76352,1,0,0:0:0:0:
330,73,76500,1,8,0:0:0:0:
330,73,76574,1,0,0:0:0:0:
330,73,76647,1,8,0:0:0:0:
324,77,76721,1,8,0:0:0:0:
330,73,76795,1,0,0:0:0:0:
324,77,76869,1,0,0:0:0:0:
324,77,76944,1,8,0:0:0:0:
309,52,77042,1,8,0:0:0:0:
310,51,77141,1,8,0:0:0:0:
313,61,77239,1,0,0:0:0:0:
314,61,77535,1,12,0:0:0:0:
314,61,77682,1,0,0:0:0:0:
314,61,77756,1,0,0:0:0:0:
314,61,77830,1,12,0:0:0:0:
314,61,77978,1,8,0:0:0:0:
314,61,78052,1,8,0:0:0:0:
314,61,78126,1,4,0:0:0:0:
314,61,78274,1,0,0:0:0:0:
314,61,78347,1,0,0:0:0:0:
314,61,78421,1,12,0:0:0:0:
314,61,78717,1,4,0:0:0:0:
301,56,78864,1,0,0:0:0:0:
301,56,79012,1,8,0:0:0:0:
301,56,79160,1,0,0:0:0:0:
301,56,79234,1,0,0:0:0:0:
301,56,79308,1,8,0:0:0:0:
301,56,79455,1,8,0:0:0:0:
301,56,79529,1,0,0:0:0:0:
301,56,79677,1,8,0:0:0:0:
301,56,79751,1,8,0:0:0:0:
301,56,79899,1,0,0:0:0:0:
301,56,80047,1,0,0:0:0:0:
277,56,80194,1,8,0:0:0:0:
300,60,80342,1,0,0:0:0:0:
303,59,80416,1,8,0:0:0:0:
300,60,80490,1,8,0:0:0:0:
303,59,80638,1,0,0:0:0:0:
300,60,80712,1,8,0:0:0:0:
303,59,80785,1,0,0:0:0:0:
303,59,80859,1,0,0:0:0:0:
300,60,80933,1,8,0:0:0:0:
303,59,81082,1,0,0:0:0:0:
335,51,81155,1,8,0:0:0:0:
323,63,81673,1,4,0:0:0:0:
323,63,81968,1,4,0:0:0:0:
323,63,82264,1,4,0:0:0:0:
323,63,82559,1,12,0:0:0:0:
323,63,82707,1,8,0:0:0:0:
323,63,82855,1,4,0:0:0:0:
336,73,83002,1,0,0:0:0:0:
336,73,83150,1,8,0:0:0:0:
341,67,83298,1,0,0:0:0:0:
341,67,83372,1,8,0:0:0:0:
332,72,83520,1,8,0:0:0:0:
332,72,83593,1,8,0:0:0:0:
332,72,83741,1,0,0:0:0:0:
332,72,83815,1,8,0:0:0:0:
332,72,83963,1,8,0:0:0:0:
332,72,84037,1,0,0:0:0:0:
342,67,84185,1,0,0:0:0:0:
342,67,84332,1,8,0:0:0:0:
325,64,84480,1,0,0:0:0:0:
317,63,84554,1,8,0:0:0:0:
327,64,84628,1,0,0:0:0:0:
327,64,84702,1,0,0:0:0:0:
327,64,84776,1,8,0:0:0:0:
336,58,84923,1,8,0:0:0:0:
336,58,84997,1,8,0:0:0:0:
336,58,85071,1,0,0:0:0:0:
336,58,85145,1,0,0:0:0:0:
336,58,85219,1,0,0:0:0:0:
336,58,85367,1,8,0:0:0:0:
336,58,85441,1,0,0:0:0:0:
336,58,85515,1,8,0:0:0:0:
311,72,85588,1,8,0:0:0:0:
326,65,85736,1,8,0:0:0:0:
326,54,85810,1,0,0:0:0:0:
333,62,85847,1,0,0:0:0:0:
323,48,85958,1,0,0:0:0:0:
333,62,85995,1,0,0:0:0:0:
323,48,86106,1,8,0:0:0:0:
333,61,86143,1,8,0:0:0:0:
333,61,86254,1,8,0:0:0:0:
333,61,86290,1,8,0:0:0:0:
342,50,86401,1,0,0:0:0:0:
359,73,86549,1,8,0:0:0:0:
333,61,86623,1,8,0:0:0:0:
342,52,86697,1,0,0:0:0:0:
346,50,86845,1,8,0:0:0:0:
353,53,86919,1,8,0:0:0:0:
340,51,86992,1,0,0:0:0:0:
353,53,87140,1,0,0:0:0:0:
353,53,87214,1,0,0:0:0:0:
340,51,87288,1,8,0:0:0:0:
353,53,87436,1,8,0:0:0:0:
340,51,87584,1,0,0:0:0:0:
349,54,87731,1,0,0:0:0:0:
349,54,87879,1,8,0:0:0:0:
349,54,88027,1,0,0:0:0:0:
349,54,88101,1,8,0:0:0:0:
349,54,88175,1,0,0:0:0:0:
349,54,88249,1,8,0:0:0:0:
349,54,88322,1,0,0:0:0:0:
349,54,88396,1,0,0:0:0:0:
349,54,88470,1,8,0:0:0:0:
372,61,88520,1,8,0:0:0:0:
372,61,88569,1,8,0:0:0:0:
372,61,88618,1,0,0:0:0:0:
362,60,88692,1,0,0:0:0:0:
351,54,88766,1,8,0:0:0:0:
351,54,88914,1,8,0:0:0:0:
364,54,89061,1,0,0:0:0:0:
364,54,89209,1,0,0:0:0:0:
364,54,89357,1,0,0:0:0:0:
364,54,89431,1,8,0:0:0:0:
364,54,89505,1,8,0:0:0:0:
364,54,89554,1,8,0:0:0:0:
305,65,89603,1,8,0:0:0:0:
337,59,89653,1,8,0:0:0:0:
340,51,89800,1,8,0:0:0:0:
334,46,89948,1,0,0:0:0:0:
334,46,90096,1,0,0:0:0:0:
334,46,90244,1,8,0:0:0:0:
334,46,90391,1,0,0:0:0:0:
334,46,90465,1,8,0:0:0:0:
334,46,90539,1,0,0:0:0:0:
334,46,90613,1,0,0:0:0:0:
334,46,90687,1,8,0:0:0:0:
321,52,90736,1,8,0:0:0:0:
321,52,90786,1,8,0:0:0:0:
321,52,90835,1,0,0:0:0:0:
331,50,91130,1,0,0:0:0:0:
331,50,91278,1,8,0:0:0:0:
331,50,91426,1,0,0:0:0:0:
337,39,91574,1,8,0:0:0:0:
331,50,91721,1,0,0:0:0:0:
337,39,91869,1,8,0:0:0:0:
337,39,91943,1,0,0:0:0:0:
331,50,92017,1,8,0:0:0:0:
316,56,92054,1,8,0:0:0:0:
337,39,92165,1,8,0:0:0:0:
318,75,92202,1,8,0:0:0:0:
331,50,92313,1,0,0:0:0:0:
342,45,92460,1,0,0:0:0:0:
342,45,92608,1,8,0:0:0:0:
342,45,92756,1,0,0:0:0:0:
342,45,92830,1,8,0:0:0:0:
342,45,92904,1,0,0:0:0:0:
342,45,92978,1,0,0:0:0:0:
342,45,93052,1,8,0:0:0:0:
335,41,93199,1,0,0:0:0:0:
335,41,93273,1,0,0:0:0:0:
335,41,93347,1,8,0:0:0:0:
335,41,93421,1,8,0:0:0:0:
335,41,93495,1,0,0:0:0:0:
335,41,93643,1,0,0:0:0:0:
335,41,93790,1,8,0:0:0:0:
338,47,93938,1,8,0:0:0:0:
337,47,94012,1,8,0:0:0:0:
338,47,94086,1,0,0:0:0:0:
337,47,94234,1,8,0:0:0:0:
320,56,94283,1,8,0:0:0:0:
318,45,94382,1,0,0:0:0:0:
322,47,94455,1,8,0:0:0:0:
318,45,94603,1,0,0:0:0:0:
322,47,94677,1,8,0:0:0:0:
322,47,94899,1,8,0:0:0:0:
322,47,95121,1,8,0:0:0:0:
322,47,95268,1,0,0:0:0:0:
322,47,95342,1,0,0:0:0:0:
322,47,95416,1,0,0:0:0:0:
351,58,95564,1,8,0:0:0:0:
347,49,95613,1,8,0:0:0:0:
347,49,95662,1,8,0:0:0:0:
325,56,95712,1,0,0:0:0:0:
318,57,95786,1,8,0:0:0:0:
325,56,95859,1,0,0:0:0:0:
328,56,96007,1,8,0:0:0:0:
325,56,96081,1,0,0:0:0:0:
328,56,96155,1,0,0:0:0:0:
325,56,96303,1,8,0:0:0:0:
325,56,96451,1,0,0:0:0:0:
325,56,96598,1,0,0:0:0:0:
325,56,96746,1,8,0:0:0:0:
325,56,96894,1,8,0:0:0:0:
333,51,97042,1,0,0:0:0:0:
333,51,97189,1,0,0:0:0:0:
333,51,97337,1,8,0:0:0:0:
327,55,97485,1,0,0:0:0:0:
328,56,97559,1,8,0:0:0:0:
327,55,97633,1,0,0:0:0:0:
328,56,97707,1,0,0:0:0:0:
328,56,97781,1,8,0:0:0:0:
317,67,97818,1,8,0:0:0:0:
321,46,97928,1,0,0:0:0:0:
336,56,98002,1,8,0:0:0:0:
328,56,98150,1,8,0:0:0:0:
327,55,98224,1,0,0:0:0:0:
328,56,98372,1,0,0:0:0:0:
327,55,98520,1,8,0:0:0:0:
327,55,98667,1,0,0:0:0:0:
328,63,98741,1,0,0:0:0:0:
328,63,98815,1,0,0:0:0:0:
328,63,98889,1,0,0:0:0:0:
328,63,98963,1,8,0:0:0:0:
328,63,99037,1,0,0:0:0:0:
328,63,99111,1,8,0:0:0:0:
314,48,99258,1,8,0:0:0:0:
314,47,99308,1,8,0:0:0:0:
314,48,99357,1,8,0:0:0:0:
314,48,99406,1,0,0:0:0:0:
328,57,99554,1,0,0:0:0:0:
328,57,99702,1,8,0:0:0:0:
328,57,99850,1,0,0:0:0:0:
328,57,99923,1,8,0:0:0:0:
328,57,99997,1,0,0:0:0:0:
328,57,100071,1,8,0:0:0:0:
328,57,100145,1,0,0:0:0:0:
328,57,100293,1,8,0:0:0:0:
324,57,102953,1,0,0:0:0:0:
324,57,103027,1,8,0:0:0:0:
293,60,105761,1,8,0:0:0:0:
293,60,105835,1,8,0:0:0:0:
293,60,105909,1,4,0:0:0:0:
293,60,106045,1,8,0:0:0:0:
293,60,106113,1,8,0:0:0:0:
293,60,106181,1,0,0:0:0:0:
293,60,106318,1,8,0:0:0:0:
293,60,106386,1,0,0:0:0:0:
286,63,106454,1,8,0:0:0:0:
286,62,106590,1,0,0:0:0:0:
286,63,106659,1,0,0:0:0:0:
286,62,106727,1,8,0:0:0:0:
286,63,106863,1,8,0:0:0:0:
286,63,106999,1,0,0:0:0:0:
286,63,107136,1,8,0:0:0:0:
286,63,107204,1,0,0:0:0:0:
286,63,107272,1,8,0:0:0:0:
286,63,107409,1,8,0:0:0:0:
286,63,107477,1,0,0:0:0:0:
286,63,107545,1,8,0:0:0:0:
286,63,107681,1,8,0:0:0:0:
284,52,107818,1,0,0:0:0:0:
286,63,107886,1,8,0:0:0:0:
284,52,107954,1,8,0:0:0:0:
284,52,108022,1,8,0:0:0:0:
284,52,108090,1,0,0:0:0:0:
284,44,108226,1,0,0:0:0:0:
277,56,108362,1,8,0:0:0:0:
281,48,108499,1,0,0:0:0:0:
281,48,108567,1,8,0:0:0:0:
281,48,108635,1,0,0:0:0:0:
281,48,108703,1,0,0:0:0:0:
281,48,108771,1,8,0:0:0:0:
281,48,108840,1,8,0:0:0:0:
281,48,108908,1,0,0:0:0:0:
272,43,109044,1,8,0:0:0:0:
272,43,109180,1,8,0:0:0:0:
256,37,109249,1,8,0:0:0:0:
272,43,109317,1,8,0:0:0:0:
263,47,109453,1,0,0:0:0:0:
263,47,109521,1,8,0:0:0:0:
271,54,109590,1,8,0:0:0:0:
263,47,109658,1,8,0:0:0:0:
272,55,109727,5,0,0:0:0:0:
270,44,109863,1,8,0:0:0:0:
273,48,109999,1,0,0:0:0:0:
273,48,110136,1,8,0:0:0:0:
273,48,110204,1,8,0:0:0:0:
273,49,110272,1,0,0:0:0:0:
273,48,110408,1,8,0:0:0:0:
286,56,110545,1,0,0:0:0:0:
267,45,110681,1,8,0:0:0:0:
267,45,110749,1,0,0:0:0:0:
267,45,110817,1,8,0:0:0:0:
267,45,111022,1,8,0:0:0:0:
267,45,111227,1,0,0:0:0:0:
267,45,111431,1,0,0:0:0:0:
268,47,111636,1,0,0:0:0:0:
262,41,111704,1,0,0:0:0:0:
262,41,111772,1,0,0:0:0:0:
261,41,111840,1,0,0:0:0:0:
262,41,111909,1,8,0:0:0:0:
261,41,112045,1,0,0:0:0:0:
262,41,112113,1,8,0:0:0:0:
255,36,112181,1,0,0:0:0:0:
263,48,112318,1,8,0:0:0:0:
267,47,112386,1,8,0:0:0:0:
263,48,112522,1,8,0:0:0:0:
259,50,112659,1,0,0:0:0:0:
262,41,112727,1,8,0:0:0:0:
271,42,112772,1,8,0:0:0:0:
269,43,112818,1,8,0:0:0:0:
267,35,112863,1,0,0:0:0:0:
281,43,112931,1,0,0:0:0:0:
276,35,112999,1,8,0:0:0:0:
267,35,113068,1,0,0:0:0:0:
267,35,113272,1,8,0:0:0:0:
266,37,113340,1,8,0:0:0:0:
267,35,113409,1,8,0:0:0:0:
267,35,113477,1,8,0:0:0:0:
266,37,113545,1,0,0:0:0:0:
234,119,113681,1,8,0:0:0:0:
280,78,113817,1,0,0:0:0:0:
280,78,113954,1,8,0:0:0:0:
280,78,114022,1,8,0:0:0:0:
280,78,114090,1,0,0:0:0:0:
273,61,114226,1,8,0:0:0:0:
287,58,114363,1,8,0:0:0:0:
286,66,114454,1,0,0:0:0:0:
314,75,114545,1,0,0:0:0:0:
314,74,114635,1,0,0:0:0:0:
303,72,114772,1,0,0:0:0:0:
303,72,114908,1,8,0:0:0:0:
303,72,115045,1,8,0:0:0:0:
303,72,115181,1,8,0:0:0:0:
320,60,115272,1,8,0:0:0:0:
303,72,115363,1,0,0:0:0:0:
312,63,115454,1,0,0:0:0:0:
306,61,115727,1,0,0:0:0:0:
306,61,115863,1,8,0:0:0:0:
303,75,115931,1,8,0:0:0:0:
306,61,115999,1,0,0:0:0:0:
303,75,116136,1,8,0:0:0:0:
303,75,116272,1,0,0:0:0:0:
302,68,116408,1,8,0:0:0:0:
307,68,116477,1,8,0:0:0:0:
302,68,116545,1,0,0:0:0:0:
298,74,116681,1,8,0:0:0:0:
307,68,116817,1,8,0:0:0:0:
287,65,116886,1,8,0:0:0:0:
307,68,116954,1,8,0:0:0:0:
287,65,117090,1,0,0:0:0:0:
286,65,117158,1,8,0:0:0:0:
287,65,117227,1,8,0:0:0:0:
287,65,117295,1,8,0:0:0:0:
286,65,117363,1,0,0:0:0:0:
287,65,117499,1,8,0:0:0:0:
287,65,117635,1,0,0:0:0:0:
287,65,117772,1,8,0:0:0:0:
287,65,117840,1,8,0:0:0:0:
287,65,117908,1,0,0:0:0:0:
287,65,118044,1,8,0:0:0:0:
285,63,118181,1,0,0:0:0:0:
285,63,118317,1,8,0:0:0:0:
285,63,118385,1,0,0:0:0:0:
285,63,118453,1,8,0:0:0:0:
285,63,118658,1,8,0:0:0:0:
285,63,118863,1,0,0:0:0:0:
285,63,119067,1,0,0:0:0:0:
285,63,119272,1,0,0:0:0:0:
285,63,119340,1,0,0:0:0:0:
285,63,119408,1,0,0:0:0:0:
285,63,119476,1,0,0:0:0:0:
285,63,119545,1,8,0:0:0:0:
285,63,119681,1,0,0:0:0:0:
285,63,119749,1,8,0:0:0:0:
285,63,119817,1,0,0:0:0:0:
285,63,119954,1,8,0:0:0:0:
285,63,120022,1,8,0:0:0:0:
292,69,120158,1,8,0:0:0:0:
292,69,120295,1,0,0:0:0:0:
292,69,120363,1,8,0:0:0:0:
306,57,120408,1,8,0:0:0:0:
292,69,120454,1,8,0:0:0:0:
293,61,120499,1,0,0:0:0:0:
291,61,120567,1,0,0:0:0:0:
282,67,120635,1,8,0:0:0:0:
281,68,120704,1,0,0:0:0:0:
288,55,120908,1,8,0:0:0:0:
288,55,120976,1,8,0:0:0:0:
288,55,121045,1,8,0:0:0:0:
288,55,121113,1,8,0:0:0:0:
279,58,121181,1,0,0:0:0:0:
309,56,121271,1,0,0:0:0:0:
299,60,121362,1,0,0:0:0:0:
312,72,121499,1,0,0:0:0:0:
330,64,121681,1,0,0:0:0:0:
311,60,122272,1,0,0:0:0:0:
