osu file format v14

[General]
AudioFilename: audio.mp3
AudioLeadIn: 0
PreviewTime: 46130
Countdown: 0
SampleSet: Normal
StackLeniency: 0.7
Mode: 1
LetterboxInBreaks: 0
WidescreenStoryboard: 1

[Editor]
Bookmarks: 97,14284,30835,47387,66303,82855,100293,105909,122272
DistanceSpacing: 1.8
BeatDivisor: 1
GridSize: 32
TimelineZoom: 1.100006

[Metadata]
Title:Amen Iraq
TitleUnicode:Amen Iraq
Artist:The Flashbulb
ArtistUnicode:The Flashbulb
Creator:Kqrth
Version:Kantan
Source:osu!
Tags:electronic instrumental nifty mappers' guild fa featured artist benn jordan flexing habitual breakcore
BeatmapID:2025137
BeatmapSetID:966251

[Difficulty]
HPDrainRate:7
CircleSize:5
OverallDifficulty:3
ApproachRate:5
SliderMultiplier:1.4
SliderTickRate:1

[Events]
//Background and Video events
0,0,"bg.jpg",0,20
//Break Periods
//Storyboard Layer 0 (Background)
//Storyboard Layer 1 (Fail)
//Storyboard Layer 2 (Pass)
//Storyboard Layer 3 (Foreground)
//Storyboard Layer 4 (Overlay)
//Storyboard Sound Samples

[TimingPoints]
97,295.566502463054,4,1,0,50,1,0
13028,-100,4,1,0,70,0,0
14284,-100,4,1,0,70,0,1
15466,295.566502463054,6,1,0,70,1,1
18421,295.566502463054,4,1,0,70,1,9
18422,295.566502463054,4,1,0,70,1,1
19604,295.566502463054,6,1,0,70,1,1
22559,295.566502463054,4,1,0,70,1,9
22560,295.566502463054,4,1,0,70,1,1
23742,295.566502463054,6,1,0,70,1,1
26697,295.566502463054,4,1,0,70,1,1
27879,295.566502463054,4,1,0,70,1,9
27880,295.566502463054,6,1,0,70,1,1
30835,295.566502463054,4,1,0,70,1,0
30835,-100,4,1,0,70,0,0
32017,295.566502463054,4,1,0,70,1,8
32018,295.566502463054,6,1,0,70,1,0
34973,295.566502463054,4,1,0,70,1,0
36155,295.566502463054,4,1,0,70,1,8
36156,295.566502463054,6,1,0,70,1,0
39111,295.566502463054,4,1,0,70,1,0
40293,295.566502463054,4,1,0,70,1,8
40294,295.566502463054,6,1,0,70,1,0
43249,295.566502463054,4,1,0,70,1,0
44431,295.566502463054,6,1,0,70,1,0
47386,295.566502463054,4,1,0,70,1,8
47387,295.566502463054,4,1,0,70,1,1
47387,-100,4,1,0,70,0,1
66303,-100,4,1,0,70,0,0
67485,295.566502463054,4,1,0,70,1,8
67486,295.566502463054,6,1,0,70,1,0
70441,295.566502463054,4,1,0,70,1,0
71623,295.566502463054,4,1,0,70,1,8
71624,295.566502463054,6,1,0,70,1,0
74579,295.566502463054,4,1,0,70,1,0
75761,295.566502463054,4,1,0,70,1,8
75762,295.566502463054,6,1,0,70,1,0
78717,295.566502463054,4,1,0,70,1,0
79899,295.566502463054,6,1,0,70,1,0
82854,295.566502463054,4,1,0,70,1,8
82855,295.566502463054,4,1,0,70,1,1
82855,-100,4,1,0,70,0,1
100293,-100,4,1,0,70,0,0
100367,-111.111111111111,4,1,0,5,0,0
100588,295.566502463054,18,1,0,5,1,8
102880,-111.111111111111,4,1,0,20,0,0
104060,-111.111111111111,4,1,0,10,0,0
105835,-100,4,1,0,70,0,0
105908,295.566502463054,4,1,0,70,1,8
105909,272.727272727273,7,1,0,70,1,0
113545,272.727272727273,8,1,0,70,1,0
117363,272.727272727273,7,1,0,70,1,0
122272,545.454545454546,4,1,0,70,1,0
122272,-50,4,1,0,70,0,0

[HitObjects]
256,192,13101,5,0,0:0:0:0:
256,192,14284,1,8,0:0:0:0:
256,192,14875,1,0,0:0:0:0:
256,192,15170,1,0,0:0:0:0:
256,192,15466,1,8,0:0:0:0:
256,192,16057,1,8,0:0:0:0:
256,192,16648,1,0,0:0:0:0:
256,192,17239,1,0,0:0:0:0:
256,192,18422,5,8,0:0:0:0:
256,192,19013,1,0,0:0:0:0:
256,192,19308,1,8,0:0:0:0:
256,192,19604,1,0,0:0:0:0:
256,192,20195,1,8,0:0:0:0:
256,192,20786,1,0,0:0:0:0:
256,192,21377,1,0,0:0:0:0:
256,192,22560,1,8,0:0:0:0:
256,192,23151,1,0,0:0:0:0:
256,192,23446,1,0,0:0:0:0:
256,192,23742,1,8,0:0:0:0:
256,192,24333,1,8,0:0:0:0:
256,192,24924,1,0,0:0:0:0:
256,192,25515,1,0,0:0:0:0:
256,192,26697,1,8,0:0:0:0:
256,192,27288,1,0,0:0:0:0:
256,192,27583,1,8,0:0:0:0:
256,192,27880,1,0,0:0:0:0:
256,192,28471,1,8,0:0:0:0:
256,192,28766,1,8,0:0:0:0:
256,192,29062,1,0,0:0:0:0:
256,192,29653,1,8,0:0:0:0:
256,192,30835,1,4,0:0:0:0:
256,192,31278,1,8,0:0:0:0:
256,192,32018,1,0,0:0:0:0:
256,192,32313,1,8,0:0:0:0:
256,192,32756,1,8,0:0:0:0:
256,192,33200,1,0,0:0:0:0:
256,192,33791,1,0,0:0:0:0:
256,192,34973,1,0,0:0:0:0:
256,192,35416,1,8,0:0:0:0:
256,192,36156,1,0,0:0:0:0:
256,192,36451,1,8,0:0:0:0:
256,192,36894,1,8,0:0:0:0:
256,192,37338,1,0,0:0:0:0:
256,192,37633,1,8,0:0:0:0:
256,192,37929,1,0,0:0:0:0:
256,192,39111,1,0,0:0:0:0:
256,192,39554,1,8,0:0:0:0:
256,192,39997,1,0,0:0:0:0:
256,192,40294,1,0,0:0:0:0:
256,192,40589,1,8,0:0:0:0:
256,192,41032,1,8,0:0:0:0:
256,192,41476,1,0,0:0:0:0:
256,192,42067,1,0,0:0:0:0:
256,192,43249,1,0,0:0:0:0:
256,192,43840,1,8,0:0:0:0:
256,192,44431,1,0,0:0:0:0:
256,192,44726,1,8,0:0:0:0:
256,192,45022,1,8,0:0:0:0:
256,192,45613,1,0,0:0:0:0:
256,192,47091,1,8,0:0:0:0:
256,192,47387,1,4,0:0:0:0:
256,192,47978,1,0,0:0:0:0:
256,192,48569,1,8,0:0:0:0:
256,192,49160,1,0,0:0:0:0:
256,192,49455,1,8,0:0:0:0:
256,192,49751,1,0,0:0:0:0:
256,192,50342,1,0,0:0:0:0:
256,192,50933,1,8,0:0:0:0:
256,192,52116,1,4,0:0:0:0:
256,192,52707,1,0,0:0:0:0:
256,192,53002,1,8,0:0:0:0:
256,192,53298,1,0,0:0:0:0:
256,192,53889,1,8,0:0:0:0:
256,192,54480,1,8,0:0:0:0:
256,192,55071,1,0,0:0:0:0:
256,192,55662,1,8,0:0:0:0:
256,192,56845,1,4,0:0:0:0:
256,192,57436,1,0,0:0:0:0:
256,192,58027,1,8,0:0:0:0:
256,192,58618,1,0,0:0:0:0:
256,192,58914,1,0,0:0:0:0:
256,192,59209,1,8,0:0:0:0:
256,192,59505,1,8,0:0:0:0:
256,192,59800,1,0,0:0:0:0:
256,192,60391,1,8,0:0:0:0:
256,192,61574,1,4,0:0:0:0:
256,192,62165,1,0,0:0:0:0:
256,192,62756,1,8,0:0:0:0:
256,192,63347,1,0,0:0:0:0:
256,192,63643,1,8,0:0:0:0:
256,192,63938,1,0,0:0:0:0:
256,192,64529,1,0,0:0:0:0:
256,192,64825,1,8,0:0:0:0:
256,192,66303,1,4,0:0:0:0:
256,192,66746,1,8,0:0:0:0:
256,192,67486,1,0,0:0:0:0:
256,192,67781,1,8,0:0:0:0:
256,192,68224,1,8,0:0:0:0:
256,192,68668,1,0,0:0:0:0:
256,192,68963,1,8,0:0:0:0:
256,192,69259,1,0,0:0:0:0:
256,192,70441,1,0,0:0:0:0:
256,192,70884,1,8,0:0:0:0:
256,192,71327,1,8,0:0:0:0:
256,192,71624,1,0,0:0:0:0:
256,192,72215,1,0,0:0:0:0:
256,192,72510,1,8,0:0:0:0:
256,192,72806,1,0,0:0:0:0:
256,192,73397,1,0,0:0:0:0:
256,192,74579,1,0,0:0:0:0:
256,192,75022,1,8,0:0:0:0:
256,192,75465,1,8,0:0:0:0:
256,192,75762,1,0,0:0:0:0:
256,192,76057,1,8,0:0:0:0:
256,192,76500,1,8,0:0:0:0:
256,192,76944,1,0,0:0:0:0:
256,192,77535,1,0,0:0:0:0:
256,192,78717,1,0,0:0:0:0:
256,192,79308,1,8,0:0:0:0:
256,192,79899,1,0,0:0:0:0:
256,192,80194,1,8,0:0:0:0:
256,192,80490,1,8,0:0:0:0:
256,192,81081,1,0,0:0:0:0:
256,192,82559,1,8,0:0:0:0:
256,192,82855,1,4,0:0:0:0:
256,192,83446,1,0,0:0:0:0:
256,192,83741,1,0,0:0:0:0:
256,192,84037,1,8,0:0:0:0:
256,192,84628,1,8,0:0:0:0:
256,192,84923,1,0,0:0:0:0:
256,192,85219,1,8,0:0:0:0:
256,192,85810,1,8,0:0:0:0:
256,192,86401,1,0,0:0:0:0:
256,192,87584,1,4,0:0:0:0:
256,192,88175,1,0,0:0:0:0:
256,192,88470,1,0,0:0:0:0:
256,192,88766,1,8,0:0:0:0:
256,192,89357,1,8,0:0:0:0:
256,192,89653,1,8,0:0:0:0:
256,192,89948,1,0,0:0:0:0:
256,192,90539,1,0,0:0:0:0:
256,192,91130,1,8,0:0:0:0:
256,192,92313,1,4,0:0:0:0:
256,192,92904,1,8,0:0:0:0:
256,192,93199,1,0,0:0:0:0:
256,192,93495,1,8,0:0:0:0:
256,192,94086,1,0,0:0:0:0:
256,192,94382,1,8,0:0:0:0:
256,192,94677,1,0,0:0:0:0:
256,192,95268,1,8,0:0:0:0:
256,192,95859,1,0,0:0:0:0:
256,192,97042,1,4,0:0:0:0:
256,192,97633,1,0,0:0:0:0:
256,192,97928,1,0,0:0:0:0:
256,192,98224,1,8,0:0:0:0:
256,192,98815,1,8,0:0:0:0:
256,192,99111,1,0,0:0:0:0:
256,192,99406,1,8,0:0:0:0:
256,192,99997,1,8,0:0:0:0:
256,192,100293,1,0,0:0:0:0:
256,192,102952,12,8,105317,0:0:0:0:
256,192,105909,5,4,0:0:0:0:
256,192,106181,1,4,0:0:0:0:
256,192,106454,1,4,0:0:0:0:
256,192,106999,1,12,0:0:0:0:
256,192,107818,1,0,0:0:0:0:
256,192,108090,1,0,0:0:0:0:
256,192,108363,1,0,0:0:0:0:
256,192,108636,1,0,0:0:0:0:
256,192,109045,1,8,0:0:0:0:
256,192,109454,1,8,0:0:0:0:
256,192,109727,1,0,0:0:0:0:
256,192,110272,1,0,0:0:0:0:
256,192,110545,1,0,0:0:0:0:
256,192,110818,1,8,0:0:0:0:
256,192,111636,1,0,0:0:0:0:
256,192,111909,1,8,0:0:0:0:
256,192,112318,1,8,0:0:0:0:
256,192,112727,1,8,0:0:0:0:
256,192,112999,1,0,0:0:0:0:
256,192,113545,1,0,0:0:0:0:
256,192,113817,1,0,0:0:0:0:
256,192,114090,1,0,0:0:0:0:
256,192,114363,1,8,0:0:0:0:
256,192,115726,5,0,0:0:0:0:
256,192,115999,1,0,0:0:0:0:
256,192,116272,1,0,0:0:0:0:
256,192,116681,1,8,0:0:0:0:
256,192,117090,1,8,0:0:0:0:
256,192,117363,1,0,0:0:0:0:
256,192,117908,1,0,0:0:0:0:
256,192,118181,1,0,0:0:0:0:
256,192,118453,1,8,0:0:0:0:
256,192,119272,1,0,0:0:0:0:
256,192,119544,1,8,0:0:0:0:
256,192,119953,1,8,0:0:0:0:
256,192,120363,1,8,0:0:0:0:
256,192,120635,1,0,0:0:0:0:
256,192,121181,12,8,122272,0:0:0:0:
