osu file format v14

[General]
AudioFilename: audio.mp3
AudioLeadIn: 0
PreviewTime: 91887
Countdown: 1
SampleSet: None
StackLeniency: 0.7
Mode: 1
LetterboxInBreaks: 0
WidescreenStoryboard: 1

[Editor]
Bookmarks: 145,6460,12776,25408,38039,50671,63302,75934,91978,103614,115250,126887,138523,150159,161796,173432,185068,196705,208341,219978,231614,243250,254887,266523,278159
DistanceSpacing: 0.6
BeatDivisor: 4
GridSize: 32
TimelineZoom: 1.6

[Metadata]
Title:A Raw Understanding
TitleUnicode:A Raw Understanding
Artist:The Flashbulb
ArtistUnicode:The Flashbulb
Creator:KaEDe1106
Version:Oni
Source:osu!
Tags:instrumental electronic breakcore Arboreal featured artist fa
BeatmapID:3087676
BeatmapSetID:1507548

[Difficulty]
HPDrainRate:6
CircleSize:5
OverallDifficulty:6
ApproachRate:5
SliderMultiplier:1.4
SliderTickRate:1

[Events]
//Background and Video events
0,0,"131754.jpg",0,0
//Break Periods
2,38239,49471
//Storyboard Layer 0 (Background)
//Storyboard Layer 1 (Fail)
//Storyboard Layer 2 (Pass)
//Storyboard Layer 3 (Foreground)
//Storyboard Layer 4 (Overlay)
//Storyboard Sound Samples

[TimingPoints]
145,394.736842105263,4,1,0,90,1,0
145,-100,4,1,0,90,0,1
3237,-100,4,1,0,85,0,1
3302,-100,4,1,0,85,0,0
6394,-100,4,1,0,90,0,0
6460,-100,4,1,0,90,0,1
9552,-100,4,1,0,85,0,1
9618,-100,4,1,0,85,0,0
12710,-100,4,1,0,90,0,0
38138,-100,4,1,0,50,0,0
50572,-100,4,1,0,90,0,0
63204,-100,4,1,0,95,0,0
75934,392.156862745098,4,1,0,95,1,0
76032,-100,4,1,0,50,0,0
86914,389.61038961039,4,1,0,40,1,0
90030,392.156862745098,5,1,0,40,1,0
91887,-100,5,1,0,90,0,0
91990,363.636363636364,4,1,0,90,1,0
138470,-100,4,1,0,95,0,0
138531,-100,4,1,0,95,0,1
161713,-100,4,1,0,90,0,1
161804,-100,4,1,0,90,0,0
208258,-100,4,1,0,85,0,0
219925,-100,4,1,0,95,0,0
219986,-100,4,1,0,95,0,1
231561,-100,4,1,0,90,0,1
231622,-100,4,1,0,90,0,0
254834,-100,4,1,0,95,0,0
254895,-100,4,1,0,95,0,1
278107,-100,4,1,0,60,0,1
278167,-100,4,1,0,60,0,0
278289,-100,4,1,0,40,0,0

[HitObjects]
256,184,145,5,0,0:0:0:0:
256,184,342,1,0,0:0:0:0:
256,184,539,1,8,0:0:0:0:
256,192,1131,1,0,0:0:0:0:
256,192,1329,1,8,0:0:0:0:
256,192,1723,1,0,0:0:0:0:
256,192,1921,1,0,0:0:0:0:
256,192,2118,1,8,0:0:0:0:
256,192,2513,1,8,0:0:0:0:
256,192,2908,1,0,0:0:0:0:
256,192,3105,1,8,0:0:0:0:
256,192,3302,1,8,0:0:0:0:
256,192,3500,1,0,0:0:0:0:
256,192,3894,1,8,0:0:0:0:
256,192,4092,1,0,0:0:0:0:
256,192,4487,1,8,0:0:0:0:
256,192,4684,1,0,0:0:0:0:
256,192,5079,1,8,0:0:0:0:
256,192,5375,1,0,0:0:0:0:
256,192,5671,1,8,0:0:0:0:
256,192,6263,1,8,0:0:0:0:
256,192,6460,1,0,0:0:0:0:
256,192,6658,1,0,0:0:0:0:
256,192,6855,1,8,0:0:0:0:
256,192,7250,1,0,0:0:0:0:
256,192,7348,1,0,0:0:0:0:
256,192,7447,1,0,0:0:0:0:
256,192,7644,1,8,0:0:0:0:
256,192,8039,1,0,0:0:0:0:
256,192,8237,1,0,0:0:0:0:
256,192,8434,1,8,0:0:0:0:
256,192,8829,1,8,0:0:0:0:
256,192,9223,1,0,0:0:0:0:
256,192,9421,1,8,0:0:0:0:
256,192,9618,1,8,0:0:0:0:
256,192,9816,1,0,0:0:0:0:
256,192,10210,1,8,0:0:0:0:
256,192,10408,1,0,0:0:0:0:
256,192,10802,1,8,0:0:0:0:
256,192,11000,1,0,0:0:0:0:
256,192,11394,1,8,0:0:0:0:
256,192,11691,1,0,0:0:0:0:
256,192,11987,1,8,0:0:0:0:
256,192,12776,1,0,0:0:0:0:
256,192,13171,1,0,0:0:0:0:
256,192,13566,1,8,0:0:0:0:
256,192,13960,1,8,0:0:0:0:
256,192,14158,1,0,0:0:0:0:
256,192,14355,1,0,0:0:0:0:
256,192,14750,1,0,0:0:0:0:
256,192,15144,1,8,0:0:0:0:
256,192,15539,1,8,0:0:0:0:
256,192,15737,1,0,0:0:0:0:
256,192,15934,1,0,0:0:0:0:
256,192,16329,1,0,0:0:0:0:
256,192,16526,1,0,0:0:0:0:
256,192,16723,1,8,0:0:0:0:
256,192,17118,1,8,0:0:0:0:
256,192,17316,1,0,0:0:0:0:
256,192,17513,1,0,0:0:0:0:
256,192,17710,1,8,0:0:0:0:
256,192,17908,1,0,0:0:0:0:
256,192,18302,1,8,0:0:0:0:
256,192,18697,1,8,0:0:0:0:
256,192,19092,1,0,0:0:0:0:
256,192,19289,1,0,0:0:0:0:
256,192,19487,1,0,0:0:0:0:
256,192,19684,1,0,0:0:0:0:
256,192,19881,1,8,0:0:0:0:
256,192,20276,1,8,0:0:0:0:
256,192,20473,1,0,0:0:0:0:
256,192,20671,1,0,0:0:0:0:
256,192,20868,1,0,0:0:0:0:
256,192,21066,1,8,0:0:0:0:
256,192,21460,1,8,0:0:0:0:
256,192,21658,1,8,0:0:0:0:
256,192,21855,1,0,0:0:0:0:
256,192,22052,1,8,0:0:0:0:
256,192,22250,1,0,0:0:0:0:
256,192,22447,1,0,0:0:0:0:
256,192,22644,1,0,0:0:0:0:
256,192,22842,1,0,0:0:0:0:
256,192,23039,1,8,0:0:0:0:
256,192,23434,1,0,0:0:0:0:
256,192,23631,1,0,0:0:0:0:
256,192,23829,1,0,0:0:0:0:
256,192,24223,1,0,0:0:0:0:
256,192,24618,1,8,0:0:0:0:
256,192,24816,1,0,0:0:0:0:
256,192,24914,1,0,0:0:0:0:
256,192,25013,1,8,0:0:0:0:
256,192,25210,1,0,0:0:0:0:
256,192,25408,1,0,0:0:0:0:
256,192,25605,1,0,0:0:0:0:
256,192,25802,1,0,0:0:0:0:
256,192,26000,1,0,0:0:0:0:
256,192,26197,1,8,0:0:0:0:
256,192,26394,1,0,0:0:0:0:
256,192,26493,1,0,0:0:0:0:
256,192,26592,1,0,0:0:0:0:
256,192,26789,1,0,0:0:0:0:
256,192,26987,1,0,0:0:0:0:
256,192,27184,1,0,0:0:0:0:
256,192,27381,1,0,0:0:0:0:
256,192,27579,1,0,0:0:0:0:
256,192,27776,1,8,0:0:0:0:
256,192,28171,1,0,0:0:0:0:
256,192,28368,1,0,0:0:0:0:
256,192,28566,1,0,0:0:0:0:
256,192,28763,1,0,0:0:0:0:
256,192,28960,1,0,0:0:0:0:
256,192,29158,1,0,0:0:0:0:
256,192,29355,1,8,0:0:0:0:
256,192,29552,1,0,0:0:0:0:
256,192,29651,1,0,0:0:0:0:
256,192,29750,1,0,0:0:0:0:
256,192,29947,1,0,0:0:0:0:
256,192,30144,1,0,0:0:0:0:
256,192,30342,1,0,0:0:0:0:
256,192,30539,1,0,0:0:0:0:
256,192,30737,1,0,0:0:0:0:
256,192,30934,1,8,0:0:0:0:
256,192,31329,1,8,0:0:0:0:
256,192,31526,1,8,0:0:0:0:
256,192,31625,1,8,0:0:0:0:
256,192,31723,1,0,0:0:0:0:
256,192,31921,1,0,0:0:0:0:
256,192,32118,1,0,0:0:0:0:
256,192,32316,1,0,0:0:0:0:
256,192,32513,1,8,0:0:0:0:
256,192,32710,1,0,0:0:0:0:
256,192,32809,1,8,0:0:0:0:
256,192,32908,1,0,0:0:0:0:
256,192,33105,1,0,0:0:0:0:
256,192,33302,1,0,0:0:0:0:
256,192,33500,1,0,0:0:0:0:
256,192,33697,1,0,0:0:0:0:
256,192,33894,1,0,0:0:0:0:
256,192,34092,1,8,0:0:0:0:
256,192,34289,1,0,0:0:0:0:
256,192,34388,1,0,0:0:0:0:
256,192,34487,1,8,0:0:0:0:
256,192,34881,1,0,0:0:0:0:
256,192,35079,1,0,0:0:0:0:
256,192,35276,1,0,0:0:0:0:
256,192,35473,1,0,0:0:0:0:
256,192,35671,1,8,0:0:0:0:
256,192,35868,1,0,0:0:0:0:
256,192,35967,1,8,0:0:0:0:
256,192,36066,1,0,0:0:0:0:
256,192,36263,1,0,0:0:0:0:
256,192,36460,1,0,0:0:0:0:
256,192,36658,1,0,0:0:0:0:
256,192,36855,1,8,0:0:0:0:
256,192,37052,1,8,0:0:0:0:
256,192,37250,1,8,0:0:0:0:
256,192,37447,1,0,0:0:0:0:
256,192,37644,1,0,0:0:0:0:
256,192,37842,1,0,0:0:0:0:
256,192,38039,1,0,0:0:0:0:
256,192,50671,5,0,0:0:0:0:
256,192,50868,1,0,0:0:0:0:
256,192,51066,1,8,0:0:0:0:
256,192,51164,1,8,0:0:0:0:
256,192,51263,1,0,0:0:0:0:
256,192,51362,1,0,0:0:0:0:
256,192,51460,1,8,0:0:0:0:
256,192,51658,1,0,0:0:0:0:
256,192,51855,1,0,0:0:0:0:
256,192,52052,1,0,0:0:0:0:
256,192,52151,1,0,0:0:0:0:
256,192,52250,1,0,0:0:0:0:
256,192,52447,1,8,0:0:0:0:
256,192,52546,1,0,0:0:0:0:
256,192,52644,1,0,0:0:0:0:
256,192,52842,1,0,0:0:0:0:
256,192,53039,1,8,0:0:0:0:
256,192,53237,1,8,0:0:0:0:
256,192,53631,1,8,0:0:0:0:
256,192,53829,1,0,0:0:0:0:
256,192,54026,1,0,0:0:0:0:
256,192,54223,1,8,0:0:0:0:
256,192,54322,1,8,0:0:0:0:
256,192,54421,1,0,0:0:0:0:
256,192,54519,1,0,0:0:0:0:
256,192,54618,1,8,0:0:0:0:
256,192,54816,1,0,0:0:0:0:
256,192,55013,1,0,0:0:0:0:
256,192,55210,1,8,0:0:0:0:
256,192,55408,1,0,0:0:0:0:
256,192,55605,1,0,0:0:0:0:
256,192,55802,1,8,0:0:0:0:
256,192,55901,1,8,0:0:0:0:
256,192,56000,1,0,0:0:0:0:
256,192,56098,1,0,0:0:0:0:
256,192,56197,1,8,0:0:0:0:
256,192,56394,1,0,0:0:0:0:
256,192,56493,1,0,0:0:0:0:
256,192,56592,1,8,0:0:0:0:
256,192,56691,1,8,0:0:0:0:
256,192,56789,1,0,0:0:0:0:
256,192,56987,1,0,0:0:0:0:
256,192,57184,1,0,0:0:0:0:
256,192,57381,1,8,0:0:0:0:
256,192,57480,1,0,0:0:0:0:
256,192,57579,1,0,0:0:0:0:
256,192,57677,1,0,0:0:0:0:
256,192,57776,1,8,0:0:0:0:
256,192,57973,1,0,0:0:0:0:
256,192,58171,1,0,0:0:0:0:
256,192,58368,1,8,0:0:0:0:
256,192,58467,1,0,0:0:0:0:
256,192,58566,1,0,0:0:0:0:
256,192,58763,1,0,0:0:0:0:
256,192,58960,1,8,0:0:0:0:
256,192,59158,1,0,0:0:0:0:
256,192,59355,1,8,0:0:0:0:
256,192,59552,1,8,0:0:0:0:
256,192,59947,1,8,0:0:0:0:
256,192,60144,1,0,0:0:0:0:
256,192,60342,1,0,0:0:0:0:
256,192,60539,1,8,0:0:0:0:
256,192,60737,1,0,0:0:0:0:
256,192,60835,1,0,0:0:0:0:
256,192,60934,1,8,0:0:0:0:
256,192,61131,1,0,0:0:0:0:
256,192,61230,1,0,0:0:0:0:
256,192,61329,1,0,0:0:0:0:
256,192,61526,1,8,0:0:0:0:
256,192,61723,1,0,0:0:0:0:
256,192,61921,1,0,0:0:0:0:
256,192,62019,1,0,0:0:0:0:
256,192,62118,1,8,0:0:0:0:
256,192,62316,1,0,0:0:0:0:
256,192,62513,1,8,0:0:0:0:
256,192,62710,1,0,0:0:0:0:
256,192,62809,1,0,0:0:0:0:
256,192,62908,1,8,0:0:0:0:
256,192,63302,1,0,0:0:0:0:
256,192,63500,1,0,0:0:0:0:
256,192,63598,1,0,0:0:0:0:
256,192,63697,1,8,0:0:0:0:
256,192,63796,1,8,0:0:0:0:
256,192,63894,1,0,0:0:0:0:
256,192,64092,1,8,0:0:0:0:
256,192,64289,1,0,0:0:0:0:
256,192,64388,1,8,0:0:0:0:
256,192,64487,1,0,0:0:0:0:
256,192,64881,1,0,0:0:0:0:
256,192,65079,1,0,0:0:0:0:
256,192,65473,1,0,0:0:0:0:
256,192,65671,1,8,0:0:0:0:
256,192,65868,1,0,0:0:0:0:
256,192,65967,1,8,0:0:0:0:
256,192,66066,1,0,0:0:0:0:
256,192,66263,1,0,0:0:0:0:
256,192,66460,1,0,0:0:0:0:
256,192,66658,1,0,0:0:0:0:
256,192,66756,1,0,0:0:0:0:
256,192,66855,1,8,0:0:0:0:
256,192,66954,1,8,0:0:0:0:
256,192,67052,1,0,0:0:0:0:
256,192,67250,1,8,0:0:0:0:
256,192,67447,1,0,0:0:0:0:
256,192,67546,1,8,0:0:0:0:
256,192,67644,1,0,0:0:0:0:
256,192,67842,1,0,0:0:0:0:
256,192,67941,1,0,0:0:0:0:
256,192,68039,1,0,0:0:0:0:
256,192,68434,1,0,0:0:0:0:
256,192,68533,1,0,0:0:0:0:
256,192,68631,1,0,0:0:0:0:
256,192,68730,1,0,0:0:0:0:
256,192,68829,1,8,0:0:0:0:
256,192,69026,1,8,0:0:0:0:
256,192,69223,1,0,0:0:0:0:
256,192,69421,1,8,0:0:0:0:
256,192,69618,1,0,0:0:0:0:
256,192,69816,1,0,0:0:0:0:
256,192,69914,1,0,0:0:0:0:
256,192,70013,1,8,0:0:0:0:
256,192,70112,1,8,0:0:0:0:
256,192,70210,1,0,0:0:0:0:
256,192,70408,1,8,0:0:0:0:
256,192,70605,1,0,0:0:0:0:
256,192,70704,1,8,0:0:0:0:
256,192,70802,1,0,0:0:0:0:
256,192,71000,1,0,0:0:0:0:
256,192,71098,1,0,0:0:0:0:
256,192,71197,1,0,0:0:0:0:
256,192,71394,1,0,0:0:0:0:
256,192,71592,1,8,0:0:0:0:
256,192,71691,1,8,0:0:0:0:
256,192,71789,1,0,0:0:0:0:
256,192,71888,1,0,0:0:0:0:
256,192,71987,1,8,0:0:0:0:
256,192,72381,1,0,0:0:0:0:
256,192,72579,1,0,0:0:0:0:
256,192,72776,1,0,0:0:0:0:
256,192,72973,1,0,0:0:0:0:
256,192,73171,1,8,0:0:0:0:
256,192,73269,1,0,0:0:0:0:
256,192,73368,1,0,0:0:0:0:
256,192,73566,1,8,0:0:0:0:
256,192,73763,1,0,0:0:0:0:
256,192,73960,1,8,0:0:0:0:
256,192,74158,1,8,0:0:0:0:
256,192,74256,1,8,0:0:0:0:
256,192,74355,1,0,0:0:0:0:
256,192,74552,1,0,0:0:0:0:
256,192,74750,1,0,0:0:0:0:
256,192,74947,1,0,0:0:0:0:
256,192,75144,1,8,0:0:0:0:
256,192,75342,1,0,0:0:0:0:
256,192,75539,1,8,0:0:0:0:
256,192,75737,1,0,0:0:0:0:
256,192,75835,1,8,0:0:0:0:
256,192,75934,1,0,0:0:0:0:
256,192,79071,1,8,0:0:0:0:
256,192,80247,1,8,0:0:0:0:
256,192,81424,1,0,0:0:0:0:
256,192,82208,1,8,0:0:0:0:
256,192,82600,12,8,84953,0:0:0:0:
256,192,85737,12,8,88082,0:0:0:0:
256,192,88862,12,8,91589,0:0:0:0:
256,192,91990,5,0,0:0:0:0:
256,192,92171,1,0,0:0:0:0:
256,192,92262,1,0,0:0:0:0:
256,192,92353,1,8,0:0:0:0:
256,192,92535,1,0,0:0:0:0:
256,192,92717,1,8,0:0:0:0:
256,192,92899,1,8,0:0:0:0:
256,192,92990,1,8,0:0:0:0:
256,192,93080,1,0,0:0:0:0:
256,192,93262,1,8,0:0:0:0:
256,192,93444,1,0,0:0:0:0:
256,192,93626,1,0,0:0:0:0:
256,192,93717,1,0,0:0:0:0:
256,192,93808,1,8,0:0:0:0:
256,192,93990,1,0,0:0:0:0:
256,192,94171,1,8,0:0:0:0:
256,192,94353,1,0,0:0:0:0:
256,192,94717,1,8,0:0:0:0:
256,192,94899,1,0,0:0:0:0:
256,192,95080,1,0,0:0:0:0:
256,192,95171,1,0,0:0:0:0:
256,192,95262,1,8,0:0:0:0:
256,192,95353,1,8,0:0:0:0:
256,192,95444,1,0,0:0:0:0:
256,192,95626,1,8,0:0:0:0:
256,192,95808,1,0,0:0:0:0:
256,192,95990,1,0,0:0:0:0:
256,192,96080,1,0,0:0:0:0:
256,192,96171,1,0,0:0:0:0:
256,192,96353,1,8,0:0:0:0:
256,192,96444,1,8,0:0:0:0:
256,192,96535,1,0,0:0:0:0:
256,192,96717,1,8,0:0:0:0:
256,192,96899,1,0,0:0:0:0:
256,192,96990,1,0,0:0:0:0:
256,192,97080,1,8,0:0:0:0:
256,192,97262,1,0,0:0:0:0:
256,192,97444,1,8,0:0:0:0:
256,192,97535,1,0,0:0:0:0:
256,192,97626,1,8,0:0:0:0:
256,192,97717,1,8,0:0:0:0:
256,192,97808,1,0,0:0:0:0:
256,192,97990,1,0,0:0:0:0:
256,192,98080,1,0,0:0:0:0:
256,192,98171,1,8,0:0:0:0:
256,192,98353,1,0,0:0:0:0:
256,192,98535,1,8,0:0:0:0:
256,192,98717,1,8,0:0:0:0:
256,192,99080,1,8,0:0:0:0:
256,192,99262,1,0,0:0:0:0:
256,192,99444,1,8,0:0:0:0:
256,192,99535,1,8,0:0:0:0:
256,192,99626,1,0,0:0:0:0:
256,192,99717,1,8,0:0:0:0:
256,192,99808,1,0,0:0:0:0:
256,192,99990,1,8,0:0:0:0:
256,192,100171,1,0,0:0:0:0:
256,192,100353,1,0,0:0:0:0:
256,192,100444,1,0,0:0:0:0:
256,192,100535,1,8,0:0:0:0:
256,192,100717,1,0,0:0:0:0:
256,192,100808,1,0,0:0:0:0:
256,192,100990,1,0,0:0:0:0:
256,192,101080,1,8,0:0:0:0:
256,192,101262,1,0,0:0:0:0:
256,192,101444,1,8,0:0:0:0:
256,192,101626,1,0,0:0:0:0:
256,192,101808,1,0,0:0:0:0:
256,192,101990,1,8,0:0:0:0:
256,192,102171,1,0,0:0:0:0:
256,192,102353,1,8,0:0:0:0:
256,192,102444,1,8,0:0:0:0:
256,192,102535,1,0,0:0:0:0:
256,192,102717,1,0,0:0:0:0:
256,192,102899,1,8,0:0:0:0:
256,192,103262,1,8,0:0:0:0:
256,192,103353,1,8,0:0:0:0:
256,192,103444,1,8,0:0:0:0:
256,192,103535,1,8,0:0:0:0:
256,192,103626,1,0,0:0:0:0:
256,192,103808,1,0,0:0:0:0:
256,192,103899,1,0,0:0:0:0:
256,192,103990,1,8,0:0:0:0:
256,192,104353,1,8,0:0:0:0:
256,192,104474,1,8,0:0:0:0:
256,192,104596,1,8,0:0:0:0:
256,192,104717,1,0,0:0:0:0:
256,192,104899,1,8,0:0:0:0:
256,192,105080,1,0,0:0:0:0:
256,192,105262,1,0,0:0:0:0:
256,192,105353,1,0,0:0:0:0:
256,192,105444,1,8,0:0:0:0:
256,192,105626,1,0,0:0:0:0:
256,192,105808,1,8,0:0:0:0:
256,192,105990,1,0,0:0:0:0:
256,192,106080,1,8,0:0:0:0:
256,192,106171,1,0,0:0:0:0:
256,192,106353,1,0,0:0:0:0:
256,192,106535,1,0,0:0:0:0:
256,192,106717,1,8,0:0:0:0:
256,192,106808,1,8,0:0:0:0:
256,192,106899,1,8,0:0:0:0:
256,192,107080,1,0,0:0:0:0:
256,192,107171,1,0,0:0:0:0:
256,192,107262,1,8,0:0:0:0:
256,192,107444,1,0,0:0:0:0:
256,192,107626,1,8,0:0:0:0:
256,192,107808,1,0,0:0:0:0:
256,192,107899,1,8,0:0:0:0:
256,192,107990,1,0,0:0:0:0:
256,192,108353,1,8,0:0:0:0:
256,192,108535,1,0,0:0:0:0:
256,192,108626,1,0,0:0:0:0:
256,192,108717,1,8,0:0:0:0:
256,192,108899,1,0,0:0:0:0:
256,192,108990,1,8,0:0:0:0:
256,192,109080,1,0,0:0:0:0:
256,192,109171,1,8,0:0:0:0:
256,192,109262,1,0,0:0:0:0:
256,192,109444,1,0,0:0:0:0:
256,192,109626,1,0,0:0:0:0:
256,192,109717,1,0,0:0:0:0:
256,192,109808,1,8,0:0:0:0:
256,192,109990,1,0,0:0:0:0:
256,192,110171,1,8,0:0:0:0:
256,192,110353,1,8,0:0:0:0:
256,192,110535,1,0,0:0:0:0:
256,192,110626,1,0,0:0:0:0:
256,192,110717,1,8,0:0:0:0:
256,192,110899,1,0,0:0:0:0:
256,192,110990,1,0,0:0:0:0:
256,192,111080,1,8,0:0:0:0:
256,192,111262,1,8,0:0:0:0:
256,192,111353,1,8,0:0:0:0:
256,192,111444,1,0,0:0:0:0:
256,192,111535,1,0,0:0:0:0:
256,192,111626,1,8,0:0:0:0:
256,192,111990,1,0,0:0:0:0:
256,192,112080,1,0,0:0:0:0:
256,192,112171,1,8,0:0:0:0:
256,192,112353,1,0,0:0:0:0:
256,192,112444,1,8,0:0:0:0:
256,192,112535,1,0,0:0:0:0:
256,192,112626,1,0,0:0:0:0:
256,192,112717,1,8,0:0:0:0:
256,192,112899,1,8,0:0:0:0:
256,192,112990,1,0,0:0:0:0:
256,192,113080,1,8,0:0:0:0:
256,192,113262,1,0,0:0:0:0:
256,192,113353,1,8,0:0:0:0:
256,192,113444,1,0,0:0:0:0:
256,192,113626,1,0,0:0:0:0:
256,192,113808,1,8,0:0:0:0:
256,192,113990,1,0,0:0:0:0:
256,192,114080,1,0,0:0:0:0:
256,192,114171,1,8,0:0:0:0:
256,192,114262,1,8,0:0:0:0:
256,192,114353,1,0,0:0:0:0:
256,192,114535,1,8,0:0:0:0:
256,192,114717,1,8,0:0:0:0:
256,192,114808,1,8,0:0:0:0:
256,192,114899,1,0,0:0:0:0:
256,192,115262,1,0,0:0:0:0:
256,192,115444,1,0,0:0:0:0:
256,192,115626,1,0,0:0:0:0:
256,192,115808,1,8,0:0:0:0:
256,192,115899,1,0,0:0:0:0:
256,192,115990,1,8,0:0:0:0:
256,192,116171,1,8,0:0:0:0:
256,192,116353,1,0,0:0:0:0:
256,192,116535,1,8,0:0:0:0:
256,192,116717,1,0,0:0:0:0:
256,192,117080,1,0,0:0:0:0:
256,192,117444,1,8,0:0:0:0:
256,192,117535,1,8,0:0:0:0:
256,192,117626,1,0,0:0:0:0:
256,192,117717,1,0,0:0:0:0:
256,192,117808,1,8,0:0:0:0:
256,192,117990,1,8,0:0:0:0:
256,192,118171,1,0,0:0:0:0:
256,192,118353,1,0,0:0:0:0:
256,192,118535,1,0,0:0:0:0:
256,192,118626,1,0,0:0:0:0:
256,192,118717,1,8,0:0:0:0:
256,192,118808,1,0,0:0:0:0:
256,192,118899,1,8,0:0:0:0:
256,192,119080,1,8,0:0:0:0:
256,192,119262,1,0,0:0:0:0:
256,192,119353,1,8,0:0:0:0:
256,192,119444,1,8,0:0:0:0:
256,192,119626,1,0,0:0:0:0:
256,192,119747,1,0,0:0:0:0:
256,192,119868,1,0,0:0:0:0:
256,192,119990,1,0,0:0:0:0:
256,192,120171,1,0,0:0:0:0:
256,192,120353,1,8,0:0:0:0:
256,192,120717,1,0,0:0:0:0:
256,192,120899,1,8,0:0:0:0:
256,192,121080,1,0,0:0:0:0:
256,192,121262,1,8,0:0:0:0:
256,192,121353,1,8,0:0:0:0:
256,192,121444,1,0,0:0:0:0:
256,192,121535,1,0,0:0:0:0:
256,192,121626,1,0,0:0:0:0:
256,192,121808,1,8,0:0:0:0:
256,192,121990,1,8,0:0:0:0:
256,192,122353,1,8,0:0:0:0:
256,192,122535,1,0,0:0:0:0:
256,192,122626,1,0,0:0:0:0:
256,192,122717,1,8,0:0:0:0:
256,192,122899,1,0,0:0:0:0:
256,192,123080,1,0,0:0:0:0:
256,192,123171,1,0,0:0:0:0:
256,192,123262,1,8,0:0:0:0:
256,192,123444,1,8,0:0:0:0:
256,192,123626,1,0,0:0:0:0:
256,192,123717,1,0,0:0:0:0:
256,192,123808,1,8,0:0:0:0:
256,192,123899,1,8,0:0:0:0:
256,192,123990,1,0,0:0:0:0:
256,192,124171,1,0,0:0:0:0:
256,192,124353,1,8,0:0:0:0:
256,192,124535,1,0,0:0:0:0:
256,192,124626,1,0,0:0:0:0:
256,192,124717,1,8,0:0:0:0:
256,192,124899,1,0,0:0:0:0:
256,192,125080,1,8,0:0:0:0:
256,192,125262,1,8,0:0:0:0:
256,192,125353,1,8,0:0:0:0:
256,192,125444,1,0,0:0:0:0:
256,192,125626,1,8,0:0:0:0:
256,192,125717,1,0,0:0:0:0:
256,192,125808,1,0,0:0:0:0:
256,192,125990,1,0,0:0:0:0:
256,192,126171,1,8,0:0:0:0:
256,192,126535,1,0,0:0:0:0:
256,192,126626,1,0,0:0:0:0:
256,192,126717,1,8,0:0:0:0:
256,192,126899,1,0,0:0:0:0:
256,192,127080,1,8,0:0:0:0:
256,192,127171,1,0,0:0:0:0:
256,192,127262,1,0,0:0:0:0:
256,192,127353,1,0,0:0:0:0:
256,192,127444,1,8,0:0:0:0:
256,192,127626,1,8,0:0:0:0:
256,192,127717,1,8,0:0:0:0:
256,192,127808,1,0,0:0:0:0:
256,192,127899,1,0,0:0:0:0:
256,192,127990,1,8,0:0:0:0:
256,192,128171,1,8,0:0:0:0:
256,192,128353,1,0,0:0:0:0:
256,192,128535,1,0,0:0:0:0:
256,192,128626,1,0,0:0:0:0:
256,192,128717,1,8,0:0:0:0:
256,192,128899,1,0,0:0:0:0:
256,192,129080,1,8,0:0:0:0:
256,192,129444,1,0,0:0:0:0:
256,192,129626,1,8,0:0:0:0:
256,192,129717,1,8,0:0:0:0:
256,192,129808,1,0,0:0:0:0:
256,192,129990,1,8,0:0:0:0:
256,192,130080,1,0,0:0:0:0:
256,192,130171,1,0,0:0:0:0:
256,192,130262,1,0,0:0:0:0:
256,192,130353,1,8,0:0:0:0:
256,192,130535,1,8,0:0:0:0:
256,192,130717,1,0,0:0:0:0:
256,192,130899,1,8,0:0:0:0:
256,192,130990,1,0,0:0:0:0:
256,192,131080,1,8,0:0:0:0:
256,192,131262,1,0,0:0:0:0:
256,192,131626,1,8,0:0:0:0:
256,192,131808,1,8,0:0:0:0:
256,192,131990,1,8,0:0:0:0:
256,192,132080,1,8,0:0:0:0:
256,192,132171,1,0,0:0:0:0:
256,192,132262,1,0,0:0:0:0:
256,192,132353,1,0,0:0:0:0:
256,192,132535,1,8,0:0:0:0:
256,192,132626,1,8,0:0:0:0:
256,192,132717,1,0,0:0:0:0:
256,192,132808,1,8,0:0:0:0:
256,192,132899,1,0,0:0:0:0:
256,192,133080,1,0,0:0:0:0:
256,192,133171,1,0,0:0:0:0:
256,192,133262,1,0,0:0:0:0:
256,192,133353,1,0,0:0:0:0:
256,192,133444,1,8,0:0:0:0:
256,192,133717,1,8,0:0:0:0:
256,192,133990,1,8,0:0:0:0:
256,192,134171,1,0,0:0:0:0:
256,192,134353,1,8,0:0:0:0:
256,192,134717,1,0,0:0:0:0:
256,192,134808,1,0,0:0:0:0:
256,192,134899,1,8,0:0:0:0:
256,192,135080,1,8,0:0:0:0:
256,192,135171,1,8,0:0:0:0:
256,192,135262,1,0,0:0:0:0:
256,192,135444,1,8,0:0:0:0:
256,192,135626,1,0,0:0:0:0:
256,192,135808,1,0,0:0:0:0:
256,192,135899,1,0,0:0:0:0:
256,192,135990,1,8,0:0:0:0:
256,192,136171,1,8,0:0:0:0:
256,192,136353,1,8,0:0:0:0:
256,192,136444,1,8,0:0:0:0:
256,192,136535,1,0,0:0:0:0:
256,192,136626,1,0,0:0:0:0:
256,192,136717,1,8,0:0:0:0:
256,192,136899,1,8,0:0:0:0:
256,192,137080,1,0,0:0:0:0:
256,192,137262,1,8,0:0:0:0:
256,192,137444,1,0,0:0:0:0:
256,192,137808,1,8,0:0:0:0:
256,192,137929,1,8,0:0:0:0:
256,192,138050,1,8,0:0:0:0:
256,192,138171,1,0,0:0:0:0:
256,192,138535,1,0,0:0:0:0:
224,192,138717,1,0,0:0:0:0:
224,192,138808,1,0,0:0:0:0:
224,192,138899,1,8,0:0:0:0:
224,192,138990,1,8,0:0:0:0:
224,192,139080,1,0,0:0:0:0:
224,192,139262,1,8,0:0:0:0:
224,192,139444,1,8,0:0:0:0:
224,192,139626,1,0,0:0:0:0:
224,192,139717,1,0,0:0:0:0:
224,192,139808,1,8,0:0:0:0:
224,192,139990,1,0,0:0:0:0:
224,192,140171,1,0,0:0:0:0:
224,192,140262,1,0,0:0:0:0:
224,192,140353,1,0,0:0:0:0:
224,192,140444,1,0,0:0:0:0:
224,192,140535,1,0,0:0:0:0:
224,192,140717,1,8,0:0:0:0:
224,192,140899,1,8,0:0:0:0:
224,192,141262,1,8,0:0:0:0:
224,192,141444,1,0,0:0:0:0:
224,192,141626,1,0,0:0:0:0:
224,192,141717,1,0,0:0:0:0:
224,192,141808,1,8,0:0:0:0:
224,192,141899,1,8,0:0:0:0:
224,192,141990,1,0,0:0:0:0:
224,192,142171,1,8,0:0:0:0:
224,192,142353,1,8,0:0:0:0:
224,192,142535,1,0,0:0:0:0:
224,192,142626,1,0,0:0:0:0:
224,192,142717,1,0,0:0:0:0:
224,192,142899,1,0,0:0:0:0:
224,192,143262,1,0,0:0:0:0:
224,192,143626,1,8,0:0:0:0:
224,192,143808,1,0,0:0:0:0:
224,192,143899,1,8,0:0:0:0:
224,192,143990,1,0,0:0:0:0:
224,192,144080,1,0,0:0:0:0:
224,192,144171,1,8,0:0:0:0:
224,192,144353,1,0,0:0:0:0:
224,192,144535,1,8,0:0:0:0:
224,192,144626,1,8,0:0:0:0:
224,192,144717,1,0,0:0:0:0:
224,192,144808,1,0,0:0:0:0:
224,192,144899,1,0,0:0:0:0:
224,192,145080,1,8,0:0:0:0:
224,192,145262,1,8,0:0:0:0:
224,192,145444,1,0,0:0:0:0:
224,192,145535,1,0,0:0:0:0:
224,192,145626,1,8,0:0:0:0:
224,192,145808,1,0,0:0:0:0:
224,192,145990,1,8,0:0:0:0:
224,192,146080,1,8,0:0:0:0:
224,192,146171,1,0,0:0:0:0:
224,192,146353,1,0,0:0:0:0:
224,192,146444,1,0,0:0:0:0:
224,192,146535,1,8,0:0:0:0:
224,192,146717,1,8,0:0:0:0:
224,192,147080,1,8,0:0:0:0:
224,192,147171,1,8,0:0:0:0:
224,192,147262,1,0,0:0:0:0:
224,192,147444,1,0,0:0:0:0:
224,192,147626,1,8,0:0:0:0:
224,192,147808,1,0,0:0:0:0:
224,192,147899,1,0,0:0:0:0:
224,192,147990,1,8,0:0:0:0:
224,192,148171,1,8,0:0:0:0:
224,192,148262,1,0,0:0:0:0:
224,192,148353,1,8,0:0:0:0:
224,192,148535,1,8,0:0:0:0:
224,192,148626,1,8,0:0:0:0:
224,192,148717,1,0,0:0:0:0:
224,192,148808,1,0,0:0:0:0:
224,192,148899,1,0,0:0:0:0:
224,192,149080,1,0,0:0:0:0:
224,192,149444,1,8,0:0:0:0:
224,192,149626,1,0,0:0:0:0:
224,192,149808,1,0,0:0:0:0:
224,192,149899,1,0,0:0:0:0:
224,192,149990,1,0,0:0:0:0:
224,192,150080,1,0,0:0:0:0:
224,192,150171,1,0,0:0:0:0:
224,192,150353,1,8,0:0:0:0:
224,192,150444,1,8,0:0:0:0:
224,192,150535,1,0,0:0:0:0:
224,192,150626,1,0,0:0:0:0:
224,192,150717,1,8,0:0:0:0:
224,192,150899,1,8,0:0:0:0:
224,192,150990,1,8,0:0:0:0:
224,192,151080,1,0,0:0:0:0:
224,192,151262,1,0,0:0:0:0:
224,192,151444,1,8,0:0:0:0:
224,192,151626,1,0,0:0:0:0:
224,192,151808,1,0,0:0:0:0:
224,192,151899,1,0,0:0:0:0:
224,192,151990,1,8,0:0:0:0:
224,192,152080,1,0,0:0:0:0:
224,192,152171,1,0,0:0:0:0:
224,192,152353,1,8,0:0:0:0:
224,192,152535,1,0,0:0:0:0:
224,192,152717,1,0,0:0:0:0:
224,192,152808,1,8,0:0:0:0:
224,192,152899,1,8,0:0:0:0:
224,192,152990,1,8,0:0:0:0:
224,192,153080,1,0,0:0:0:0:
256,192,153262,1,0,0:0:0:0:
256,192,153444,1,8,0:0:0:0:
256,192,153535,1,8,0:0:0:0:
256,192,153626,1,0,0:0:0:0:
256,192,153717,1,0,0:0:0:0:
256,192,153808,1,8,0:0:0:0:
256,192,154171,1,8,0:0:0:0:
256,192,154262,1,8,0:0:0:0:
256,192,154353,1,0,0:0:0:0:
256,192,154535,1,0,0:0:0:0:
256,192,154717,1,8,0:0:0:0:
256,192,154899,1,8,0:0:0:0:
256,192,155080,1,8,0:0:0:0:
256,192,155262,1,8,0:0:0:0:
256,192,155353,1,8,0:0:0:0:
256,192,155444,1,0,0:0:0:0:
256,192,155535,1,0,0:0:0:0:
256,192,155626,1,0,0:0:0:0:
256,192,155808,1,8,0:0:0:0:
256,192,155899,1,8,0:0:0:0:
256,192,155990,1,0,0:0:0:0:
256,192,156080,1,8,0:0:0:0:
256,192,156171,1,0,0:0:0:0:
256,192,156353,1,0,0:0:0:0:
256,192,156535,1,0,0:0:0:0:
256,192,156626,1,0,0:0:0:0:
256,192,156717,1,8,0:0:0:0:
256,192,156990,1,8,0:0:0:0:
256,192,157262,1,0,0:0:0:0:
256,224,157626,1,8,0:0:0:0:
256,224,157808,1,0,0:0:0:0:
256,224,157899,1,0,0:0:0:0:
256,224,157990,1,0,0:0:0:0:
256,224,158080,1,0,0:0:0:0:
256,224,158171,1,8,0:0:0:0:
256,224,158444,1,8,0:0:0:0:
256,224,158717,1,8,0:0:0:0:
256,224,158899,1,0,0:0:0:0:
256,224,159080,1,0,0:0:0:0:
256,224,159171,1,0,0:0:0:0:
256,224,159262,1,8,0:0:0:0:
256,224,159353,1,0,0:0:0:0:
256,224,159444,1,8,0:0:0:0:
256,224,159626,1,8,0:0:0:0:
256,224,159808,1,0,0:0:0:0:
256,224,159899,1,0,0:0:0:0:
256,224,159990,1,0,0:0:0:0:
256,224,160080,1,0,0:0:0:0:
256,224,160171,1,8,0:0:0:0:
256,224,160353,1,0,0:0:0:0:
256,224,160535,1,0,0:0:0:0:
256,192,160717,1,0,0:0:0:0:
256,192,161080,1,8,0:0:0:0:
256,192,161202,1,8,0:0:0:0:
256,192,161323,1,8,0:0:0:0:
256,192,161444,1,0,0:0:0:0:
256,192,161808,1,0,0:0:0:0:
256,192,161990,1,8,0:0:0:0:
256,192,162080,1,0,0:0:0:0:
256,192,162171,1,8,0:0:0:0:
256,192,162262,1,8,0:0:0:0:
256,192,162353,1,0,0:0:0:0:
256,192,162535,1,8,0:0:0:0:
256,192,162717,1,0,0:0:0:0:
256,192,162899,1,0,0:0:0:0:
256,192,162990,1,0,0:0:0:0:
256,192,163080,1,8,0:0:0:0:
256,192,163262,1,0,0:0:0:0:
256,192,163444,1,8,0:0:0:0:
256,192,163535,1,0,0:0:0:0:
256,192,163626,1,0,0:0:0:0:
256,192,163717,1,8,0:0:0:0:
256,192,163808,1,0,0:0:0:0:
256,192,163990,1,8,0:0:0:0:
256,192,164171,1,8,0:0:0:0:
256,192,164262,1,8,0:0:0:0:
256,192,164353,1,0,0:0:0:0:
256,192,164717,1,0,0:0:0:0:
256,192,164899,1,8,0:0:0:0:
256,192,164990,1,8,0:0:0:0:
256,192,165080,1,0,0:0:0:0:
256,192,165262,1,0,0:0:0:0:
256,192,165353,1,8,0:0:0:0:
256,192,165444,1,8,0:0:0:0:
256,192,165626,1,0,0:0:0:0:
256,192,165808,1,8,0:0:0:0:
256,192,165899,1,8,0:0:0:0:
256,192,165990,1,0,0:0:0:0:
256,192,166171,1,0,0:0:0:0:
256,192,166535,1,8,0:0:0:0:
256,192,166656,1,0,0:0:0:0:
256,192,166777,1,0,0:0:0:0:
256,192,166899,1,8,0:0:0:0:
256,192,167262,1,0,0:0:0:0:
256,192,167353,1,8,0:0:0:0:
256,192,167444,1,0,0:0:0:0:
256,192,167535,1,8,0:0:0:0:
256,192,167626,1,0,0:0:0:0:
256,192,167808,1,8,0:0:0:0:
256,192,167990,1,0,0:0:0:0:
256,192,168080,1,8,0:0:0:0:
256,192,168171,1,0,0:0:0:0:
256,192,168262,1,0,0:0:0:0:
256,192,168353,1,8,0:0:0:0:
256,192,168535,1,0,0:0:0:0:
256,192,168626,1,0,0:0:0:0:
256,192,168717,1,8,0:0:0:0:
256,192,169080,1,0,0:0:0:0:
256,192,169171,1,8,0:0:0:0:
256,192,169262,1,8,0:0:0:0:
256,192,169353,1,8,0:0:0:0:
256,192,169444,1,0,0:0:0:0:
256,192,169626,1,0,0:0:0:0:
256,192,169717,1,0,0:0:0:0:
256,192,169808,1,8,0:0:0:0:
256,192,169990,1,0,0:0:0:0:
256,192,170171,1,0,0:0:0:0:
256,192,170262,1,0,0:0:0:0:
256,192,170353,1,8,0:0:0:0:
256,192,170444,1,8,0:0:0:0:
256,192,170535,1,0,0:0:0:0:
256,192,170899,1,0,0:0:0:0:
256,192,171080,1,0,0:0:0:0:
256,192,171171,1,0,0:0:0:0:
256,192,171262,1,8,0:0:0:0:
256,192,171444,1,0,0:0:0:0:
256,192,171626,1,8,0:0:0:0:
256,192,171717,1,8,0:0:0:0:
256,192,171808,1,0,0:0:0:0:
256,192,171990,1,0,0:0:0:0:
256,192,172171,1,8,0:0:0:0:
256,192,172262,1,0,0:0:0:0:
256,192,172353,1,0,0:0:0:0:
256,192,172444,1,0,0:0:0:0:
256,192,172535,1,8,0:0:0:0:
256,192,172717,1,8,0:0:0:0:
256,192,173080,1,0,0:0:0:0:
256,192,173262,1,8,0:0:0:0:
256,192,173444,1,0,0:0:0:0:
256,192,173626,1,8,0:0:0:0:
256,192,173717,1,0,0:0:0:0:
256,192,173808,1,0,0:0:0:0:
256,192,174080,1,8,0:0:0:0:
256,192,174171,1,8,0:0:0:0:
256,192,174353,1,0,0:0:0:0:
256,192,174444,1,0,0:0:0:0:
256,192,174535,1,0,0:0:0:0:
256,192,174717,1,8,0:0:0:0:
256,192,174899,1,0,0:0:0:0:
256,192,175080,1,8,0:0:0:0:
256,192,175171,1,8,0:0:0:0:
256,192,175262,1,0,0:0:0:0:
256,192,175535,1,0,0:0:0:0:
256,192,175626,1,8,0:0:0:0:
256,192,175808,1,0,0:0:0:0:
256,192,175990,1,0,0:0:0:0:
256,192,176080,1,8,0:0:0:0:
256,192,176171,1,0,0:0:0:0:
256,192,176353,1,0,0:0:0:0:
256,192,176535,1,0,0:0:0:0:
256,192,176626,1,0,0:0:0:0:
256,192,176717,1,8,0:0:0:0:
256,192,176990,1,0,0:0:0:0:
256,192,177080,1,8,0:0:0:0:
256,192,177262,1,0,0:0:0:0:
256,192,177353,1,8,0:0:0:0:
256,192,177444,1,8,0:0:0:0:
256,192,177626,1,0,0:0:0:0:
256,192,177808,1,0,0:0:0:0:
256,192,177990,1,8,0:0:0:0:
256,192,178080,1,8,0:0:0:0:
256,192,178171,1,8,0:0:0:0:
256,192,178444,1,0,0:0:0:0:
256,192,178535,1,8,0:0:0:0:
256,192,178717,1,8,0:0:0:0:
256,192,178899,1,0,0:0:0:0:
256,192,178990,1,0,0:0:0:0:
256,192,179080,1,8,0:0:0:0:
256,192,179262,1,0,0:0:0:0:
256,192,179626,1,8,0:0:0:0:
256,192,179808,1,0,0:0:0:0:
256,192,179990,1,12,0:0:0:0:
256,192,180171,1,4,0:0:0:0:
256,192,180353,1,8,0:0:0:0:
256,192,180535,1,8,0:0:0:0:
256,192,180626,1,8,0:0:0:0:
256,192,180717,1,0,0:0:0:0:
256,192,180808,1,8,0:0:0:0:
256,192,180899,1,0,0:0:0:0:
256,192,181080,1,8,0:0:0:0:
256,192,181262,1,8,0:0:0:0:
256,192,181353,1,0,0:0:0:0:
256,192,181444,1,8,0:0:0:0:
256,192,181717,1,8,0:0:0:0:
256,192,181990,1,8,0:0:0:0:
256,192,182171,1,0,0:0:0:0:
256,192,182353,1,0,0:0:0:0:
256,192,182444,1,0,0:0:0:0:
256,192,182535,1,8,0:0:0:0:
256,192,182717,1,8,0:0:0:0:
256,192,182808,1,8,0:0:0:0:
256,192,182899,1,8,0:0:0:0:
256,192,183080,1,0,0:0:0:0:
256,192,183171,1,0,0:0:0:0:
256,192,183262,1,8,0:0:0:0:
256,192,183353,1,0,0:0:0:0:
256,192,183444,1,8,0:0:0:0:
256,192,183626,1,0,0:0:0:0:
256,192,183808,1,0,0:0:0:0:
256,192,183990,1,8,0:0:0:0:
256,192,184171,1,0,0:0:0:0:
256,192,184353,1,8,0:0:0:0:
256,192,184444,1,8,0:0:0:0:
256,192,184535,1,8,0:0:0:0:
256,192,184626,1,8,0:0:0:0:
256,192,184717,1,0,0:0:0:0:
256,192,184899,1,8,0:0:0:0:
256,192,185080,1,0,0:0:0:0:
256,192,185444,1,8,0:0:0:0:
256,192,185535,1,8,0:0:0:0:
256,192,185626,1,0,0:0:0:0:
256,192,185717,1,0,0:0:0:0:
256,192,185808,1,8,0:0:0:0:
256,192,185990,1,0,0:0:0:0:
256,192,186080,1,8,0:0:0:0:
256,192,186171,1,0,0:0:0:0:
256,192,186262,1,0,0:0:0:0:
256,192,186353,1,8,0:0:0:0:
256,192,186535,1,0,0:0:0:0:
256,192,186899,1,8,0:0:0:0:
256,192,186990,1,8,0:0:0:0:
256,192,187080,1,0,0:0:0:0:
256,192,187171,1,0,0:0:0:0:
256,192,187262,1,8,0:0:0:0:
256,192,187444,1,8,0:0:0:0:
256,192,187626,1,0,0:0:0:0:
256,192,187717,1,8,0:0:0:0:
256,192,187808,1,0,0:0:0:0:
256,192,187899,1,8,0:0:0:0:
256,192,187990,1,0,0:0:0:0:
256,192,188171,1,8,0:0:0:0:
256,192,188353,1,0,0:0:0:0:
256,192,188535,1,0,0:0:0:0:
256,192,188626,1,0,0:0:0:0:
256,192,188717,1,8,0:0:0:0:
256,192,188899,1,0,0:0:0:0:
256,192,189080,1,0,0:0:0:0:
256,192,189262,1,8,0:0:0:0:
256,192,189353,1,8,0:0:0:0:
256,192,189444,1,0,0:0:0:0:
256,192,189808,1,0,0:0:0:0:
256,192,189899,1,8,0:0:0:0:
256,192,189990,1,8,0:0:0:0:
256,192,190080,1,8,0:0:0:0:
256,192,190171,1,8,0:0:0:0:
256,192,190353,1,0,0:0:0:0:
256,192,190535,1,8,0:0:0:0:
256,192,190626,1,8,0:0:0:0:
256,192,190717,1,8,0:0:0:0:
256,192,190899,1,0,0:0:0:0:
256,192,191171,1,8,0:0:0:0:
256,192,191444,1,0,0:0:0:0:
256,192,191626,1,8,0:0:0:0:
256,192,191808,1,0,0:0:0:0:
256,192,191899,1,0,0:0:0:0:
256,192,191990,1,8,0:0:0:0:
256,192,192171,1,8,0:0:0:0:
256,192,192262,1,8,0:0:0:0:
256,192,192353,1,0,0:0:0:0:
256,192,192444,1,0,0:0:0:0:
256,192,192535,1,8,0:0:0:0:
256,192,192717,1,0,0:0:0:0:
256,192,192899,1,0,0:0:0:0:
256,192,192990,1,0,0:0:0:0:
256,192,193080,1,8,0:0:0:0:
256,192,193353,1,8,0:0:0:0:
256,192,193626,1,0,0:0:0:0:
256,192,193808,1,0,0:0:0:0:
256,192,193990,1,8,0:0:0:0:
256,192,194080,1,8,0:0:0:0:
256,192,194171,1,0,0:0:0:0:
256,192,194262,1,8,0:0:0:0:
256,192,194353,1,8,0:0:0:0:
256,192,194535,1,12,0:0:0:0:
256,192,194717,1,12,0:0:0:0:
256,192,194899,1,0,0:0:0:0:
256,192,195262,1,0,0:0:0:0:
256,192,195444,1,0,0:0:0:0:
256,192,195535,1,0,0:0:0:0:
256,192,195626,1,8,0:0:0:0:
256,192,195717,1,0,0:0:0:0:
256,192,195808,1,8,0:0:0:0:
256,192,195990,1,0,0:0:0:0:
256,192,196171,1,8,0:0:0:0:
256,192,196353,1,0,0:0:0:0:
256,192,196444,1,8,0:0:0:0:
256,192,196535,1,8,0:0:0:0:
256,192,196717,1,0,0:0:0:0:
256,192,197080,1,0,0:0:0:0:
256,192,197444,1,8,0:0:0:0:
256,192,197565,1,8,0:0:0:0:
256,192,197686,1,8,0:0:0:0:
256,192,197808,1,0,0:0:0:0:
256,192,197990,1,8,0:0:0:0:
256,192,198171,1,0,0:0:0:0:
256,192,198353,1,8,0:0:0:0:
256,192,198444,1,8,0:0:0:0:
256,192,198535,1,0,0:0:0:0:
256,192,198626,1,0,0:0:0:0:
256,192,198717,1,0,0:0:0:0:
256,192,198808,1,0,0:0:0:0:
256,192,198899,1,8,0:0:0:0:
256,192,199262,1,8,0:0:0:0:
256,192,199444,1,0,0:0:0:0:
256,192,199535,1,0,0:0:0:0:
256,192,199626,1,0,0:0:0:0:
256,192,199808,1,0,0:0:0:0:
256,192,199899,1,0,0:0:0:0:
256,192,199990,1,8,0:0:0:0:
256,192,200080,1,8,0:0:0:0:
256,192,200171,1,0,0:0:0:0:
256,192,200353,1,8,0:0:0:0:
256,192,200535,1,8,0:0:0:0:
256,192,200626,1,8,0:0:0:0:
256,192,200717,1,0,0:0:0:0:
256,192,200899,1,8,0:0:0:0:
256,192,201080,1,0,0:0:0:0:
256,192,201262,1,0,0:0:0:0:
256,192,201353,1,8,0:0:0:0:
256,192,201444,1,0,0:0:0:0:
256,192,201626,1,0,0:0:0:0:
256,192,201990,1,8,0:0:0:0:
256,192,202171,1,0,0:0:0:0:
256,192,202262,1,0,0:0:0:0:
256,192,202353,1,0,0:0:0:0:
256,192,202444,1,0,0:0:0:0:
256,192,202626,1,8,0:0:0:0:
256,192,202808,1,0,0:0:0:0:
256,192,202899,1,8,0:0:0:0:
256,192,203080,1,8,0:0:0:0:
256,192,203262,1,8,0:0:0:0:
256,192,203353,1,8,0:0:0:0:
256,192,203444,1,0,0:0:0:0:
256,192,203535,1,0,0:0:0:0:
256,192,203626,1,8,0:0:0:0:
256,192,203717,1,8,0:0:0:0:
256,192,203808,1,0,0:0:0:0:
256,192,203990,1,0,0:0:0:0:
256,192,204080,1,8,0:0:0:0:
256,192,204353,1,8,0:0:0:0:
256,192,204535,1,8,0:0:0:0:
256,192,204626,1,0,0:0:0:0:
256,192,204717,1,8,0:0:0:0:
256,192,205080,1,8,0:0:0:0:
256,192,205171,1,0,0:0:0:0:
256,192,205262,1,8,0:0:0:0:
256,192,205353,1,8,0:0:0:0:
256,192,205444,1,0,0:0:0:0:
256,192,205626,1,0,0:0:0:0:
256,192,205717,1,8,0:0:0:0:
256,192,205808,1,0,0:0:0:0:
256,192,205990,1,8,0:0:0:0:
256,192,206171,1,8,0:0:0:0:
256,192,206262,1,8,0:0:0:0:
256,192,206353,1,8,0:0:0:0:
256,192,206535,1,8,0:0:0:0:
256,192,206717,1,0,0:0:0:0:
256,192,206808,1,8,0:0:0:0:
256,192,206899,1,8,0:0:0:0:
256,192,207262,1,0,0:0:0:0:
256,192,207353,1,8,0:0:0:0:
256,192,207626,1,8,0:0:0:0:
256,192,207717,1,8,0:0:0:0:
256,192,207808,1,8,0:0:0:0:
256,192,207899,1,8,0:0:0:0:
256,192,207990,1,0,0:0:0:0:
256,192,208171,1,8,0:0:0:0:
256,192,208353,1,0,0:0:0:0:
256,192,209080,1,8,0:0:0:0:
256,192,209444,1,0,0:0:0:0:
256,192,209626,1,0,0:0:0:0:
256,192,210171,1,0,0:0:0:0:
256,192,210535,1,8,0:0:0:0:
256,192,210899,1,8,0:0:0:0:
256,192,210990,1,8,0:0:0:0:
256,192,211080,1,0,0:0:0:0:
256,192,211262,1,0,0:0:0:0:
256,192,211626,1,0,0:0:0:0:
256,192,211808,1,0,0:0:0:0:
256,192,211990,1,8,0:0:0:0:
256,192,212353,1,0,0:0:0:0:
256,192,212535,1,0,0:0:0:0:
256,192,213080,1,0,0:0:0:0:
256,192,213444,1,8,0:0:0:0:
256,192,213808,1,0,0:0:0:0:
256,192,213990,1,8,0:0:0:0:
256,192,214171,1,0,0:0:0:0:
256,192,214535,1,0,0:0:0:0:
256,192,214899,1,8,0:0:0:0:
256,192,215262,1,0,0:0:0:0:
256,192,215444,1,0,0:0:0:0:
256,192,215990,1,0,0:0:0:0:
256,192,216171,1,0,0:0:0:0:
256,192,216353,1,8,0:0:0:0:
256,192,216717,1,8,0:0:0:0:
256,192,216808,1,0,0:0:0:0:
256,192,216899,1,8,0:0:0:0:
256,192,217080,1,0,0:0:0:0:
256,192,217808,1,8,0:0:0:0:
256,192,218171,1,0,0:0:0:0:
256,192,218353,1,0,0:0:0:0:
256,192,218899,1,0,0:0:0:0:
256,192,219262,1,8,0:0:0:0:
256,192,219626,1,0,0:0:0:0:
256,192,219808,1,0,0:0:0:0:
256,192,219990,1,0,0:0:0:0:
256,192,220171,1,0,0:0:0:0:
256,192,220262,1,0,0:0:0:0:
256,192,220353,1,8,0:0:0:0:
256,192,220535,1,0,0:0:0:0:
256,192,220626,1,0,0:0:0:0:
256,192,220717,1,8,0:0:0:0:
256,192,220838,1,8,0:0:0:0:
256,192,220959,1,8,0:0:0:0:
256,192,221080,1,8,0:0:0:0:
256,192,221262,1,8,0:0:0:0:
256,192,221353,1,8,0:0:0:0:
256,192,221444,1,0,0:0:0:0:
256,192,221808,1,8,0:0:0:0:
256,192,221990,1,0,0:0:0:0:
256,192,222080,1,0,0:0:0:0:
256,192,222171,1,8,0:0:0:0:
256,192,222353,1,0,0:0:0:0:
256,192,222444,1,0,0:0:0:0:
256,192,222535,1,8,0:0:0:0:
256,192,222626,1,0,0:0:0:0:
256,192,222717,1,8,0:0:0:0:
256,192,222899,1,0,0:0:0:0:
256,192,222990,1,8,0:0:0:0:
256,192,223171,1,0,0:0:0:0:
256,192,223262,1,8,0:0:0:0:
256,192,223444,1,0,0:0:0:0:
256,192,223626,1,8,0:0:0:0:
256,192,223717,1,8,0:0:0:0:
256,192,223808,1,0,0:0:0:0:
256,192,223899,1,0,0:0:0:0:
256,192,223990,1,8,0:0:0:0:
256,192,224171,1,8,0:0:0:0:
256,192,224262,1,0,0:0:0:0:
256,192,224353,1,8,0:0:0:0:
256,192,224717,1,8,0:0:0:0:
256,192,224899,1,8,0:0:0:0:
256,192,224990,1,0,0:0:0:0:
256,192,225080,1,8,0:0:0:0:
256,192,225262,1,0,0:0:0:0:
256,192,225353,1,0,0:0:0:0:
256,192,225444,1,8,0:0:0:0:
256,192,225535,1,8,0:0:0:0:
256,192,225626,1,8,0:0:0:0:
256,192,225717,1,8,0:0:0:0:
256,192,225808,1,0,0:0:0:0:
256,192,225990,1,0,0:0:0:0:
256,192,226171,1,0,0:0:0:0:
256,192,226535,1,8,0:0:0:0:
256,192,226656,1,8,0:0:0:0:
256,192,226777,1,8,0:0:0:0:
256,192,226899,1,0,0:0:0:0:
256,192,227080,1,8,0:0:0:0:
256,192,227262,1,0,0:0:0:0:
256,192,227444,1,8,0:0:0:0:
256,192,227535,1,8,0:0:0:0:
256,192,227626,1,0,0:0:0:0:
256,192,227717,1,0,0:0:0:0:
256,192,227808,1,0,0:0:0:0:
256,192,227990,1,8,0:0:0:0:
256,192,228353,1,0,0:0:0:0:
256,192,228444,1,0,0:0:0:0:
256,192,228535,1,8,0:0:0:0:
256,192,228717,1,0,0:0:0:0:
256,192,228808,1,8,0:0:0:0:
256,192,228990,1,0,0:0:0:0:
256,192,229080,1,8,0:0:0:0:
256,192,229262,1,8,0:0:0:0:
256,192,229444,1,8,0:0:0:0:
256,192,229626,1,0,0:0:0:0:
256,192,229717,1,8,0:0:0:0:
256,192,229808,1,0,0:0:0:0:
256,192,229990,1,8,0:0:0:0:
256,192,230171,1,0,0:0:0:0:
256,192,230353,1,0,0:0:0:0:
256,192,230535,1,0,0:0:0:0:
256,192,230626,1,0,0:0:0:0:
256,192,230717,1,0,0:0:0:0:
256,192,230899,1,8,0:0:0:0:
256,192,231080,1,8,0:0:0:0:
256,192,231171,1,8,0:0:0:0:
256,192,231262,1,0,0:0:0:0:
256,192,231353,1,8,0:0:0:0:
256,192,231444,1,0,0:0:0:0:
256,192,231626,1,0,0:0:0:0:
256,192,231990,1,0,0:0:0:0:
256,192,232353,1,8,0:0:0:0:
256,192,232717,1,0,0:0:0:0:
256,192,232899,1,8,0:0:0:0:
256,192,233080,1,0,0:0:0:0:
256,192,233353,1,8,0:0:0:0:
256,192,233444,1,0,0:0:0:0:
256,192,233626,1,0,0:0:0:0:
256,192,233717,1,0,0:0:0:0:
256,192,233808,1,8,0:0:0:0:
256,192,234171,1,0,0:0:0:0:
256,192,234353,1,8,0:0:0:0:
256,192,234535,1,0,0:0:0:0:
256,192,234899,1,0,0:0:0:0:
256,192,234990,1,0,0:0:0:0:
256,192,235080,1,0,0:0:0:0:
256,192,235171,1,0,0:0:0:0:
256,192,235262,1,8,0:0:0:0:
256,192,235626,1,0,0:0:0:0:
256,192,235808,1,8,0:0:0:0:
256,192,235899,1,8,0:0:0:0:
256,192,235990,1,0,0:0:0:0:
256,192,236262,1,0,0:0:0:0:
256,192,236353,1,0,0:0:0:0:
256,192,236535,1,0,0:0:0:0:
256,192,236626,1,0,0:0:0:0:
256,192,236717,1,8,0:0:0:0:
256,192,236899,1,0,0:0:0:0:
256,192,237262,1,8,0:0:0:0:
256,192,237444,1,0,0:0:0:0:
256,192,237808,1,0,0:0:0:0:
256,192,238171,1,8,0:0:0:0:
256,192,238535,1,0,0:0:0:0:
256,192,238717,1,8,0:0:0:0:
256,192,238899,1,0,0:0:0:0:
256,192,239171,1,0,0:0:0:0:
256,192,239262,1,0,0:0:0:0:
256,192,239444,1,0,0:0:0:0:
256,192,239535,1,0,0:0:0:0:
256,192,239626,1,8,0:0:0:0:
256,192,239808,1,0,0:0:0:0:
256,192,239990,1,0,0:0:0:0:
256,192,240171,1,8,0:0:0:0:
256,192,240353,1,0,0:0:0:0:
256,192,240717,1,0,0:0:0:0:
256,192,240808,1,0,0:0:0:0:
256,192,240899,1,0,0:0:0:0:
256,192,240990,1,0,0:0:0:0:
256,192,241080,1,8,0:0:0:0:
256,192,241444,1,0,0:0:0:0:
256,192,241626,1,8,0:0:0:0:
256,192,241717,1,8,0:0:0:0:
256,192,241808,1,0,0:0:0:0:
256,192,242171,1,0,0:0:0:0:
256,192,242535,1,8,0:0:0:0:
256,192,242717,1,0,0:0:0:0:
256,192,242808,1,0,0:0:0:0:
256,192,242899,1,0,0:0:0:0:
256,192,243080,1,8,0:0:0:0:
256,192,243262,1,0,0:0:0:0:
256,192,243353,1,0,0:0:0:0:
256,192,243535,1,0,0:0:0:0:
256,192,243626,1,0,0:0:0:0:
256,192,243808,1,0,0:0:0:0:
256,192,243990,1,8,0:0:0:0:
256,192,244353,1,0,0:0:0:0:
256,192,244535,1,8,0:0:0:0:
256,192,244717,1,0,0:0:0:0:
256,192,244808,1,0,0:0:0:0:
256,192,244990,1,0,0:0:0:0:
256,192,245080,1,0,0:0:0:0:
256,192,245262,1,0,0:0:0:0:
256,192,245353,1,0,0:0:0:0:
256,192,245444,1,8,0:0:0:0:
256,192,245808,1,0,0:0:0:0:
256,192,245990,1,8,0:0:0:0:
256,192,246171,1,0,0:0:0:0:
256,192,246262,1,0,0:0:0:0:
256,192,246444,1,0,0:0:0:0:
256,192,246535,1,0,0:0:0:0:
256,192,246717,1,0,0:0:0:0:
256,192,246808,1,0,0:0:0:0:
256,192,246899,1,8,0:0:0:0:
256,192,247080,1,0,0:0:0:0:
256,192,247262,1,0,0:0:0:0:
256,192,247353,1,8,0:0:0:0:
256,192,247444,1,0,0:0:0:0:
256,192,247626,1,0,0:0:0:0:
256,192,247717,1,0,0:0:0:0:
256,192,247899,1,0,0:0:0:0:
256,192,247990,1,0,0:0:0:0:
256,192,248171,1,0,0:0:0:0:
256,192,248353,1,8,0:0:0:0:
256,192,248535,1,0,0:0:0:0:
256,192,248899,1,8,0:0:0:0:
256,192,249080,1,0,0:0:0:0:
256,192,249171,1,0,0:0:0:0:
256,192,249353,1,0,0:0:0:0:
256,192,249444,1,0,0:0:0:0:
256,192,249626,1,0,0:0:0:0:
256,192,249808,1,8,0:0:0:0:
256,192,249990,1,0,0:0:0:0:
256,192,250353,1,8,0:0:0:0:
256,192,250535,1,0,0:0:0:0:
256,192,250808,1,0,0:0:0:0:
256,192,251080,1,0,0:0:0:0:
256,192,251171,1,0,0:0:0:0:
256,192,251262,1,8,0:0:0:0:
256,192,251444,1,0,0:0:0:0:
256,192,251626,1,0,0:0:0:0:
256,192,251808,1,8,0:0:0:0:
256,192,251990,1,0,0:0:0:0:
256,192,252080,1,0,0:0:0:0:
256,192,252262,1,0,0:0:0:0:
256,192,252353,1,0,0:0:0:0:
256,192,252535,1,0,0:0:0:0:
256,192,252626,1,0,0:0:0:0:
256,192,252717,1,8,0:0:0:0:
256,192,252899,1,0,0:0:0:0:
256,192,253080,1,0,0:0:0:0:
256,192,253171,1,0,0:0:0:0:
256,192,253262,1,8,0:0:0:0:
256,192,253353,1,8,0:0:0:0:
256,192,253444,1,0,0:0:0:0:
256,192,253717,1,0,0:0:0:0:
256,192,253990,1,0,0:0:0:0:
256,192,254171,1,8,0:0:0:0:
256,192,254353,1,0,0:0:0:0:
256,192,254535,1,0,0:0:0:0:
256,192,254717,1,8,0:0:0:0:
256,192,254899,1,0,0:0:0:0:
256,192,255262,1,8,0:0:0:0:
256,192,255353,1,0,0:0:0:0:
256,192,255444,1,0,0:0:0:0:
256,192,255626,1,8,0:0:0:0:
256,192,255747,1,8,0:0:0:0:
256,192,255868,1,8,0:0:0:0:
256,192,255990,1,0,0:0:0:0:
256,192,256171,1,8,0:0:0:0:
256,192,256353,1,0,0:0:0:0:
256,192,256535,1,8,0:0:0:0:
256,192,256626,1,8,0:0:0:0:
256,192,256717,1,0,0:0:0:0:
256,192,256808,1,0,0:0:0:0:
256,192,256899,1,8,0:0:0:0:
256,192,257080,1,8,0:0:0:0:
256,192,257262,1,0,0:0:0:0:
256,192,257626,1,8,0:0:0:0:
256,192,257808,1,0,0:0:0:0:
256,192,257990,1,0,0:0:0:0:
256,192,258080,1,0,0:0:0:0:
256,192,258171,1,8,0:0:0:0:
256,192,258262,1,8,0:0:0:0:
256,192,258353,1,0,0:0:0:0:
256,192,258444,1,0,0:0:0:0:
256,192,258535,1,8,0:0:0:0:
256,192,258717,1,8,0:0:0:0:
256,192,258808,1,8,0:0:0:0:
256,192,258899,1,0,0:0:0:0:
256,192,258990,1,0,0:0:0:0:
256,192,259080,1,8,0:0:0:0:
256,192,259262,1,0,0:0:0:0:
256,192,259626,1,0,0:0:0:0:
256,192,259717,1,0,0:0:0:0:
256,192,259808,1,0,0:0:0:0:
256,192,259899,1,0,0:0:0:0:
256,192,259990,1,8,0:0:0:0:
256,192,260171,1,8,0:0:0:0:
256,192,260262,1,8,0:0:0:0:
256,192,260353,1,0,0:0:0:0:
256,192,260535,1,8,0:0:0:0:
256,192,260626,1,0,0:0:0:0:
256,192,260717,1,0,0:0:0:0:
256,192,261080,1,8,0:0:0:0:
256,192,261171,1,0,0:0:0:0:
256,192,261262,1,8,0:0:0:0:
256,192,261353,1,0,0:0:0:0:
256,192,261444,1,8,0:0:0:0:
256,192,261626,1,0,0:0:0:0:
256,192,261717,1,0,0:0:0:0:
256,192,261808,1,8,0:0:0:0:
256,192,261899,1,8,0:0:0:0:
256,192,261990,1,0,0:0:0:0:
256,192,262171,1,0,0:0:0:0:
256,192,262353,1,0,0:0:0:0:
256,192,262444,1,0,0:0:0:0:
256,192,262535,1,8,0:0:0:0:
256,192,262717,1,8,0:0:0:0:
256,192,262808,1,0,0:0:0:0:
256,192,262899,1,8,0:0:0:0:
256,192,263262,1,0,0:0:0:0:
256,192,263353,1,0,0:0:0:0:
256,192,263444,1,8,0:0:0:0:
256,192,263626,1,0,0:0:0:0:
256,192,263808,1,0,0:0:0:0:
256,192,263899,1,0,0:0:0:0:
256,192,263990,1,8,0:0:0:0:
256,192,264080,1,0,0:0:0:0:
256,192,264171,1,8,0:0:0:0:
256,192,264353,1,8,0:0:0:0:
256,192,264535,1,8,0:0:0:0:
256,192,264626,1,0,0:0:0:0:
256,192,264717,1,0,0:0:0:0:
256,192,264808,1,0,0:0:0:0:
256,192,264899,1,8,0:0:0:0:
256,192,265080,1,8,0:0:0:0:
256,192,265444,1,0,0:0:0:0:
256,192,265626,1,8,0:0:0:0:
256,192,265808,1,8,0:0:0:0:
256,192,265899,1,8,0:0:0:0:
256,192,265990,1,8,0:0:0:0:
256,192,266080,1,8,0:0:0:0:
256,192,266171,1,0,0:0:0:0:
256,192,266353,1,8,0:0:0:0:
256,192,266535,1,0,0:0:0:0:
256,192,266899,1,8,0:0:0:0:
256,192,267080,1,0,0:0:0:0:
256,192,267171,1,0,0:0:0:0:
256,192,267262,1,8,0:0:0:0:
256,192,267383,1,8,0:0:0:0:
256,192,267505,1,8,0:0:0:0:
256,192,267626,1,0,0:0:0:0:
256,192,267808,1,8,0:0:0:0:
256,192,267899,1,0,0:0:0:0:
256,192,267990,1,0,0:0:0:0:
256,192,268171,1,8,0:0:0:0:
256,192,268353,1,0,0:0:0:0:
256,192,268444,1,0,0:0:0:0:
256,192,268535,1,0,0:0:0:0:
256,192,268626,1,0,0:0:0:0:
256,192,268717,1,8,0:0:0:0:
256,192,268899,1,0,0:0:0:0:
256,192,269262,1,8,0:0:0:0:
256,192,269353,1,8,0:0:0:0:
256,192,269444,1,0,0:0:0:0:
256,192,269808,1,0,0:0:0:0:
256,192,269899,1,8,0:0:0:0:
256,192,269990,1,8,0:0:0:0:
256,192,270080,1,0,0:0:0:0:
256,192,270171,1,8,0:0:0:0:
256,192,270353,1,8,0:0:0:0:
256,192,270444,1,8,0:0:0:0:
256,192,270535,1,0,0:0:0:0:
256,192,270626,1,0,0:0:0:0:
256,192,270717,1,8,0:0:0:0:
256,192,270899,1,0,0:0:0:0:
256,192,271080,1,8,0:0:0:0:
256,192,271262,1,8,0:0:0:0:
256,192,271444,1,0,0:0:0:0:
256,192,271535,1,0,0:0:0:0:
256,192,271626,1,8,0:0:0:0:
256,192,271808,1,8,0:0:0:0:
256,192,271990,1,0,0:0:0:0:
256,192,272080,1,0,0:0:0:0:
256,192,272171,1,0,0:0:0:0:
256,192,272262,1,0,0:0:0:0:
256,192,272353,1,0,0:0:0:0:
256,192,272717,1,8,0:0:0:0:
256,192,272899,1,8,0:0:0:0:
256,192,272990,1,0,0:0:0:0:
256,192,273080,1,8,0:0:0:0:
256,192,273171,1,8,0:0:0:0:
256,192,273262,1,0,0:0:0:0:
256,192,273353,1,0,0:0:0:0:
256,192,273444,1,8,0:0:0:0:
256,192,273808,1,0,0:0:0:0:
256,192,274171,1,0,0:0:0:0:
256,192,274262,1,0,0:0:0:0:
256,192,274353,1,0,0:0:0:0:
256,192,274444,1,0,0:0:0:0:
256,192,274535,1,8,0:0:0:0:
256,192,274899,1,0,0:0:0:0:
256,192,274990,1,0,0:0:0:0:
256,192,275080,1,8,0:0:0:0:
256,192,275262,1,0,0:0:0:0:
256,192,275444,1,0,0:0:0:0:
256,192,275535,1,0,0:0:0:0:
256,192,275626,1,8,0:0:0:0:
256,192,275717,1,8,0:0:0:0:
256,192,275808,1,8,0:0:0:0:
256,192,275990,1,8,0:0:0:0:
256,192,276171,1,8,0:0:0:0:
256,192,276353,1,0,0:0:0:0:
256,192,276444,1,0,0:0:0:0:
256,192,276535,1,8,0:0:0:0:
256,192,276626,1,8,0:0:0:0:
256,192,276717,1,0,0:0:0:0:
256,192,277080,1,0,0:0:0:0:
256,192,277171,1,8,0:0:0:0:
256,192,277353,1,8,0:0:0:0:
256,192,277444,1,8,0:0:0:0:
256,192,277626,1,8,0:0:0:0:
256,192,277717,1,8,0:0:0:0:
256,192,277808,1,0,0:0:0:0:
256,192,277990,1,8,0:0:0:0:
256,192,278171,1,0,0:0:0:0:
256,192,281080,1,8,0:0:0:0:
256,192,282535,1,0,0:0:0:0:
256,192,283262,1,8,0:0:0:0:
256,192,283990,1,0,0:0:0:0:
256,192,286899,1,0,0:0:0:0:
256,192,288353,1,8,0:0:0:0:
256,192,289080,1,8,0:0:0:0:
256,192,289808,12,0,292353,0:0:0:0:
