osu file format v14

[General]
AudioFilename: audio.ogg
AudioLeadIn: 0
PreviewTime: 151987
Countdown: 0
SampleSet: Normal
StackLeniency: 0.7
Mode: 1
LetterboxInBreaks: 0
WidescreenStoryboard: 1

[Editor]
Bookmarks: 158,131279,140645,187475
DistanceSpacing: 1
BeatDivisor: 4
GridSize: 32
TimelineZoom: 3.599999

[Metadata]
Title:Eighty-Sixed
TitleUnicode:Eighty-Sixed
Artist:The Fallen Prodigy
ArtistUnicode:The Fallen Prodigy
Creator:skolodojko
Version:Oni
Source:
Tags:english metal death deathcore metalcore post-hardcore relive // regret // repeat
BeatmapID:3753884
BeatmapSetID:1829005

[Difficulty]
HPDrainRate:6
CircleSize:2
OverallDifficulty:6
ApproachRate:10
SliderMultiplier:1.4
SliderTickRate:1

[Events]
//Background and Video events
0,0,"3911443.jpg",0,60
//Break Periods
2,150073,151911
//Storyboard Layer 0 (Background)
//Storyboard Layer 1 (Fail)
//Storyboard Layer 2 (Pass)
//Storyboard Layer 3 (Foreground)
//Storyboard Layer 4 (Overlay)
//Storyboard Sound Samples

[TimingPoints]
166,292.682926829268,4,1,0,100,1,0
166,-95.2380952380952,4,1,0,100,0,1
25922,-83.3333333333333,4,1,0,100,0,0
28263,-95.2380952380952,4,1,0,100,0,1
35287,-83.3333333333333,4,1,0,100,0,0
37629,-95.2380952380952,4,1,0,100,0,1
44653,-100,4,1,0,100,0,0
46995,-95.2380952380952,4,1,0,100,0,1
54019,-100,4,1,0,100,0,0
56342,-100,4,1,0,90,0,0
56507,-100.502512562814,4,1,0,90,0,0
56653,-101.010101010101,4,1,0,90,0,0
56800,-101.522842639594,4,1,0,90,0,0
56873,-102.040816326531,4,1,0,90,0,0
56946,-102.564102564103,4,1,0,90,0,0
57092,-103.092783505155,4,1,0,90,0,0
57239,-103.626943005181,4,1,0,90,0,0
57385,-104.166666666667,4,1,0,90,0,0
57458,-104.712041884817,4,1,0,90,0,0
57531,-105.263157894737,4,1,0,90,0,0
57678,-105.820105820106,4,1,0,90,0,0
57824,-106.382978723404,4,1,0,90,0,0
57897,-106.951871657754,4,1,0,90,0,0
57970,-107.52688172043,4,1,0,90,0,0
58044,-108.108108108108,4,1,0,90,0,0
58117,-108.695652173913,4,1,0,90,0,0
58263,-109.289617486339,4,1,0,90,0,0
58409,-109.89010989011,4,1,0,90,0,0
58556,-110.497237569061,4,1,0,90,0,0
58702,-111.111111111111,4,1,0,90,0,0
63531,-100,4,1,0,90,0,0
65855,-100.502512562814,4,1,0,90,0,0
66001,-101.010101010101,4,1,0,90,0,0
66148,-101.522842639594,4,1,0,90,0,0
66221,-102.040816326531,4,1,0,90,0,0
66294,-102.564102564103,4,1,0,90,0,0
66440,-103.092783505155,4,1,0,90,0,0
66587,-103.626943005181,4,1,0,90,0,0
66733,-104.166666666667,4,1,0,90,0,0
66806,-104.712041884817,4,1,0,90,0,0
66879,-105.263157894737,4,1,0,90,0,0
67026,-105.820105820106,4,1,0,90,0,0
67172,-106.382978723404,4,1,0,90,0,0
67245,-106.951871657754,4,1,0,90,0,0
67318,-107.52688172043,4,1,0,90,0,0
67392,-108.108108108108,4,1,0,90,0,0
67465,-108.695652173913,4,1,0,90,0,0
67611,-109.289617486339,4,1,0,90,0,0
67757,-109.89010989011,4,1,0,90,0,0
67904,-110.497237569061,4,1,0,90,0,0
68050,-109.817702613661,4,1,0,90,0,0
72751,-109.146474568871,4,1,0,90,0,0
72824,-108.495171964848,4,1,0,90,0,0
72897,-107.839965491211,4,1,0,90,0,0
72970,-107.19262514739,4,1,0,90,0,0
73044,-106.553010122536,4,1,0,90,0,0
73117,-105.932203389831,4,1,0,90,0,0
73190,-105.30749789385,4,1,0,90,0,0
73263,-104.690117252931,4,1,0,90,0,0
73336,-104.079933388843,4,1,0,90,0,0
73409,-103.487529752665,4,1,0,90,0,0
73483,-102.891243955139,4,1,0,90,0,0
73556,-102.30179028133,4,1,0,90,0,0
73629,-101.719051978436,4,1,0,90,0,0
73702,-101.142914938809,4,1,0,90,0,0
73775,-100.583383625025,4,1,0,90,0,0
73848,-100.0200040008,4,1,0,90,0,0
73922,-99.4629003381739,4,1,0,90,0,0
73995,-98.9119683481701,4,1,0,90,0,0
74068,-98.3767830791933,4,1,0,90,0,0
74141,-97.8377849525487,4,1,0,90,0,0
74214,-97.3046608932568,4,1,0,90,0,0
74287,-96.7773153972709,4,1,0,90,0,0
74361,-96.2649210627647,4,1,0,90,0,0
74434,-95.7487552661815,4,1,0,90,0,0
74507,-95.2380952380952,4,1,0,90,0,0
75019,-105.263157894737,4,1,0,80,0,0
84458,-117.647058823529,4,1,0,80,0,0
84653,-115.942028985507,4,1,0,80,0,0
84751,-114.285714285714,4,1,0,80,0,0
84848,-112.676056338028,4,1,0,80,0,0
84946,-111.111111111111,4,1,0,80,0,0
85044,-109.58904109589,4,1,0,80,0,0
85141,-108.108108108108,4,1,0,80,0,0
85239,-106.666666666667,4,1,0,80,0,0
85336,-105.263157894737,4,1,0,80,0,0
112653,-111.111111111111,4,1,0,80,0,0
152214,-111.111111111111,4,1,0,100,0,0
152361,-95.2380952380952,4,1,0,100,0,1
159385,-100,4,1,0,100,0,0
161726,-95.2380952380952,4,1,0,100,0,1
168678,-95.2380952380952,4,1,0,90,0,1
168751,-95.2380952380952,4,1,0,90,0,0
168897,-95.9232613908873,4,1,0,90,0,0
169044,-96.6183574879227,4,1,0,90,0,0
169190,-97.323600973236,4,1,0,90,0,0
169263,-98.0392156862745,4,1,0,90,0,0
169336,-98.7654320987654,4,1,0,90,0,0
169483,-99.5024875621891,4,1,0,90,0,0
169629,-100.250626566416,4,1,0,90,0,0
169775,-101.010101010101,4,1,0,90,0,0
169848,-101.781170483461,4,1,0,90,0,0
169922,-102.564102564103,4,1,0,90,0,0
170068,-103.359173126615,4,1,0,90,0,0
170214,-104.166666666667,4,1,0,90,0,0
170287,-104.98687664042,4,1,0,90,0,0
170361,-105.820105820106,4,1,0,90,0,0
170434,-106.666666666667,4,1,0,90,0,0
170507,-107.52688172043,4,1,0,90,0,0
170653,-108.40108401084,4,1,0,90,0,0
170800,-109.289617486339,4,1,0,90,0,0
170946,-110.192837465565,4,1,0,90,0,0
171092,-111.111111111111,4,1,0,90,0,0
175912,-100,4,1,0,90,0,0
178263,-100.502512562814,4,1,0,90,0,0
178409,-101.010101010101,4,1,0,90,0,0
178556,-101.522842639594,4,1,0,90,0,0
178629,-102.040816326531,4,1,0,90,0,0
178702,-102.564102564103,4,1,0,90,0,0
178848,-103.092783505155,4,1,0,90,0,0
178995,-103.626943005181,4,1,0,90,0,0
179141,-104.166666666667,4,1,0,90,0,0
179214,-104.712041884817,4,1,0,90,0,0
179287,-105.263157894737,4,1,0,90,0,0
179434,-105.820105820106,4,1,0,90,0,0
179580,-106.382978723404,4,1,0,90,0,0
179653,-106.951871657754,4,1,0,90,0,0
179726,-107.52688172043,4,1,0,90,0,0
179800,-108.108108108108,4,1,0,90,0,0
179873,-108.695652173913,4,1,0,90,0,0
180019,-109.289617486339,4,1,0,90,0,0
180165,-109.89010989011,4,1,0,90,0,0
180312,-110.497237569061,4,1,0,90,0,0
180458,-111.111111111111,4,1,0,90,0,0
185141,-100,4,1,0,90,0,0
187775,-117.647058823529,4,1,0,80,0,0

[HitObjects]
237,258,166,5,12,0:0:0:0:
237,258,312,1,0,0:0:0:0:
237,258,458,1,8,0:0:0:0:
208,220,531,1,8,0:0:0:0:
237,258,605,1,0,0:0:0:0:
237,258,751,1,8,0:0:0:0:
237,258,897,1,0,0:0:0:0:
237,258,1044,1,0,0:0:0:0:
208,220,1117,1,0,0:0:0:0:
237,258,1190,1,8,0:0:0:0:
208,220,1263,1,8,0:0:0:0:
237,258,1336,1,0,0:0:0:0:
237,258,1483,1,8,0:0:0:0:
237,258,1629,1,0,0:0:0:0:
208,220,1702,1,0,0:0:0:0:
237,258,1775,1,8,0:0:0:0:
237,258,1922,1,0,0:0:0:0:
237,258,2068,1,8,0:0:0:0:
237,258,2214,1,0,0:0:0:0:
237,258,2507,1,8,0:0:0:0:
237,258,2653,1,8,0:0:0:0:
237,258,2800,1,0,0:0:0:0:
220,206,2873,1,0,0:0:0:0:
237,258,2946,1,8,0:0:0:0:
220,206,3019,1,8,0:0:0:0:
237,258,3092,1,0,0:0:0:0:
237,258,3239,1,8,0:0:0:0:
237,258,3385,1,0,0:0:0:0:
277,184,3458,1,0,0:0:0:0:
237,258,3531,1,8,0:0:0:0:
220,206,3678,1,0,0:0:0:0:
237,258,3824,1,8,0:0:0:0:
237,258,3970,1,0,0:0:0:0:
250,217,4044,1,0,0:0:0:0:
237,258,4117,1,8,0:0:0:0:
251,217,4190,1,8,0:0:0:0:
237,258,4263,1,0,0:0:0:0:
237,258,4409,1,8,0:0:0:0:
237,258,4556,1,0,0:0:0:0:
237,258,4848,1,8,0:0:0:0:
237,258,4995,1,0,0:0:0:0:
237,258,5141,1,8,0:0:0:0:
242,214,5214,1,8,0:0:0:0:
237,258,5287,1,0,0:0:0:0:
282,192,5361,1,8,0:0:0:0:
237,258,5434,1,0,0:0:0:0:
237,258,5580,1,8,0:0:0:0:
237,258,5726,1,0,0:0:0:0:
236,232,5800,1,0,0:0:0:0:
237,258,5873,1,8,0:0:0:0:
237,258,6019,1,0,0:0:0:0:
237,258,6165,1,8,0:0:0:0:
224,220,6239,1,8,0:0:0:0:
237,258,6312,1,0,0:0:0:0:
237,258,6458,1,8,0:0:0:0:
237,258,6605,1,0,0:0:0:0:
237,258,6751,1,8,0:0:0:0:
237,258,6897,1,0,0:0:0:0:
237,258,7190,1,0,0:0:0:0:
237,258,7336,1,8,0:0:0:0:
237,258,7483,1,0,0:0:0:0:
279,188,7556,1,0,0:0:0:0:
237,258,7629,1,0,0:0:0:0:
240,196,7775,1,8,0:0:0:0:
237,258,7922,1,0,0:0:0:0:
218,190,7995,1,0,0:0:0:0:
237,258,8068,1,8,0:0:0:0:
222,190,8141,1,8,0:0:0:0:
237,258,8214,1,0,0:0:0:0:
237,258,8361,1,8,0:0:0:0:
237,258,8507,1,0,0:0:0:0:
262,144,8580,1,8,0:0:0:0:
237,258,8653,1,0,0:0:0:0:
237,258,8800,1,8,0:0:0:0:
237,258,8946,1,0,0:0:0:0:
237,258,9092,1,8,0:0:0:0:
237,258,9239,1,0,0:0:0:0:
237,258,9531,1,8,0:0:0:0:
237,258,9678,1,0,0:0:0:0:
237,258,9824,1,8,0:0:0:0:
272,151,9897,1,8,0:0:0:0:
237,258,9970,1,8,0:0:0:0:
272,151,10044,1,8,0:0:0:0:
237,258,10117,1,0,0:0:0:0:
237,258,10263,1,8,0:0:0:0:
237,258,10409,1,0,0:0:0:0:
252,155,10483,1,0,0:0:0:0:
237,258,10556,1,8,0:0:0:0:
237,258,10702,1,0,0:0:0:0:
237,258,10848,1,8,0:0:0:0:
252,155,10995,1,0,0:0:0:0:
237,258,11141,1,0,0:0:0:0:
252,155,11214,1,0,0:0:0:0:
237,258,11287,1,8,0:0:0:0:
237,258,11434,1,0,0:0:0:0:
237,258,11580,1,8,0:0:0:0:
237,258,11873,1,0,0:0:0:0:
237,258,12019,1,8,0:0:0:0:
237,258,12165,1,0,0:0:0:0:
251,161,12239,1,0,0:0:0:0:
237,258,12312,1,8,0:0:0:0:
237,258,12458,1,0,0:0:0:0:
237,258,12605,1,8,0:0:0:0:
237,258,12751,1,0,0:0:0:0:
237,258,12897,1,8,0:0:0:0:
251,161,12970,1,8,0:0:0:0:
237,258,13044,1,0,0:0:0:0:
237,258,13190,1,8,0:0:0:0:
237,258,13336,1,0,0:0:0:0:
251,161,13409,1,0,0:0:0:0:
237,258,13483,1,8,0:0:0:0:
251,161,13556,1,8,0:0:0:0:
237,258,13629,1,8,0:0:0:0:
237,258,13775,1,0,0:0:0:0:
237,258,13922,1,8,0:0:0:0:
237,258,14214,1,0,0:0:0:0:
237,258,14361,1,8,0:0:0:0:
252,163,14434,1,8,0:0:0:0:
237,258,14507,1,0,0:0:0:0:
237,258,14653,1,8,0:0:0:0:
237,258,14800,1,0,0:0:0:0:
252,163,14873,1,0,0:0:0:0:
237,258,14946,1,8,0:0:0:0:
252,163,15019,1,8,0:0:0:0:
237,258,15092,1,0,0:0:0:0:
237,258,15239,1,8,0:0:0:0:
237,258,15385,1,0,0:0:0:0:
237,258,15531,1,0,0:0:0:0:
252,163,15605,1,0,0:0:0:0:
237,258,15678,1,8,0:0:0:0:
237,258,15824,1,0,0:0:0:0:
237,258,15970,1,8,0:0:0:0:
237,258,16117,1,8,0:0:0:0:
237,258,16263,1,0,0:0:0:0:
237,258,16556,1,8,0:0:0:0:
237,258,16702,1,8,0:0:0:0:
237,258,16848,1,0,0:0:0:0:
253,164,16922,1,0,0:0:0:0:
237,258,16995,1,8,0:0:0:0:
237,258,17141,1,0,0:0:0:0:
237,258,17287,1,8,0:0:0:0:
237,258,17434,1,0,0:0:0:0:
253,164,17507,1,0,0:0:0:0:
237,258,17580,1,8,0:0:0:0:
253,164,17653,1,8,0:0:0:0:
237,258,17726,1,0,0:0:0:0:
237,258,17873,1,8,0:0:0:0:
237,258,18019,1,0,0:0:0:0:
253,164,18092,1,8,0:0:0:0:
237,258,18165,1,0,0:0:0:0:
237,258,18312,1,8,0:0:0:0:
242,261,18458,1,8,0:0:0:0:
242,261,18605,1,0,0:0:0:0:
242,261,18897,1,0,0:0:0:0:
242,261,19044,1,8,0:0:0:0:
242,261,19190,1,0,0:0:0:0:
242,261,19336,1,8,0:0:0:0:
242,261,19483,1,0,0:0:0:0:
242,261,19629,1,8,0:0:0:0:
206,264,19922,1,8,0:0:0:0:
206,265,20068,1,8,0:0:0:0:
206,265,20214,1,0,0:0:0:0:
224,175,20287,1,0,0:0:0:0:
206,265,20361,1,8,0:0:0:0:
206,264,20507,1,0,0:0:0:0:
206,264,20653,1,8,0:0:0:0:
206,264,20800,1,8,0:0:0:0:
206,265,20946,1,0,0:0:0:0:
206,264,21239,1,0,0:0:0:0:
206,264,21385,1,8,0:0:0:0:
206,264,21531,1,0,0:0:0:0:
206,264,21678,1,8,0:0:0:0:
259,169,21751,1,8,0:0:0:0:
206,264,21824,1,0,0:0:0:0:
234,251,21970,1,8,0:0:0:0:
232,249,22263,1,0,0:0:0:0:
232,249,22409,1,8,0:0:0:0:
232,249,22556,1,8,0:0:0:0:
234,251,22702,1,0,0:0:0:0:
232,249,22848,1,0,0:0:0:0:
252,168,22922,1,0,0:0:0:0:
232,249,22995,1,8,0:0:0:0:
232,249,23141,1,0,0:0:0:0:
232,249,23287,1,8,0:0:0:0:
234,251,23434,1,8,0:0:0:0:
252,168,23507,1,8,0:0:0:0:
234,249,23580,1,0,0:0:0:0:
232,249,23726,1,8,0:0:0:0:
232,249,23873,1,0,0:0:0:0:
232,249,24019,1,8,0:0:0:0:
232,249,24165,1,0,0:0:0:0:
226,249,24312,1,8,0:0:0:0:
232,249,24605,1,0,0:0:0:0:
232,249,24751,1,8,0:0:0:0:
232,249,24897,1,8,0:0:0:0:
251,172,24970,1,8,0:0:0:0:
226,249,25044,1,0,0:0:0:0:
232,249,25190,1,8,0:0:0:0:
232,249,25336,1,0,0:0:0:0:
232,249,25483,1,0,0:0:0:0:
232,249,25629,1,8,0:0:0:0:
239,237,25922,1,0,0:0:0:0:
257,170,25995,1,0,0:0:0:0:
222,244,26068,1,0,0:0:0:0:
257,170,26141,1,0,0:0:0:0:
220,245,26214,1,0,0:0:0:0:
220,245,26507,1,8,0:0:0:0:
257,170,26580,1,8,0:0:0:0:
220,245,26653,1,8,0:0:0:0:
257,170,26726,1,8,0:0:0:0:
222,244,26800,1,8,0:0:0:0:
220,245,27092,1,0,0:0:0:0:
257,170,27165,1,0,0:0:0:0:
220,245,27239,1,0,0:0:0:0:
257,170,27312,1,0,0:0:0:0:
220,245,27385,1,0,0:0:0:0:
220,245,27678,1,8,0:0:0:0:
257,170,27751,1,8,0:0:0:0:
220,245,27824,1,8,0:0:0:0:
257,170,27897,1,8,0:0:0:0:
220,245,27970,1,8,0:0:0:0:
213,195,28263,1,0,0:0:0:0:
213,195,28409,1,8,0:0:0:0:
213,195,28556,1,0,0:0:0:0:
213,195,28702,1,8,0:0:0:0:
213,195,28848,1,0,0:0:0:0:
213,195,28995,1,8,0:0:0:0:
213,195,29287,1,8,0:0:0:0:
213,195,29434,1,0,0:0:0:0:
213,195,29580,1,8,0:0:0:0:
263,146,29653,1,8,0:0:0:0:
213,195,29726,1,0,0:0:0:0:
213,195,29873,1,8,0:0:0:0:
213,195,30019,1,8,0:0:0:0:
213,195,30165,1,8,0:0:0:0:
213,195,30312,1,0,0:0:0:0:
213,195,30605,1,0,0:0:0:0:
213,195,30751,1,8,0:0:0:0:
213,195,30897,1,0,0:0:0:0:
213,195,31044,1,8,0:0:0:0:
213,195,31190,1,0,0:0:0:0:
213,195,31336,1,8,0:0:0:0:
213,195,31629,1,0,0:0:0:0:
213,195,31775,1,8,0:0:0:0:
217,217,31922,1,0,0:0:0:0:
286,146,31995,1,0,0:0:0:0:
213,195,32068,1,8,0:0:0:0:
213,195,32214,1,0,0:0:0:0:
220,193,32361,1,8,0:0:0:0:
218,216,32507,1,0,0:0:0:0:
286,146,32580,1,8,0:0:0:0:
221,216,32653,1,0,0:0:0:0:
217,217,32800,1,8,0:0:0:0:
223,214,32946,1,0,0:0:0:0:
224,213,33092,1,8,0:0:0:0:
218,216,33239,1,0,0:0:0:0:
221,216,33385,1,8,0:0:0:0:
224,213,33531,1,0,0:0:0:0:
223,214,33678,1,8,0:0:0:0:
225,212,33970,1,8,0:0:0:0:
225,212,34117,1,0,0:0:0:0:
226,211,34263,1,8,0:0:0:0:
269,149,34336,1,8,0:0:0:0:
224,213,34409,1,0,0:0:0:0:
223,214,34556,1,8,0:0:0:0:
225,212,34702,1,0,0:0:0:0:
225,212,34848,1,0,0:0:0:0:
225,212,34995,1,8,0:0:0:0:
223,214,35287,1,0,0:0:0:0:
269,153,35361,1,0,0:0:0:0:
225,212,35434,1,0,0:0:0:0:
269,153,35507,1,0,0:0:0:0:
225,212,35580,1,0,0:0:0:0:
225,212,35873,1,8,0:0:0:0:
269,153,35946,1,8,0:0:0:0:
230,211,36019,1,8,0:0:0:0:
269,153,36092,1,8,0:0:0:0:
231,211,36165,1,8,0:0:0:0:
231,210,36458,1,0,0:0:0:0:
269,153,36531,1,0,0:0:0:0:
232,210,36605,1,0,0:0:0:0:
269,153,36678,1,0,0:0:0:0:
232,210,36751,1,0,0:0:0:0:
269,153,37044,1,8,0:0:0:0:
269,153,37117,1,8,0:0:0:0:
269,153,37190,1,8,0:0:0:0:
269,153,37263,1,8,0:0:0:0:
232,210,37336,1,8,0:0:0:0:
233,200,37629,1,0,0:0:0:0:
234,200,37775,1,8,0:0:0:0:
234,199,37922,1,0,0:0:0:0:
259,160,37995,1,0,0:0:0:0:
235,199,38068,1,8,0:0:0:0:
259,160,38141,1,8,0:0:0:0:
233,200,38214,1,0,0:0:0:0:
233,200,38361,1,8,0:0:0:0:
233,200,38507,1,0,0:0:0:0:
259,160,38580,1,0,0:0:0:0:
234,199,38653,1,8,0:0:0:0:
234,199,38800,1,0,0:0:0:0:
235,199,38946,1,8,0:0:0:0:
233,200,39092,1,8,0:0:0:0:
233,200,39239,1,0,0:0:0:0:
234,199,39385,1,8,0:0:0:0:
259,160,39458,1,8,0:0:0:0:
234,199,39531,1,0,0:0:0:0:
259,160,39605,1,0,0:0:0:0:
231,216,39678,1,8,0:0:0:0:
233,200,39970,1,0,0:0:0:0:
230,206,40117,1,8,0:0:0:0:
259,160,40190,1,8,0:0:0:0:
230,206,40263,1,8,0:0:0:0:
230,205,40409,1,0,0:0:0:0:
233,200,40556,1,8,0:0:0:0:
259,160,40629,1,0,0:0:0:0:
233,200,40702,1,0,0:0:0:0:
259,160,40775,1,0,0:0:0:0:
233,200,40848,1,8,0:0:0:0:
230,206,40995,1,0,0:0:0:0:
259,160,41141,1,8,0:0:0:0:
233,200,41287,1,0,0:0:0:0:
233,200,41434,1,8,0:0:0:0:
242,170,41507,1,0,0:0:0:0:
233,200,41580,1,8,0:0:0:0:
242,169,41653,1,8,0:0:0:0:
233,200,41726,1,0,0:0:0:0:
230,206,41873,1,8,0:0:0:0:
233,200,42019,1,0,0:0:0:0:
233,200,42312,1,8,0:0:0:0:
233,200,42458,1,0,0:0:0:0:
239,169,42531,1,0,0:0:0:0:
230,206,42605,1,0,0:0:0:0:
233,200,42751,1,8,0:0:0:0:
233,200,42897,1,0,0:0:0:0:
241,167,42970,1,0,0:0:0:0:
233,200,43044,1,8,0:0:0:0:
242,167,43117,1,0,0:0:0:0:
233,200,43190,1,8,0:0:0:0:
230,206,43336,1,0,0:0:0:0:
233,200,43483,1,8,0:0:0:0:
233,200,43629,1,0,0:0:0:0:
233,200,43775,1,8,0:0:0:0:
233,200,43922,1,0,0:0:0:0:
243,167,43995,1,0,0:0:0:0:
230,206,44068,1,8,0:0:0:0:
243,167,44141,1,8,0:0:0:0:
233,200,44214,1,0,0:0:0:0:
233,200,44361,1,8,0:0:0:0:
268,218,44653,1,0,0:0:0:0:
268,218,44800,1,8,0:0:0:0:
212,216,45092,1,8,0:0:0:0:
212,216,45239,1,0,0:0:0:0:
209,217,45385,1,8,0:0:0:0:
268,192,45458,1,8,0:0:0:0:
209,217,45531,1,0,0:0:0:0:
209,217,45678,1,8,0:0:0:0:
212,216,45824,1,0,0:0:0:0:
212,216,45970,1,8,0:0:0:0:
209,217,46263,1,8,0:0:0:0:
209,217,46409,1,0,0:0:0:0:
212,216,46556,1,8,0:0:0:0:
212,216,46702,1,8,0:0:0:0:
209,217,46848,1,0,0:0:0:0:
209,217,46995,1,8,0:0:0:0:
257,197,47068,1,0,0:0:0:0:
344,188,47141,1,0,0:0:0:0:
257,197,47214,1,0,0:0:0:0:
344,188,47287,1,8,0:0:0:0:
344,188,47434,1,0,0:0:0:0:
344,188,47580,1,8,0:0:0:0:
344,188,47726,1,0,0:0:0:0:
234,197,47800,1,0,0:0:0:0:
344,188,47873,1,8,0:0:0:0:
344,188,48019,1,0,0:0:0:0:
234,193,48092,1,0,0:0:0:0:
344,188,48165,1,8,0:0:0:0:
344,188,48312,1,0,0:0:0:0:
344,188,48458,1,8,0:0:0:0:
344,188,48605,1,8,0:0:0:0:
234,193,48678,1,8,0:0:0:0:
344,188,48751,1,0,0:0:0:0:
344,188,48897,1,8,0:0:0:0:
344,188,49044,1,0,0:0:0:0:
344,188,49336,1,0,0:0:0:0:
344,188,49483,1,8,0:0:0:0:
232,193,49556,1,8,0:0:0:0:
344,188,49629,1,0,0:0:0:0:
344,188,49775,1,8,0:0:0:0:
344,188,49922,1,0,0:0:0:0:
232,193,49995,1,8,0:0:0:0:
344,188,50068,1,0,0:0:0:0:
232,193,50141,1,0,0:0:0:0:
344,188,50214,1,8,0:0:0:0:
344,188,50361,1,0,0:0:0:0:
344,188,50507,1,8,0:0:0:0:
344,188,50653,1,0,0:0:0:0:
344,188,50800,1,0,0:0:0:0:
232,193,50873,1,0,0:0:0:0:
232,193,50946,1,8,0:0:0:0:
232,193,51019,1,8,0:0:0:0:
232,193,51092,1,0,0:0:0:0:
344,188,51239,1,8,0:0:0:0:
344,188,51385,1,0,0:0:0:0:
344,188,51678,1,8,0:0:0:0:
344,188,51824,1,0,0:0:0:0:
232,193,51897,1,0,0:0:0:0:
344,188,51970,1,8,0:0:0:0:
344,188,52117,1,0,0:0:0:0:
344,188,52263,1,8,0:0:0:0:
232,193,52336,1,8,0:0:0:0:
344,188,52409,1,0,0:0:0:0:
232,193,52483,1,8,0:0:0:0:
344,188,52556,1,0,0:0:0:0:
344,188,52702,1,8,0:0:0:0:
232,193,52775,1,8,0:0:0:0:
344,188,52848,1,0,0:0:0:0:
344,188,52995,1,8,0:0:0:0:
344,188,53141,1,0,0:0:0:0:
344,188,53287,1,8,0:0:0:0:
232,193,53361,1,8,0:0:0:0:
344,188,53434,1,0,0:0:0:0:
344,188,53580,1,0,0:0:0:0:
344,188,53726,1,8,0:0:0:0:
344,188,54019,1,0,0:0:0:0:
271,178,54165,1,8,0:0:0:0:
271,178,54458,1,8,0:0:0:0:
271,178,54605,1,0,0:0:0:0:
271,178,54751,1,8,0:0:0:0:
205,213,54897,1,0,0:0:0:0:
271,178,55044,1,8,0:0:0:0:
229,194,55117,1,8,0:0:0:0:
277,177,55190,1,0,0:0:0:0:
278,177,55336,1,8,0:0:0:0:
279,177,55629,1,8,0:0:0:0:
279,177,55775,1,0,0:0:0:0:
279,177,55922,1,8,0:0:0:0:
202,199,56068,1,8,0:0:0:0:
278,177,56214,1,8,0:0:0:0:
279,177,56361,1,0,0:0:0:0:
230,189,56507,1,0,0:0:0:0:
230,189,56800,1,8,0:0:0:0:
230,189,56946,1,0,0:0:0:0:
230,189,57092,1,8,0:0:0:0:
230,189,57239,1,0,0:0:0:0:
230,189,57385,1,8,0:0:0:0:
230,189,57531,1,0,0:0:0:0:
231,198,57678,1,0,0:0:0:0:
230,189,57824,1,8,0:0:0:0:
241,177,57897,1,0,0:0:0:0:
220,168,57970,1,0,0:0:0:0:
233,197,58117,1,8,0:0:0:0:
234,196,58263,1,0,0:0:0:0:
231,198,58409,1,0,0:0:0:0:
234,196,58556,1,8,0:0:0:0:
235,196,58702,1,0,0:0:0:0:
233,197,58848,1,8,0:0:0:0:
234,196,59141,1,8,0:0:0:0:
231,198,59287,1,0,0:0:0:0:
235,196,59434,1,0,0:0:0:0:
242,175,59507,1,0,0:0:0:0:
235,196,59580,1,8,0:0:0:0:
234,196,59726,1,0,0:0:0:0:
234,196,59873,1,8,0:0:0:0:
231,198,60019,1,0,0:0:0:0:
235,196,60165,1,8,0:0:0:0:
242,177,60239,1,0,0:0:0:0:
235,196,60312,1,0,0:0:0:0:
234,196,60458,1,8,0:0:0:0:
234,196,60605,1,0,0:0:0:0:
231,198,60751,1,8,0:0:0:0:
235,196,60897,1,8,0:0:0:0:
235,196,61044,1,0,0:0:0:0:
235,196,61190,1,8,0:0:0:0:
234,196,61483,1,8,0:0:0:0:
231,198,61629,1,0,0:0:0:0:
235,196,61775,1,8,0:0:0:0:
242,180,61848,1,8,0:0:0:0:
235,196,61922,1,0,0:0:0:0:
234,196,62068,1,8,0:0:0:0:
234,196,62214,1,0,0:0:0:0:
237,198,62361,1,0,0:0:0:0:
235,196,62507,1,8,0:0:0:0:
235,196,62653,1,0,0:0:0:0:
235,196,62800,1,8,0:0:0:0:
243,182,62873,1,8,0:0:0:0:
234,196,62946,1,8,0:0:0:0:
234,196,63092,1,0,0:0:0:0:
237,198,63239,1,8,0:0:0:0:
235,196,63385,1,0,0:0:0:0:
235,196,63678,1,0,0:0:0:0:
234,196,63824,1,8,0:0:0:0:
227,164,63897,1,8,0:0:0:0:
234,196,63970,1,0,0:0:0:0:
235,196,64117,1,8,0:0:0:0:
235,196,64263,1,0,0:0:0:0:
235,196,64409,1,8,0:0:0:0:
231,161,64483,1,8,0:0:0:0:
234,196,64556,1,0,0:0:0:0:
234,196,64702,1,8,0:0:0:0:
235,196,64848,1,0,0:0:0:0:
235,196,64995,1,8,0:0:0:0:
235,196,65141,1,0,0:0:0:0:
233,163,65214,1,0,0:0:0:0:
234,196,65287,1,8,0:0:0:0:
234,196,65434,1,8,0:0:0:0:
235,196,65580,1,0,0:0:0:0:
235,196,65726,1,8,0:0:0:0:
235,196,65873,1,0,0:0:0:0:
240,199,66165,1,8,0:0:0:0:
240,199,66312,1,0,0:0:0:0:
235,196,66458,1,8,0:0:0:0:
235,196,66605,1,0,0:0:0:0:
235,196,66751,1,8,0:0:0:0:
235,163,66824,1,8,0:0:0:0:
240,199,66897,1,0,0:0:0:0:
240,199,67044,1,0,0:0:0:0:
235,196,67190,1,8,0:0:0:0:
235,196,67336,1,0,0:0:0:0:
235,196,67483,1,8,0:0:0:0:
240,199,67629,1,8,0:0:0:0:
240,199,67775,1,0,0:0:0:0:
235,196,67922,1,0,0:0:0:0:
235,196,68068,1,8,0:0:0:0:
235,196,68214,1,0,0:0:0:0:
240,199,68507,1,8,0:0:0:0:
240,199,68653,1,0,0:0:0:0:
235,196,68800,1,0,0:0:0:0:
237,164,68873,1,0,0:0:0:0:
235,196,68946,1,8,0:0:0:0:
240,199,69092,1,0,0:0:0:0:
240,199,69239,1,8,0:0:0:0:
240,199,69385,1,0,0:0:0:0:
235,196,69531,1,8,0:0:0:0:
235,167,69605,1,0,0:0:0:0:
235,196,69678,1,0,0:0:0:0:
240,199,69824,1,8,0:0:0:0:
240,199,69970,1,0,0:0:0:0:
240,199,70117,1,8,0:0:0:0:
235,196,70263,1,8,0:0:0:0:
241,199,70409,1,0,0:0:0:0:
240,199,70556,1,8,0:0:0:0:
240,199,70848,1,8,0:0:0:0:
240,199,70995,1,0,0:0:0:0:
241,199,71141,1,8,0:0:0:0:
230,172,71214,1,8,0:0:0:0:
240,199,71287,1,0,0:0:0:0:
240,199,71434,1,0,0:0:0:0:
240,199,71580,1,8,0:0:0:0:
240,199,71726,1,0,0:0:0:0:
241,199,71873,1,8,0:0:0:0:
240,199,72019,1,8,0:0:0:0:
240,199,72165,1,0,0:0:0:0:
230,172,72239,1,8,0:0:0:0:
240,199,72312,1,0,0:0:0:0:
240,199,72458,1,8,0:0:0:0:
240,199,72751,1,8,0:0:0:0:
240,199,72897,1,8,0:0:0:0:
240,199,73044,1,0,0:0:0:0:
240,199,73190,1,8,0:0:0:0:
240,199,73336,1,8,0:0:0:0:
240,199,73483,1,8,0:0:0:0:
240,199,73629,1,0,0:0:0:0:
240,199,73775,1,8,0:0:0:0:
240,199,73922,1,8,0:0:0:0:
240,199,74068,1,8,0:0:0:0:
240,199,74214,1,0,0:0:0:0:
240,199,74361,1,0,0:0:0:0:
240,199,74507,1,8,0:0:0:0:
208,251,75092,1,8,0:0:0:0:
208,251,75190,1,0,0:0:0:0:
208,251,75287,1,0,0:0:0:0:
208,251,75385,1,8,0:0:0:0:
202,192,75483,1,0,0:0:0:0:
181,239,75580,1,0,0:0:0:0:
181,239,75678,1,8,0:0:0:0:
183,254,75873,1,0,0:0:0:0:
181,239,75970,1,0,0:0:0:0:
202,198,76556,1,8,0:0:0:0:
202,198,76653,1,8,0:0:0:0:
202,198,76751,1,8,0:0:0:0:
202,198,76848,1,0,0:0:0:0:
207,207,77044,1,0,0:0:0:0:
207,207,77141,1,8,0:0:0:0:
207,207,77434,1,8,0:0:0:0:
207,207,77531,1,0,0:0:0:0:
208,207,77629,1,0,0:0:0:0:
208,207,77726,1,8,0:0:0:0:
207,207,77824,1,0,0:0:0:0:
207,207,77922,1,0,0:0:0:0:
207,207,78019,1,8,0:0:0:0:
207,207,78214,1,0,0:0:0:0:
211,209,78312,1,0,0:0:0:0:
207,207,78605,1,8,0:0:0:0:
207,207,78702,1,8,0:0:0:0:
207,207,78800,1,8,0:0:0:0:
211,211,78897,1,8,0:0:0:0:
219,172,79190,1,8,0:0:0:0:
207,207,79287,1,8,0:0:0:0:
237,238,79385,1,8,0:0:0:0:
192,227,79483,1,8,0:0:0:0:
191,227,79775,1,8,0:0:0:0:
191,226,79873,1,0,0:0:0:0:
191,226,79970,1,0,0:0:0:0:
191,226,80068,1,8,0:0:0:0:
192,227,80165,1,0,0:0:0:0:
192,227,80263,1,0,0:0:0:0:
191,227,80361,1,8,0:0:0:0:
191,227,80556,1,0,0:0:0:0:
191,226,80653,1,0,0:0:0:0:
191,227,81239,1,8,0:0:0:0:
191,227,81336,1,8,0:0:0:0:
191,226,81434,1,8,0:0:0:0:
191,227,81531,1,0,0:0:0:0:
191,227,81726,1,0,0:0:0:0:
191,227,81824,1,8,0:0:0:0:
191,227,82117,1,8,0:0:0:0:
191,226,82214,1,0,0:0:0:0:
191,227,82312,1,0,0:0:0:0:
191,227,82409,1,8,0:0:0:0:
191,227,82507,1,0,0:0:0:0:
191,227,82605,1,0,0:0:0:0:
191,227,82702,1,8,0:0:0:0:
191,227,82897,1,0,0:0:0:0:
193,232,82995,1,0,0:0:0:0:
194,234,83287,1,8,0:0:0:0:
194,234,83385,1,8,0:0:0:0:
194,234,83483,1,8,0:0:0:0:
194,234,83580,1,8,0:0:0:0:
232,226,83873,1,8,0:0:0:0:
194,234,83970,1,8,0:0:0:0:
223,227,84068,1,8,0:0:0:0:
223,227,84165,1,8,0:0:0:0:
222,229,84458,1,0,0:0:0:0:
222,229,85044,1,8,0:0:0:0:
222,229,85141,1,8,0:0:0:0:
222,229,85239,1,8,0:0:0:0:
222,229,85336,1,8,0:0:0:0:
216,192,85922,1,8,0:0:0:0:
216,192,86019,1,8,0:0:0:0:
217,194,86117,1,8,0:0:0:0:
216,192,86214,1,0,0:0:0:0:
216,192,86409,1,0,0:0:0:0:
216,192,86507,1,8,0:0:0:0:
216,192,86800,1,8,0:0:0:0:
217,194,86897,1,0,0:0:0:0:
216,192,86995,1,0,0:0:0:0:
216,192,87092,1,8,0:0:0:0:
216,192,87190,1,0,0:0:0:0:
216,192,87287,1,0,0:0:0:0:
216,192,87385,1,8,0:0:0:0:
216,192,87580,1,0,0:0:0:0:
217,194,87678,1,0,0:0:0:0:
216,192,87970,1,8,0:0:0:0:
216,192,88068,1,8,0:0:0:0:
216,192,88165,1,8,0:0:0:0:
216,192,88263,1,8,0:0:0:0:
217,194,88556,1,8,0:0:0:0:
216,199,88653,1,8,0:0:0:0:
216,199,88751,1,8,0:0:0:0:
216,199,88848,1,8,0:0:0:0:
216,199,89141,1,8,0:0:0:0:
217,194,89239,1,0,0:0:0:0:
217,194,89336,1,0,0:0:0:0:
216,199,89434,1,8,0:0:0:0:
216,199,89531,1,0,0:0:0:0:
216,199,89629,1,0,0:0:0:0:
216,199,89726,1,8,0:0:0:0:
216,199,89922,1,0,0:0:0:0:
217,194,90019,1,0,0:0:0:0:
196,193,90605,1,8,0:0:0:0:
216,199,90702,1,8,0:0:0:0:
197,199,90800,1,8,0:0:0:0:
196,193,90897,1,0,0:0:0:0:
196,193,91092,1,0,0:0:0:0:
196,193,91190,1,8,0:0:0:0:
198,199,91483,1,8,0:0:0:0:
197,199,91580,1,0,0:0:0:0:
198,199,91678,1,0,0:0:0:0:
198,199,91775,1,8,0:0:0:0:
197,203,91873,1,0,0:0:0:0:
197,203,91970,1,0,0:0:0:0:
198,199,92068,1,8,0:0:0:0:
202,206,92263,1,0,0:0:0:0:
203,206,92361,1,0,0:0:0:0:
203,206,92653,1,8,0:0:0:0:
203,206,92751,1,8,0:0:0:0:
203,206,92848,1,8,0:0:0:0:
202,206,92946,1,8,0:0:0:0:
203,206,93239,1,8,0:0:0:0:
203,206,93336,1,8,0:0:0:0:
203,206,93434,1,8,0:0:0:0:
203,206,93531,1,8,0:0:0:0:
237,246,93824,1,8,0:0:0:0:
237,246,93922,1,0,0:0:0:0:
237,246,94019,1,0,0:0:0:0:
237,246,94117,1,8,0:0:0:0:
237,246,94214,1,0,0:0:0:0:
238,249,94312,1,0,0:0:0:0:
237,246,94409,1,8,0:0:0:0:
237,246,94605,1,0,0:0:0:0:
237,246,94702,1,0,0:0:0:0:
237,246,95287,1,8,0:0:0:0:
237,246,95385,1,8,0:0:0:0:
237,246,95483,1,8,0:0:0:0:
237,246,95580,1,0,0:0:0:0:
241,252,95775,1,0,0:0:0:0:
241,252,95873,1,8,0:0:0:0:
241,252,96165,1,8,0:0:0:0:
241,252,96263,1,0,0:0:0:0:
241,252,96361,1,0,0:0:0:0:
241,252,96458,1,8,0:0:0:0:
241,252,96556,1,0,0:0:0:0:
241,252,96653,1,0,0:0:0:0:
241,252,96751,1,8,0:0:0:0:
241,252,96946,1,0,0:0:0:0:
241,252,97044,1,0,0:0:0:0:
220,255,97336,1,8,0:0:0:0:
220,255,97434,1,8,0:0:0:0:
220,255,97531,1,8,0:0:0:0:
220,255,97629,1,8,0:0:0:0:
216,136,97922,1,8,0:0:0:0:
220,255,98019,1,8,0:0:0:0:
224,212,98117,1,8,0:0:0:0:
220,255,98214,1,8,0:0:0:0:
200,245,98507,1,8,0:0:0:0:
200,245,98605,1,0,0:0:0:0:
200,245,98702,1,0,0:0:0:0:
200,245,98800,1,8,0:0:0:0:
200,245,98897,1,0,0:0:0:0:
200,245,98995,1,0,0:0:0:0:
200,245,99092,1,8,0:0:0:0:
200,245,99287,1,0,0:0:0:0:
200,245,99385,1,0,0:0:0:0:
200,245,99970,1,8,0:0:0:0:
200,245,100068,1,8,0:0:0:0:
200,245,100165,1,8,0:0:0:0:
200,245,100263,1,0,0:0:0:0:
200,245,100458,1,0,0:0:0:0:
200,245,100556,1,8,0:0:0:0:
200,245,100848,1,8,0:0:0:0:
200,245,100946,1,0,0:0:0:0:
200,245,101044,1,0,0:0:0:0:
200,245,101141,1,8,0:0:0:0:
200,245,101239,1,0,0:0:0:0:
203,247,101336,1,0,0:0:0:0:
200,245,101434,1,8,0:0:0:0:
200,245,101629,1,0,0:0:0:0:
204,247,101726,1,0,0:0:0:0:
200,245,102019,1,8,0:0:0:0:
203,247,102117,1,8,0:0:0:0:
200,245,102214,1,8,0:0:0:0:
200,245,102312,1,8,0:0:0:0:
204,247,102605,1,8,0:0:0:0:
205,249,102702,1,8,0:0:0:0:
205,249,102800,1,8,0:0:0:0:
203,247,102897,1,8,0:0:0:0:
204,247,103190,1,8,0:0:0:0:
204,247,103287,1,0,0:0:0:0:
204,247,103385,1,0,0:0:0:0:
205,249,103483,1,8,0:0:0:0:
205,249,103580,1,0,0:0:0:0:
203,247,103678,1,0,0:0:0:0:
204,247,103775,1,8,0:0:0:0:
204,247,103970,1,0,0:0:0:0:
204,247,104068,1,0,0:0:0:0:
204,247,104653,1,8,0:0:0:0:
204,247,104751,1,8,0:0:0:0:
204,247,104848,1,8,0:0:0:0:
204,247,104946,1,0,0:0:0:0:
204,247,105141,1,0,0:0:0:0:
204,247,105239,1,8,0:0:0:0:
204,247,105531,1,8,0:0:0:0:
204,247,105629,1,0,0:0:0:0:
204,247,105726,1,0,0:0:0:0:
204,247,105824,1,8,0:0:0:0:
209,251,105922,1,0,0:0:0:0:
209,251,106019,1,0,0:0:0:0:
209,251,106117,1,8,0:0:0:0:
209,251,106312,1,0,0:0:0:0:
209,251,106409,1,0,0:0:0:0:
209,251,106702,1,8,0:0:0:0:
209,251,106800,1,8,0:0:0:0:
209,251,106897,1,8,0:0:0:0:
209,251,106995,1,8,0:0:0:0:
209,251,107287,1,8,0:0:0:0:
209,251,107385,1,8,0:0:0:0:
209,251,107483,1,8,0:0:0:0:
209,251,107580,1,8,0:0:0:0:
209,251,107873,1,8,0:0:0:0:
209,251,107970,1,0,0:0:0:0:
209,251,108068,1,0,0:0:0:0:
209,251,108165,1,8,0:0:0:0:
209,251,108263,1,0,0:0:0:0:
209,251,108361,1,0,0:0:0:0:
209,251,108458,1,8,0:0:0:0:
209,251,108653,1,0,0:0:0:0:
209,251,108751,1,0,0:0:0:0:
209,251,109336,1,8,0:0:0:0:
209,251,109434,1,8,0:0:0:0:
209,251,109531,1,8,0:0:0:0:
209,251,109629,1,0,0:0:0:0:
209,251,109824,1,0,0:0:0:0:
209,251,109922,1,8,0:0:0:0:
209,251,110214,1,8,0:0:0:0:
209,251,110312,1,0,0:0:0:0:
209,251,110409,1,0,0:0:0:0:
209,251,110507,1,8,0:0:0:0:
209,251,110605,1,0,0:0:0:0:
209,251,110702,1,0,0:0:0:0:
204,132,110800,1,8,0:0:0:0:
209,251,110995,1,0,0:0:0:0:
229,210,111092,1,0,0:0:0:0:
190,213,111385,1,8,0:0:0:0:
190,213,111483,1,8,0:0:0:0:
190,213,111580,1,8,0:0:0:0:
190,213,111678,1,8,0:0:0:0:
260,159,111970,1,8,0:0:0:0:
190,213,112068,1,8,0:0:0:0:
190,213,112165,1,8,0:0:0:0:
190,213,112263,1,8,0:0:0:0:
195,207,112556,1,4,0:0:0:0:
282,212,112995,1,0,0:0:0:0:
282,212,113141,1,8,0:0:0:0:
224,218,113287,1,0,0:0:0:0:
282,212,113434,1,0,0:0:0:0:
224,218,113726,1,0,0:0:0:0:
234,219,113873,1,8,0:0:0:0:
224,218,114019,1,0,0:0:0:0:
179,249,114312,1,8,0:0:0:0:
179,249,114605,1,0,0:0:0:0:
179,249,114751,1,0,0:0:0:0:
179,249,114897,1,8,0:0:0:0:
179,249,115336,1,0,0:0:0:0:
179,249,115483,1,8,0:0:0:0:
193,199,115629,1,8,0:0:0:0:
179,249,115775,1,0,0:0:0:0:
185,250,116214,1,0,0:0:0:0:
185,250,116361,1,8,0:0:0:0:
185,250,116653,1,0,0:0:0:0:
185,250,116946,1,8,0:0:0:0:
185,250,117239,1,0,0:0:0:0:
248,233,117385,1,0,0:0:0:0:
248,233,117531,1,8,0:0:0:0:
248,233,117678,1,0,0:0:0:0:
283,170,117751,1,0,0:0:0:0:
248,233,117824,1,0,0:0:0:0:
225,235,118117,1,8,0:0:0:0:
229,235,118263,1,0,0:0:0:0:
229,235,118409,1,8,0:0:0:0:
229,235,118556,1,8,0:0:0:0:
229,235,118702,1,0,0:0:0:0:
225,235,118995,1,8,0:0:0:0:
229,235,119141,1,8,0:0:0:0:
229,235,119287,1,0,0:0:0:0:
229,235,119434,1,0,0:0:0:0:
232,238,119580,1,8,0:0:0:0:
229,235,119873,1,0,0:0:0:0:
229,235,120019,1,0,0:0:0:0:
229,235,120165,1,8,0:0:0:0:
232,238,120312,1,8,0:0:0:0:
229,235,120458,1,0,0:0:0:0:
229,235,120751,1,8,0:0:0:0:
229,235,120897,1,8,0:0:0:0:
232,238,121044,1,8,0:0:0:0:
229,235,121190,1,8,0:0:0:0:
229,235,121336,1,0,0:0:0:0:
229,235,121483,1,0,0:0:0:0:
229,235,121629,1,0,0:0:0:0:
232,238,121775,1,0,0:0:0:0:
229,235,121922,1,8,0:0:0:0:
228,191,122361,1,0,0:0:0:0:
228,191,122507,1,8,0:0:0:0:
194,224,122653,1,8,0:0:0:0:
228,191,122800,1,0,0:0:0:0:
194,224,123092,1,8,0:0:0:0:
194,224,123239,1,8,0:0:0:0:
194,224,123385,1,0,0:0:0:0:
194,224,123678,1,8,0:0:0:0:
194,224,123970,1,0,0:0:0:0:
192,231,124117,1,0,0:0:0:0:
192,231,124263,1,8,0:0:0:0:
191,233,124702,1,0,0:0:0:0:
192,231,124848,1,8,0:0:0:0:
192,231,124995,1,0,0:0:0:0:
191,233,125141,1,0,0:0:0:0:
191,233,125434,1,8,0:0:0:0:
192,231,125580,1,8,0:0:0:0:
192,231,125726,1,0,0:0:0:0:
191,233,125873,1,0,0:0:0:0:
191,233,126019,1,8,0:0:0:0:
191,233,126312,1,0,0:0:0:0:
192,231,126458,1,0,0:0:0:0:
192,231,126605,1,8,0:0:0:0:
238,174,126751,1,8,0:0:0:0:
238,174,126897,1,0,0:0:0:0:
238,174,127044,1,0,0:0:0:0:
238,174,127190,1,8,0:0:0:0:
221,188,127483,1,0,0:0:0:0:
221,188,127629,1,0,0:0:0:0:
221,188,127775,1,8,0:0:0:0:
221,188,127922,1,8,0:0:0:0:
221,188,128068,1,0,0:0:0:0:
221,188,128361,1,8,0:0:0:0:
221,188,128507,1,0,0:0:0:0:
221,188,128653,1,8,0:0:0:0:
221,188,128800,1,8,0:0:0:0:
221,188,128946,1,0,0:0:0:0:
221,188,129239,1,8,0:0:0:0:
221,188,129385,1,8,0:0:0:0:
221,188,129531,1,0,0:0:0:0:
221,188,129678,1,0,0:0:0:0:
221,188,129824,1,8,0:0:0:0:
221,188,130117,1,0,0:0:0:0:
221,188,130263,1,0,0:0:0:0:
221,188,130409,1,8,0:0:0:0:
221,188,130556,1,8,0:0:0:0:
221,188,130702,1,0,0:0:0:0:
221,188,130848,1,0,0:0:0:0:
221,188,130995,1,8,0:0:0:0:
221,188,131141,1,8,0:0:0:0:
221,188,131287,1,4,0:0:0:0:
221,188,131726,1,0,0:0:0:0:
221,188,131873,1,8,0:0:0:0:
221,188,132019,1,8,0:0:0:0:
221,188,132165,1,0,0:0:0:0:
221,188,132458,1,8,0:0:0:0:
221,188,132605,1,8,0:0:0:0:
211,223,132751,1,0,0:0:0:0:
361,206,132897,1,0,0:0:0:0:
211,223,133044,1,8,0:0:0:0:
211,223,133336,1,0,0:0:0:0:
211,223,133483,1,8,0:0:0:0:
211,223,133629,1,0,0:0:0:0:
211,223,134068,1,0,0:0:0:0:
211,223,134214,1,8,0:0:0:0:
236,98,134361,1,0,0:0:0:0:
211,223,134507,1,0,0:0:0:0:
165,187,134800,1,8,0:0:0:0:
165,187,134946,1,8,0:0:0:0:
165,187,135092,1,0,0:0:0:0:
165,187,135239,1,8,0:0:0:0:
165,187,135385,1,0,0:0:0:0:
165,187,135678,1,8,0:0:0:0:
165,187,135824,1,8,0:0:0:0:
165,187,135970,1,0,0:0:0:0:
165,187,136117,1,0,0:0:0:0:
165,187,136263,1,0,0:0:0:0:
165,187,136409,1,0,0:0:0:0:
165,187,136556,1,8,0:0:0:0:
165,187,136848,1,0,0:0:0:0:
165,187,136995,1,0,0:0:0:0:
165,187,137141,1,8,0:0:0:0:
165,187,137287,1,8,0:0:0:0:
165,187,137434,1,0,0:0:0:0:
165,187,137726,1,8,0:0:0:0:
165,187,137873,1,0,0:0:0:0:
165,187,138019,1,0,0:0:0:0:
165,187,138165,1,0,0:0:0:0:
165,187,138312,1,8,0:0:0:0:
165,187,138605,1,0,0:0:0:0:
165,187,138751,1,8,0:0:0:0:
165,187,138897,1,8,0:0:0:0:
165,187,139044,1,8,0:0:0:0:
165,187,139190,1,0,0:0:0:0:
165,187,139483,1,0,0:0:0:0:
165,187,139629,1,0,0:0:0:0:
165,187,139775,1,8,0:0:0:0:
165,187,139922,1,8,0:0:0:0:
165,187,140068,1,0,0:0:0:0:
165,187,140214,1,0,0:0:0:0:
165,187,140361,1,8,0:0:0:0:
165,187,140507,1,8,0:0:0:0:
165,187,140653,1,4,0:0:0:0:
219,192,141092,1,0,0:0:0:0:
219,192,141239,1,8,0:0:0:0:
219,192,141385,1,8,0:0:0:0:
219,192,141531,1,0,0:0:0:0:
219,192,141824,1,8,0:0:0:0:
219,192,141970,1,0,0:0:0:0:
219,192,142117,1,0,0:0:0:0:
219,192,142409,1,8,0:0:0:0:
219,192,142702,1,0,0:0:0:0:
219,192,142848,1,0,0:0:0:0:
219,192,142995,1,8,0:0:0:0:
219,192,143434,1,0,0:0:0:0:
219,192,143580,1,8,0:0:0:0:
219,192,143726,1,8,0:0:0:0:
219,192,143873,1,0,0:0:0:0:
219,192,144165,1,8,0:0:0:0:
219,192,144312,1,0,0:0:0:0:
219,192,144458,1,0,0:0:0:0:
219,192,144605,1,0,0:0:0:0:
219,192,144751,1,8,0:0:0:0:
219,192,145044,1,8,0:0:0:0:
219,192,145190,1,8,0:0:0:0:
219,192,145336,1,0,0:0:0:0:
219,192,145483,1,0,0:0:0:0:
219,192,145629,1,0,0:0:0:0:
219,192,145775,1,0,0:0:0:0:
219,192,145922,1,8,0:0:0:0:
219,192,146214,1,0,0:0:0:0:
219,192,146361,1,0,0:0:0:0:
219,192,146507,1,8,0:0:0:0:
219,192,146653,1,8,0:0:0:0:
219,192,146800,1,0,0:0:0:0:
219,192,147092,1,8,0:0:0:0:
219,192,147239,1,0,0:0:0:0:
219,192,147385,1,8,0:0:0:0:
219,192,147531,1,8,0:0:0:0:
219,192,147678,1,0,0:0:0:0:
219,192,147970,1,8,0:0:0:0:
219,192,148117,1,8,0:0:0:0:
219,192,148263,1,0,0:0:0:0:
219,192,148409,1,0,0:0:0:0:
219,192,148556,1,8,0:0:0:0:
219,192,148848,1,0,0:0:0:0:
219,192,148995,1,8,0:0:0:0:
219,192,149141,1,0,0:0:0:0:
219,192,149287,1,8,0:0:0:0:
219,192,149434,1,0,0:0:0:0:
219,192,149580,1,0,0:0:0:0:
219,192,149726,1,8,0:0:0:0:
219,192,149873,1,8,0:0:0:0:
236,203,152361,5,8,0:0:0:0:
239,211,152507,1,0,0:0:0:0:
216,193,152580,1,0,0:0:0:0:
239,211,152653,1,8,0:0:0:0:
239,211,152800,1,0,0:0:0:0:
218,189,152873,1,0,0:0:0:0:
223,214,152946,1,8,0:0:0:0:
219,189,153019,1,8,0:0:0:0:
223,214,153092,1,0,0:0:0:0:
223,214,153239,1,8,0:0:0:0:
224,214,153385,1,0,0:0:0:0:
224,214,153531,1,0,0:0:0:0:
223,214,153678,1,8,0:0:0:0:
223,214,153824,1,0,0:0:0:0:
209,191,153897,1,0,0:0:0:0:
223,214,153970,1,8,0:0:0:0:
209,191,154044,1,8,0:0:0:0:
224,214,154117,1,8,0:0:0:0:
224,214,154263,1,0,0:0:0:0:
223,214,154409,1,0,0:0:0:0:
223,214,154702,1,8,0:0:0:0:
224,214,154848,1,0,0:0:0:0:
209,191,154922,1,0,0:0:0:0:
224,214,154995,1,8,0:0:0:0:
223,214,155141,1,0,0:0:0:0:
223,214,155287,1,8,0:0:0:0:
209,189,155361,1,0,0:0:0:0:
223,214,155434,1,8,0:0:0:0:
209,190,155507,1,8,0:0:0:0:
224,214,155580,1,0,0:0:0:0:
224,214,155726,1,8,0:0:0:0:
223,214,155873,1,0,0:0:0:0:
223,214,156019,1,8,0:0:0:0:
223,214,156165,1,0,0:0:0:0:
213,188,156239,1,0,0:0:0:0:
224,214,156312,1,8,0:0:0:0:
216,190,156385,1,0,0:0:0:0:
224,214,156458,1,8,0:0:0:0:
223,214,156605,1,0,0:0:0:0:
223,214,156751,1,8,0:0:0:0:
224,214,157044,1,0,0:0:0:0:
251,165,157117,1,0,0:0:0:0:
224,214,157190,1,8,0:0:0:0:
216,190,157263,1,8,0:0:0:0:
223,214,157336,1,0,0:0:0:0:
223,214,157483,1,8,0:0:0:0:
235,217,157556,1,8,0:0:0:0:
223,214,157629,1,0,0:0:0:0:
224,214,157775,1,8,0:0:0:0:
224,214,157922,1,0,0:0:0:0:
223,214,158068,1,0,0:0:0:0:
223,214,158214,1,8,0:0:0:0:
173,215,158287,1,8,0:0:0:0:
223,214,158361,1,0,0:0:0:0:
173,215,158434,1,0,0:0:0:0:
224,214,158507,1,8,0:0:0:0:
230,215,158653,1,0,0:0:0:0:
182,208,158726,1,8,0:0:0:0:
230,215,158800,1,0,0:0:0:0:
230,215,158946,1,8,0:0:0:0:
230,215,159092,1,0,0:0:0:0:
230,215,159385,1,0,0:0:0:0:
230,215,159531,1,8,0:0:0:0:
230,215,159678,1,0,0:0:0:0:
230,215,159824,1,8,0:0:0:0:
257,141,159897,1,0,0:0:0:0:
230,215,159970,1,0,0:0:0:0:
230,215,160117,1,8,0:0:0:0:
230,215,160263,1,0,0:0:0:0:
257,141,160336,1,0,0:0:0:0:
230,215,160409,1,8,0:0:0:0:
230,215,160556,1,0,0:0:0:0:
230,215,160702,1,8,0:0:0:0:
230,215,160848,1,0,0:0:0:0:
230,215,160995,1,8,0:0:0:0:
250,143,161068,1,8,0:0:0:0:
230,215,161141,1,0,0:0:0:0:
230,215,161287,1,8,0:0:0:0:
230,215,161434,1,0,0:0:0:0:
232,150,161726,1,8,0:0:0:0:
232,155,161800,1,8,0:0:0:0:
231,154,161873,1,8,0:0:0:0:
232,150,161946,1,8,0:0:0:0:
230,215,162019,1,0,0:0:0:0:
230,215,162165,1,8,0:0:0:0:
230,215,162312,1,0,0:0:0:0:
230,215,162458,1,8,0:0:0:0:
232,150,162531,1,0,0:0:0:0:
230,215,162605,1,8,0:0:0:0:
230,215,162751,1,0,0:0:0:0:
230,215,162897,1,8,0:0:0:0:
230,215,163044,1,0,0:0:0:0:
230,215,163190,1,8,0:0:0:0:
232,150,163263,1,8,0:0:0:0:
230,215,163336,1,0,0:0:0:0:
232,150,163409,1,0,0:0:0:0:
230,215,163483,1,8,0:0:0:0:
230,215,163629,1,0,0:0:0:0:
230,215,163775,1,8,0:0:0:0:
230,215,164068,1,0,0:0:0:0:
230,215,164214,1,8,0:0:0:0:
234,155,164287,1,8,0:0:0:0:
230,215,164361,1,0,0:0:0:0:
230,215,164507,1,8,0:0:0:0:
230,215,164653,1,0,0:0:0:0:
234,155,164726,1,0,0:0:0:0:
230,215,164800,1,8,0:0:0:0:
234,155,164873,1,0,0:0:0:0:
230,215,164946,1,8,0:0:0:0:
230,215,165092,1,0,0:0:0:0:
230,215,165239,1,8,0:0:0:0:
230,215,165385,1,0,0:0:0:0:
230,215,165531,1,8,0:0:0:0:
215,166,165605,1,8,0:0:0:0:
230,215,165678,1,0,0:0:0:0:
230,215,165824,1,8,0:0:0:0:
230,215,165970,1,0,0:0:0:0:
230,215,166117,1,8,0:0:0:0:
230,215,166409,1,0,0:0:0:0:
214,166,166483,1,0,0:0:0:0:
230,215,166556,1,8,0:0:0:0:
214,166,166629,1,8,0:0:0:0:
230,215,166702,1,0,0:0:0:0:
230,215,166848,1,8,0:0:0:0:
230,215,166995,1,0,0:0:0:0:
230,215,167141,1,8,0:0:0:0:
230,215,167287,1,0,0:0:0:0:
214,166,167361,1,0,0:0:0:0:
221,165,167434,1,8,0:0:0:0:
230,215,167580,1,0,0:0:0:0:
230,215,167726,1,8,0:0:0:0:
214,166,167800,1,8,0:0:0:0:
230,215,167873,1,0,0:0:0:0:
230,215,168019,1,8,0:0:0:0:
230,215,168165,1,0,0:0:0:0:
230,215,168312,1,8,0:0:0:0:
230,215,168458,1,0,0:0:0:0:
279,177,168751,1,0,0:0:0:0:
230,189,168897,1,8,0:0:0:0:
230,189,169190,1,8,0:0:0:0:
230,189,169336,1,0,0:0:0:0:
230,189,169483,1,8,0:0:0:0:
230,189,169629,1,0,0:0:0:0:
230,189,169775,1,0,0:0:0:0:
230,189,169922,1,8,0:0:0:0:
231,198,170068,1,0,0:0:0:0:
230,189,170214,1,8,0:0:0:0:
241,177,170287,1,0,0:0:0:0:
220,168,170361,1,0,0:0:0:0:
233,197,170507,1,8,0:0:0:0:
234,196,170653,1,8,0:0:0:0:
231,198,170800,1,0,0:0:0:0:
234,196,170946,1,0,0:0:0:0:
235,196,171092,1,8,0:0:0:0:
233,197,171239,1,0,0:0:0:0:
234,196,171531,1,0,0:0:0:0:
231,198,171678,1,8,0:0:0:0:
235,196,171824,1,0,0:0:0:0:
242,175,171897,1,0,0:0:0:0:
235,196,171970,1,8,0:0:0:0:
234,196,172117,1,0,0:0:0:0:
234,196,172263,1,8,0:0:0:0:
231,198,172409,1,8,0:0:0:0:
235,196,172556,1,0,0:0:0:0:
242,177,172629,1,0,0:0:0:0:
235,196,172702,1,0,0:0:0:0:
234,196,172848,1,8,0:0:0:0:
234,196,172995,1,0,0:0:0:0:
231,198,173141,1,8,0:0:0:0:
235,196,173287,1,8,0:0:0:0:
235,196,173434,1,0,0:0:0:0:
235,196,173580,1,8,0:0:0:0:
234,196,173873,1,8,0:0:0:0:
231,198,174019,1,0,0:0:0:0:
235,196,174165,1,8,0:0:0:0:
242,180,174239,1,0,0:0:0:0:
235,196,174312,1,0,0:0:0:0:
234,196,174458,1,8,0:0:0:0:
234,196,174605,1,0,0:0:0:0:
237,198,174751,1,0,0:0:0:0:
235,196,174897,1,8,0:0:0:0:
235,196,175044,1,0,0:0:0:0:
235,196,175190,1,8,0:0:0:0:
243,182,175263,1,8,0:0:0:0:
234,196,175336,1,8,0:0:0:0:
234,196,175483,1,0,0:0:0:0:
237,198,175629,1,8,0:0:0:0:
235,196,175775,1,0,0:0:0:0:
235,196,176068,1,0,0:0:0:0:
234,196,176214,1,8,0:0:0:0:
227,164,176287,1,8,0:0:0:0:
234,196,176361,1,0,0:0:0:0:
235,196,176507,1,8,0:0:0:0:
235,196,176653,1,0,0:0:0:0:
235,196,176800,1,0,0:0:0:0:
231,161,176873,1,0,0:0:0:0:
234,196,176946,1,8,0:0:0:0:
234,196,177092,1,0,0:0:0:0:
235,196,177239,1,8,0:0:0:0:
235,196,177385,1,0,0:0:0:0:
235,196,177531,1,8,0:0:0:0:
233,163,177605,1,0,0:0:0:0:
234,196,177678,1,0,0:0:0:0:
234,196,177824,1,8,0:0:0:0:
235,196,177970,1,8,0:0:0:0:
235,196,178117,1,0,0:0:0:0:
235,196,178263,1,8,0:0:0:0:
240,199,178556,1,0,0:0:0:0:
240,199,178702,1,8,0:0:0:0:
235,196,178848,1,0,0:0:0:0:
235,196,178995,1,0,0:0:0:0:
235,196,179141,1,8,0:0:0:0:
235,163,179214,1,8,0:0:0:0:
240,199,179287,1,8,0:0:0:0:
240,199,179434,1,0,0:0:0:0:
235,196,179580,1,8,0:0:0:0:
235,196,179726,1,0,0:0:0:0:
235,196,179873,1,8,0:0:0:0:
240,199,180019,1,0,0:0:0:0:
240,199,180165,1,0,0:0:0:0:
235,196,180312,1,8,0:0:0:0:
235,196,180458,1,0,0:0:0:0:
235,196,180605,1,8,0:0:0:0:
240,199,180897,1,8,0:0:0:0:
240,199,181044,1,0,0:0:0:0:
235,196,181190,1,8,0:0:0:0:
237,164,181263,1,0,0:0:0:0:
235,196,181336,1,0,0:0:0:0:
240,199,181483,1,8,0:0:0:0:
240,199,181629,1,0,0:0:0:0:
240,199,181775,1,8,0:0:0:0:
235,196,181922,1,0,0:0:0:0:
235,167,181995,1,0,0:0:0:0:
235,196,182068,1,0,0:0:0:0:
240,199,182214,1,8,0:0:0:0:
240,199,182361,1,0,0:0:0:0:
240,199,182507,1,8,0:0:0:0:
235,196,182653,1,8,0:0:0:0:
241,199,182800,1,0,0:0:0:0:
240,199,182946,1,8,0:0:0:0:
240,199,183239,1,8,0:0:0:0:
240,199,183385,1,0,0:0:0:0:
241,199,183531,1,8,0:0:0:0:
230,172,183605,1,8,0:0:0:0:
240,199,183678,1,0,0:0:0:0:
240,199,183824,1,8,0:0:0:0:
240,199,183970,1,0,0:0:0:0:
240,199,184117,1,0,0:0:0:0:
241,199,184263,1,8,0:0:0:0:
240,199,184409,1,0,0:0:0:0:
240,199,184556,1,8,0:0:0:0:
230,172,184629,1,8,0:0:0:0:
240,199,184702,1,8,0:0:0:0:
240,199,184848,1,0,0:0:0:0:
240,199,185141,1,8,0:0:0:0:
240,199,185287,1,8,0:0:0:0:
240,199,185434,1,8,0:0:0:0:
240,199,185580,1,8,0:0:0:0:
240,199,185726,1,0,0:0:0:0:
240,199,185873,1,0,0:0:0:0:
240,199,186019,1,0,0:0:0:0:
240,199,186165,1,0,0:0:0:0:
240,199,186312,1,8,0:0:0:0:
240,199,186458,1,8,0:0:0:0:
240,199,186605,1,0,0:0:0:0:
240,199,186751,1,0,0:0:0:0:
240,199,186897,1,8,0:0:0:0:
290,188,187044,1,0,0:0:0:0:
290,188,187190,1,8,0:0:0:0:
290,188,187336,1,8,0:0:0:0:
290,188,187483,1,4,0:0:0:0:
290,188,187922,1,0,0:0:0:0:
290,188,187995,1,0,0:0:0:0:
290,188,188068,1,0,0:0:0:0:
