osu file format v14

[General]
AudioFilename: audio.ogg
AudioLeadIn: 0
PreviewTime: 151987
Countdown: 0
SampleSet: Normal
StackLeniency: 0.7
Mode: 1
LetterboxInBreaks: 0
WidescreenStoryboard: 1

[Editor]
Bookmarks: 158,25914,26499,27084,27670,35279,35865,36450,37036,131279,140645,187475
DistanceSpacing: 1
BeatDivisor: 4
GridSize: 32
TimelineZoom: 3.399999

[Metadata]
Title:Eighty-Sixed
TitleUnicode:Eighty-Sixed
Artist:The Fallen Prodigy
ArtistUnicode:The Fallen Prodigy
Creator:skolodojko
Version:Muzukashii
Source:
Tags:english metal death deathcore metalcore post-hardcore relive // regret // repeat
BeatmapID:3753883
BeatmapSetID:1829005

[Difficulty]
HPDrainRate:6.5
CircleSize:2
OverallDifficulty:5
ApproachRate:10
SliderMultiplier:1.4
SliderTickRate:1

[Events]
//Background and Video events
0,0,"3911443.jpg",0,60
//Break Periods
2,150073,151911
//Storyboard Layer 0 (Background)
//Storyboard Layer 1 (Fail)
//Storyboard Layer 2 (Pass)
//Storyboard Layer 3 (Foreground)
//Storyboard Layer 4 (Overlay)
//Storyboard Sound Samples

[TimingPoints]
166,292.682926829268,4,1,0,100,1,0
166,-100,4,1,0,100,0,1
25922,-90.9090909090909,4,1,0,100,0,0
28263,-100,4,1,0,100,0,1
35287,-90.9090909090909,4,1,0,100,0,0
37629,-100,4,1,0,100,0,1
44653,-100,4,1,0,100,0,0
46995,-100,4,1,0,100,0,1
54019,-100,4,1,0,100,0,0
56342,-100,4,1,0,90,0,0
56507,-100,4,1,0,90,0,0
56653,-100,4,1,0,90,0,0
56800,-100,4,1,0,90,0,0
56873,-100,4,1,0,90,0,0
56946,-100,4,1,0,90,0,0
57092,-100,4,1,0,90,0,0
57239,-100,4,1,0,90,0,0
57385,-100,4,1,0,90,0,0
57458,-100,4,1,0,90,0,0
57531,-100,4,1,0,90,0,0
57678,-100,4,1,0,90,0,0
57824,-100,4,1,0,90,0,0
57897,-100,4,1,0,90,0,0
57970,-100,4,1,0,90,0,0
58044,-100,4,1,0,90,0,0
58117,-100,4,1,0,90,0,0
58263,-100,4,1,0,90,0,0
58409,-100,4,1,0,90,0,0
58556,-100,4,1,0,90,0,0
58702,-100,4,1,0,90,0,0
63531,-100,4,1,0,90,0,0
65855,-100,4,1,0,90,0,0
66001,-100,4,1,0,90,0,0
66148,-100,4,1,0,90,0,0
66221,-100,4,1,0,90,0,0
66294,-100,4,1,0,90,0,0
66440,-100,4,1,0,90,0,0
66587,-100,4,1,0,90,0,0
66733,-100,4,1,0,90,0,0
66806,-100,4,1,0,90,0,0
66879,-100,4,1,0,90,0,0
67026,-100,4,1,0,90,0,0
67172,-100,4,1,0,90,0,0
67245,-100,4,1,0,90,0,0
67318,-100,4,1,0,90,0,0
67392,-100,4,1,0,90,0,0
67465,-100,4,1,0,90,0,0
67611,-100,4,1,0,90,0,0
67757,-100,4,1,0,90,0,0
67904,-100,4,1,0,90,0,0
68050,-100,4,1,0,90,0,0
72751,-100,4,1,0,90,0,0
72824,-100,4,1,0,90,0,0
72897,-100,4,1,0,90,0,0
72970,-100,4,1,0,90,0,0
73044,-100,4,1,0,90,0,0
73117,-100,4,1,0,90,0,0
73190,-100,4,1,0,90,0,0
73263,-100,4,1,0,90,0,0
73336,-100,4,1,0,90,0,0
73409,-100,4,1,0,90,0,0
73483,-100,4,1,0,90,0,0
73556,-100,4,1,0,90,0,0
73629,-100,4,1,0,90,0,0
73702,-100,4,1,0,90,0,0
73775,-100,4,1,0,90,0,0
73848,-100,4,1,0,90,0,0
73922,-100,4,1,0,90,0,0
73995,-100,4,1,0,90,0,0
74068,-100,4,1,0,90,0,0
74141,-100,4,1,0,90,0,0
74214,-100,4,1,0,90,0,0
74287,-100,4,1,0,90,0,0
74361,-100,4,1,0,90,0,0
74434,-100,4,1,0,90,0,0
74507,-100,4,1,0,90,0,0
75019,-100,4,1,0,80,0,0
84458,-100,4,1,0,80,0,0
84653,-100,4,1,0,80,0,0
84751,-100,4,1,0,80,0,0
84848,-100,4,1,0,80,0,0
84946,-100,4,1,0,80,0,0
85044,-100,4,1,0,80,0,0
85141,-100,4,1,0,80,0,0
85239,-100,4,1,0,80,0,0
85336,-100,4,1,0,80,0,0
112653,-100,4,1,0,80,0,0
152214,-100,4,1,0,100,0,0
152361,-100,4,1,0,100,0,1
159385,-100,4,1,0,100,0,0
161726,-100,4,1,0,100,0,1
168678,-100,4,1,0,90,0,1
168751,-100,4,1,0,90,0,0
168897,-100,4,1,0,90,0,0
169044,-100,4,1,0,90,0,0
169190,-100,4,1,0,90,0,0
169263,-100,4,1,0,90,0,0
169336,-100,4,1,0,90,0,0
169483,-100,4,1,0,90,0,0
169629,-100,4,1,0,90,0,0
169775,-100,4,1,0,90,0,0
169848,-100,4,1,0,90,0,0
169922,-100,4,1,0,90,0,0
170068,-100,4,1,0,90,0,0
170214,-100,4,1,0,90,0,0
170287,-100,4,1,0,90,0,0
170361,-100,4,1,0,90,0,0
170434,-100,4,1,0,90,0,0
170507,-100,4,1,0,90,0,0
170653,-100,4,1,0,90,0,0
170800,-100,4,1,0,90,0,0
170946,-100,4,1,0,90,0,0
171092,-100,4,1,0,90,0,0
175912,-100,4,1,0,90,0,0
178263,-100,4,1,0,90,0,0
178409,-100,4,1,0,90,0,0
178556,-100,4,1,0,90,0,0
178629,-100,4,1,0,90,0,0
178702,-100,4,1,0,90,0,0
178848,-100,4,1,0,90,0,0
178995,-100,4,1,0,90,0,0
179141,-100,4,1,0,90,0,0
179214,-100,4,1,0,90,0,0
179287,-100,4,1,0,90,0,0
179434,-100,4,1,0,90,0,0
179580,-100,4,1,0,90,0,0
179653,-100,4,1,0,90,0,0
179726,-100,4,1,0,90,0,0
179800,-100,4,1,0,90,0,0
179873,-100,4,1,0,90,0,0
180019,-100,4,1,0,90,0,0
180165,-100,4,1,0,90,0,0
180312,-100,4,1,0,90,0,0
180458,-100,4,1,0,90,0,0
185141,-100,4,1,0,90,0,0
187775,-100,4,1,0,80,0,0

[HitObjects]
360,185,166,5,4,0:0:0:0:
272,237,458,1,8,0:0:0:0:
272,237,605,1,0,0:0:0:0:
272,237,751,1,8,0:0:0:0:
272,237,897,1,0,0:0:0:0:
272,237,1044,1,8,0:0:0:0:
219,204,1117,1,8,0:0:0:0:
272,237,1190,1,8,0:0:0:0:
272,237,1336,1,0,0:0:0:0:
272,237,1629,1,0,0:0:0:0:
272,237,1775,1,8,0:0:0:0:
263,237,1922,1,0,0:0:0:0:
263,237,2068,1,8,0:0:0:0:
217,195,2141,1,8,0:0:0:0:
263,237,2214,1,8,0:0:0:0:
263,237,2361,1,8,0:0:0:0:
263,238,2507,1,0,0:0:0:0:
263,237,2800,1,8,0:0:0:0:
263,237,3092,1,0,0:0:0:0:
263,237,3385,1,0,0:0:0:0:
263,237,3531,1,0,0:0:0:0:
263,237,3678,1,8,0:0:0:0:
263,237,3824,1,8,0:0:0:0:
263,237,3970,1,0,0:0:0:0:
262,147,4044,1,0,0:0:0:0:
262,147,4117,1,0,0:0:0:0:
263,237,4263,1,8,0:0:0:0:
263,237,4409,1,0,0:0:0:0:
263,237,4556,1,8,0:0:0:0:
263,237,4848,1,0,0:0:0:0:
263,237,5141,1,8,0:0:0:0:
229,152,5214,1,8,0:0:0:0:
263,237,5287,1,8,0:0:0:0:
263,237,5434,1,0,0:0:0:0:
263,237,5726,1,8,0:0:0:0:
263,237,6019,1,0,0:0:0:0:
263,237,6312,1,0,0:0:0:0:
263,237,6458,1,8,0:0:0:0:
263,237,6605,1,0,0:0:0:0:
263,237,6751,1,0,0:0:0:0:
263,237,6897,1,8,0:0:0:0:
230,161,6970,1,8,0:0:0:0:
230,161,7044,1,8,0:0:0:0:
263,237,7190,1,0,0:0:0:0:
263,237,7483,1,8,0:0:0:0:
205,199,7556,1,8,0:0:0:0:
213,206,7629,1,8,0:0:0:0:
263,237,7775,1,0,0:0:0:0:
263,237,7922,1,8,0:0:0:0:
263,237,8068,1,0,0:0:0:0:
205,199,8141,1,0,0:0:0:0:
263,237,8214,1,0,0:0:0:0:
263,237,8361,1,8,0:0:0:0:
263,237,8653,1,0,0:0:0:0:
263,237,8800,1,0,0:0:0:0:
263,237,8946,1,8,0:0:0:0:
263,237,9239,1,0,0:0:0:0:
263,237,9531,1,8,0:0:0:0:
263,237,9824,1,8,0:0:0:0:
263,237,9970,1,0,0:0:0:0:
263,237,10117,1,8,0:0:0:0:
208,198,10263,1,8,0:0:0:0:
263,237,10409,1,0,0:0:0:0:
208,198,10483,1,0,0:0:0:0:
208,198,10556,1,0,0:0:0:0:
263,237,10702,1,8,0:0:0:0:
263,237,10995,1,8,0:0:0:0:
260,133,11068,1,8,0:0:0:0:
263,237,11141,1,8,0:0:0:0:
263,237,11287,1,0,0:0:0:0:
263,237,11434,1,8,0:0:0:0:
263,237,11580,1,8,0:0:0:0:
205,180,11726,1,8,0:0:0:0:
263,237,11873,1,0,0:0:0:0:
263,237,12165,1,8,0:0:0:0:
263,237,12458,1,0,0:0:0:0:
263,237,12751,1,0,0:0:0:0:
245,180,12824,1,0,0:0:0:0:
263,237,12897,1,0,0:0:0:0:
263,237,13044,1,8,0:0:0:0:
263,237,13190,1,0,0:0:0:0:
263,237,13336,1,8,0:0:0:0:
207,216,13483,1,8,0:0:0:0:
263,237,13629,1,0,0:0:0:0:
263,237,13922,1,8,0:0:0:0:
263,237,14068,1,8,0:0:0:0:
263,237,14214,1,0,0:0:0:0:
263,237,14507,1,8,0:0:0:0:
225,197,14580,1,8,0:0:0:0:
225,197,14653,1,8,0:0:0:0:
263,237,14800,1,0,0:0:0:0:
225,197,14946,1,8,0:0:0:0:
263,237,15092,1,0,0:0:0:0:
263,237,15385,1,0,0:0:0:0:
235,210,15678,1,8,0:0:0:0:
235,210,15970,1,0,0:0:0:0:
198,217,16117,1,0,0:0:0:0:
235,210,16263,1,8,0:0:0:0:
225,220,16336,1,8,0:0:0:0:
235,210,16409,1,8,0:0:0:0:
235,210,16556,1,0,0:0:0:0:
235,210,16848,1,8,0:0:0:0:
206,189,17141,1,0,0:0:0:0:
235,210,17287,1,0,0:0:0:0:
206,189,17434,1,8,0:0:0:0:
227,229,17507,1,8,0:0:0:0:
231,228,17580,1,8,0:0:0:0:
206,189,17726,1,0,0:0:0:0:
206,189,17873,1,8,0:0:0:0:
206,189,18019,1,0,0:0:0:0:
237,132,18092,1,0,0:0:0:0:
206,189,18165,1,0,0:0:0:0:
206,189,18312,1,0,0:0:0:0:
206,189,18458,1,8,0:0:0:0:
206,189,18605,1,0,0:0:0:0:
206,189,18897,1,0,0:0:0:0:
199,211,19336,1,8,0:0:0:0:
199,210,19629,1,8,0:0:0:0:
199,211,19922,1,8,0:0:0:0:
199,211,20068,1,0,0:0:0:0:
199,210,20214,1,0,0:0:0:0:
199,210,20361,1,8,0:0:0:0:
199,211,20653,1,0,0:0:0:0:
199,211,20800,1,8,0:0:0:0:
199,210,20946,1,0,0:0:0:0:
257,185,21092,1,0,0:0:0:0:
199,211,21239,1,8,0:0:0:0:
199,211,21385,1,0,0:0:0:0:
199,211,21531,1,0,0:0:0:0:
199,210,21678,1,8,0:0:0:0:
199,211,21970,1,8,0:0:0:0:
199,211,22263,1,8,0:0:0:0:
199,211,22409,1,0,0:0:0:0:
243,192,22702,1,8,0:0:0:0:
243,192,22848,1,0,0:0:0:0:
255,147,22995,1,8,0:0:0:0:
255,147,23141,1,8,0:0:0:0:
255,147,23287,1,0,0:0:0:0:
256,162,23434,1,8,0:0:0:0:
255,154,23580,1,0,0:0:0:0:
255,147,24019,1,8,0:0:0:0:
256,162,24312,1,8,0:0:0:0:
200,187,24605,1,8,0:0:0:0:
257,163,24751,1,0,0:0:0:0:
200,187,24897,1,0,0:0:0:0:
200,187,25044,1,8,0:0:0:0:
200,187,25336,1,0,0:0:0:0:
200,187,25483,1,8,0:0:0:0:
200,187,25629,1,0,0:0:0:0:
200,187,25922,1,4,0:0:0:0:
205,191,26507,1,12,0:0:0:0:
205,191,27092,1,4,0:0:0:0:
205,191,27678,1,12,0:0:0:0:
205,191,28263,1,0,0:0:0:0:
205,191,28409,1,0,0:0:0:0:
205,191,28556,1,0,0:0:0:0:
205,191,28702,1,8,0:0:0:0:
205,191,28995,1,8,0:0:0:0:
205,191,29287,1,8,0:0:0:0:
205,191,29434,1,0,0:0:0:0:
205,191,29580,1,0,0:0:0:0:
205,191,29726,1,8,0:0:0:0:
205,191,30019,1,0,0:0:0:0:
205,191,30165,1,8,0:0:0:0:
205,191,30312,1,8,0:0:0:0:
205,191,30458,1,8,0:0:0:0:
205,191,30605,1,0,0:0:0:0:
212,192,31044,1,8,0:0:0:0:
247,192,31336,1,8,0:0:0:0:
247,192,31629,1,8,0:0:0:0:
247,192,31775,1,0,0:0:0:0:
247,192,31922,1,0,0:0:0:0:
247,192,32068,1,8,0:0:0:0:
247,192,32361,1,8,0:0:0:0:
247,192,32507,1,8,0:0:0:0:
247,192,32653,1,8,0:0:0:0:
247,192,32800,1,8,0:0:0:0:
247,192,32946,1,0,0:0:0:0:
247,192,33092,1,0,0:0:0:0:
247,192,33239,1,0,0:0:0:0:
247,192,33385,1,8,0:0:0:0:
247,192,33678,1,8,0:0:0:0:
247,192,33970,1,8,0:0:0:0:
247,192,34117,1,0,0:0:0:0:
247,192,34263,1,0,0:0:0:0:
247,192,34409,1,8,0:0:0:0:
247,192,34702,1,0,0:0:0:0:
247,192,34995,1,8,0:0:0:0:
247,192,35141,1,8,0:0:0:0:
247,192,35287,1,4,0:0:0:0:
247,192,35873,1,12,0:0:0:0:
247,192,36458,1,4,0:0:0:0:
247,192,37044,1,12,0:0:0:0:
254,186,37629,1,8,0:0:0:0:
254,165,37702,1,8,0:0:0:0:
235,198,37775,1,8,0:0:0:0:
235,198,37922,1,0,0:0:0:0:
235,198,38068,1,8,0:0:0:0:
235,198,38214,1,0,0:0:0:0:
235,198,38361,1,8,0:0:0:0:
252,171,38434,1,8,0:0:0:0:
235,198,38507,1,8,0:0:0:0:
235,198,38653,1,0,0:0:0:0:
235,198,38800,1,8,0:0:0:0:
235,198,39092,1,0,0:0:0:0:
235,198,39239,1,0,0:0:0:0:
235,198,39385,1,8,0:0:0:0:
235,198,39678,1,0,0:0:0:0:
235,198,39970,1,8,0:0:0:0:
235,198,40263,1,8,0:0:0:0:
235,198,40409,1,8,0:0:0:0:
255,178,40483,1,8,0:0:0:0:
235,198,40556,1,8,0:0:0:0:
235,198,40702,1,0,0:0:0:0:
235,198,40848,1,0,0:0:0:0:
235,198,40995,1,8,0:0:0:0:
235,198,41141,1,0,0:0:0:0:
256,179,41214,1,0,0:0:0:0:
235,198,41287,1,0,0:0:0:0:
235,198,41434,1,8,0:0:0:0:
235,198,41726,1,0,0:0:0:0:
235,198,42019,1,8,0:0:0:0:
235,198,42312,1,0,0:0:0:0:
235,198,42458,1,0,0:0:0:0:
235,198,42605,1,8,0:0:0:0:
252,146,42751,1,8,0:0:0:0:
235,198,42897,1,0,0:0:0:0:
235,198,43190,1,8,0:0:0:0:
235,198,43336,1,0,0:0:0:0:
261,171,43409,1,0,0:0:0:0:
235,198,43483,1,0,0:0:0:0:
235,198,43629,1,0,0:0:0:0:
235,198,43775,1,8,0:0:0:0:
235,198,43922,1,0,0:0:0:0:
261,171,43995,1,0,0:0:0:0:
235,198,44068,1,0,0:0:0:0:
235,198,44214,1,8,0:0:0:0:
235,198,44361,1,0,0:0:0:0:
182,174,44800,1,8,0:0:0:0:
235,198,45092,1,8,0:0:0:0:
235,198,45385,1,0,0:0:0:0:
235,198,45531,1,8,0:0:0:0:
235,198,45678,1,8,0:0:0:0:
235,198,45824,1,0,0:0:0:0:
198,202,45970,1,8,0:0:0:0:
198,202,46263,1,8,0:0:0:0:
198,202,46556,1,0,0:0:0:0:
198,202,46702,1,8,0:0:0:0:
198,202,46848,1,8,0:0:0:0:
198,202,46995,1,0,0:0:0:0:
211,196,47287,1,8,0:0:0:0:
211,196,47434,1,0,0:0:0:0:
233,165,47507,1,0,0:0:0:0:
211,196,47580,1,0,0:0:0:0:
211,196,47726,1,0,0:0:0:0:
211,196,47873,1,8,0:0:0:0:
211,196,48019,1,0,0:0:0:0:
211,196,48165,1,8,0:0:0:0:
211,196,48458,1,0,0:0:0:0:
211,196,48751,1,8,0:0:0:0:
211,196,49044,1,0,0:0:0:0:
211,196,49190,1,8,0:0:0:0:
241,171,49263,1,8,0:0:0:0:
211,196,49336,1,8,0:0:0:0:
211,196,49483,1,0,0:0:0:0:
211,196,49629,1,8,0:0:0:0:
211,196,49775,1,0,0:0:0:0:
211,196,49922,1,0,0:0:0:0:
211,196,50214,1,8,0:0:0:0:
211,196,50361,1,0,0:0:0:0:
236,188,50434,1,0,0:0:0:0:
211,196,50507,1,0,0:0:0:0:
211,196,50653,1,8,0:0:0:0:
211,196,50800,1,8,0:0:0:0:
211,196,50946,1,0,0:0:0:0:
211,196,51092,1,8,0:0:0:0:
236,188,51165,1,8,0:0:0:0:
211,196,51239,1,8,0:0:0:0:
211,196,51385,1,0,0:0:0:0:
211,196,51678,1,8,0:0:0:0:
211,196,51970,1,0,0:0:0:0:
211,196,52263,1,0,0:0:0:0:
211,196,52409,1,8,0:0:0:0:
239,186,52483,1,8,0:0:0:0:
211,196,52556,1,8,0:0:0:0:
211,196,52702,1,0,0:0:0:0:
211,196,52848,1,8,0:0:0:0:
211,196,53141,1,0,0:0:0:0:
211,196,53287,1,0,0:0:0:0:
211,196,53434,1,8,0:0:0:0:
239,186,53507,1,8,0:0:0:0:
211,196,53580,1,8,0:0:0:0:
211,196,53726,1,0,0:0:0:0:
211,196,53873,1,8,0:0:0:0:
211,196,54019,1,0,0:0:0:0:
229,141,54165,1,8,0:0:0:0:
196,201,54458,1,8,0:0:0:0:
196,201,54751,1,8,0:0:0:0:
221,166,55044,1,0,0:0:0:0:
221,166,55190,1,0,0:0:0:0:
221,166,55336,1,8,0:0:0:0:
231,154,55629,1,8,0:0:0:0:
254,183,55775,1,0,0:0:0:0:
221,166,55922,1,8,0:0:0:0:
221,166,56068,1,8,0:0:0:0:
224,168,56214,1,0,0:0:0:0:
224,168,56361,1,8,0:0:0:0:
210,224,56800,1,8,0:0:0:0:
210,224,57092,1,0,0:0:0:0:
210,224,57385,1,0,0:0:0:0:
210,224,57531,1,8,0:0:0:0:
210,224,57678,1,0,0:0:0:0:
210,224,57824,1,8,0:0:0:0:
191,206,57970,1,0,0:0:0:0:
194,207,58117,1,8,0:0:0:0:
195,208,58263,1,8,0:0:0:0:
193,214,58409,1,0,0:0:0:0:
191,206,58702,1,0,0:0:0:0:
194,207,58848,1,0,0:0:0:0:
193,214,59141,1,8,0:0:0:0:
191,206,59434,1,0,0:0:0:0:
194,207,59726,1,8,0:0:0:0:
193,214,59873,1,0,0:0:0:0:
191,206,60165,1,8,0:0:0:0:
194,207,60458,1,0,0:0:0:0:
194,207,60605,1,0,0:0:0:0:
193,214,60751,1,8,0:0:0:0:
191,206,60897,1,8,0:0:0:0:
191,206,61044,1,0,0:0:0:0:
193,214,61483,1,8,0:0:0:0:
191,206,61775,1,0,0:0:0:0:
193,214,62068,1,8,0:0:0:0:
193,214,62214,1,8,0:0:0:0:
191,206,62361,1,0,0:0:0:0:
191,206,62507,1,8,0:0:0:0:
193,214,62800,1,0,0:0:0:0:
193,214,62946,1,8,0:0:0:0:
191,206,63092,1,8,0:0:0:0:
191,206,63239,1,8,0:0:0:0:
195,192,63385,1,0,0:0:0:0:
195,194,63678,1,0,0:0:0:0:
195,194,63824,1,8,0:0:0:0:
191,206,63970,1,0,0:0:0:0:
191,206,64117,1,8,0:0:0:0:
191,199,64263,1,0,0:0:0:0:
191,199,64409,1,0,0:0:0:0:
191,199,64556,1,8,0:0:0:0:
191,206,64848,1,0,0:0:0:0:
191,199,65141,1,8,0:0:0:0:
191,199,65287,1,8,0:0:0:0:
191,199,65434,1,0,0:0:0:0:
191,199,65726,1,0,0:0:0:0:
191,199,65873,1,8,0:0:0:0:
201,185,66165,1,8,0:0:0:0:
201,185,66458,1,8,0:0:0:0:
201,185,66751,1,0,0:0:0:0:
201,185,66897,1,8,0:0:0:0:
201,185,67190,1,0,0:0:0:0:
201,185,67336,1,0,0:0:0:0:
201,185,67483,1,8,0:0:0:0:
201,185,67629,1,8,0:0:0:0:
201,185,67775,1,0,0:0:0:0:
201,185,68068,1,0,0:0:0:0:
201,185,68214,1,8,0:0:0:0:
201,185,68507,1,8,0:0:0:0:
201,185,68800,1,0,0:0:0:0:
201,185,68946,1,0,0:0:0:0:
201,185,69092,1,8,0:0:0:0:
201,185,69239,1,0,0:0:0:0:
201,185,69531,1,8,0:0:0:0:
201,185,69678,1,8,0:0:0:0:
201,185,69824,1,0,0:0:0:0:
201,185,70117,1,8,0:0:0:0:
201,185,70263,1,0,0:0:0:0:
201,185,70409,1,0,0:0:0:0:
201,185,70556,1,8,0:0:0:0:
201,185,70848,1,8,0:0:0:0:
201,185,71141,1,0,0:0:0:0:
201,185,71434,1,8,0:0:0:0:
201,185,71580,1,8,0:0:0:0:
201,185,71873,1,0,0:0:0:0:
201,185,72165,1,8,0:0:0:0:
201,185,72312,1,0,0:0:0:0:
201,185,72458,1,0,0:0:0:0:
201,185,72751,1,0,0:0:0:0:
201,185,72897,1,0,0:0:0:0:
201,185,73044,1,0,0:0:0:0:
201,185,73190,1,0,0:0:0:0:
201,185,73336,1,8,0:0:0:0:
201,185,73483,1,8,0:0:0:0:
227,157,73629,1,8,0:0:0:0:
226,159,73775,1,8,0:0:0:0:
226,159,73922,1,0,0:0:0:0:
226,159,74214,1,8,0:0:0:0:
227,157,74361,1,8,0:0:0:0:
226,159,74507,1,0,0:0:0:0:
250,229,75092,1,12,0:0:0:0:
250,229,75385,1,0,0:0:0:0:
218,219,75580,1,0,0:0:0:0:
250,229,75678,1,0,0:0:0:0:
289,193,75873,1,0,0:0:0:0:
289,193,75970,1,0,0:0:0:0:
223,165,76556,1,8,0:0:0:0:
225,203,76848,1,0,0:0:0:0:
223,165,77044,1,0,0:0:0:0:
221,209,77141,1,0,0:0:0:0:
221,209,77434,1,8,0:0:0:0:
221,209,77726,1,0,0:0:0:0:
219,177,77922,1,0,0:0:0:0:
221,209,78019,1,0,0:0:0:0:
218,178,78214,1,0,0:0:0:0:
221,209,78312,1,0,0:0:0:0:
221,209,78605,1,8,0:0:0:0:
219,188,78800,1,0,0:0:0:0:
219,188,78897,1,0,0:0:0:0:
221,209,79190,1,8,0:0:0:0:
219,188,79385,1,0,0:0:0:0:
219,188,79483,1,0,0:0:0:0:
221,209,79775,1,8,0:0:0:0:
233,173,80068,1,0,0:0:0:0:
237,173,80263,1,0,0:0:0:0:
233,173,80361,1,0,0:0:0:0:
225,167,80556,1,0,0:0:0:0:
233,173,80653,1,0,0:0:0:0:
225,167,81239,1,8,0:0:0:0:
225,167,81531,1,0,0:0:0:0:
225,167,81726,1,0,0:0:0:0:
225,167,81824,1,0,0:0:0:0:
248,137,82117,1,8,0:0:0:0:
248,141,82409,1,0,0:0:0:0:
248,137,82605,1,0,0:0:0:0:
248,137,82702,1,0,0:0:0:0:
248,137,82897,1,0,0:0:0:0:
248,141,82995,1,0,0:0:0:0:
248,137,83287,1,8,0:0:0:0:
235,171,83483,1,0,0:0:0:0:
237,171,83580,1,0,0:0:0:0:
240,171,83873,1,8,0:0:0:0:
240,171,84068,1,0,0:0:0:0:
242,170,84165,1,0,0:0:0:0:
250,229,84458,1,0,0:0:0:0:
250,229,85044,1,8,0:0:0:0:
289,193,85336,1,0,0:0:0:0:
223,165,85922,1,8,0:0:0:0:
225,203,86214,1,0,0:0:0:0:
223,165,86409,1,0,0:0:0:0:
221,209,86507,1,0,0:0:0:0:
221,209,86800,1,8,0:0:0:0:
221,209,87092,1,0,0:0:0:0:
219,177,87287,1,0,0:0:0:0:
221,209,87385,1,0,0:0:0:0:
218,178,87580,1,0,0:0:0:0:
221,209,87678,1,0,0:0:0:0:
221,209,87970,1,8,0:0:0:0:
219,188,88165,1,0,0:0:0:0:
219,188,88263,1,0,0:0:0:0:
221,209,88556,1,8,0:0:0:0:
219,188,88751,1,0,0:0:0:0:
219,188,88848,1,0,0:0:0:0:
250,229,89141,1,8,0:0:0:0:
250,229,89434,1,0,0:0:0:0:
218,219,89629,1,0,0:0:0:0:
250,229,89726,1,0,0:0:0:0:
289,193,89922,1,0,0:0:0:0:
289,193,90019,1,0,0:0:0:0:
223,165,90605,1,8,0:0:0:0:
225,203,90897,1,0,0:0:0:0:
223,165,91092,1,0,0:0:0:0:
221,209,91190,1,0,0:0:0:0:
221,209,91483,1,8,0:0:0:0:
221,209,91775,1,0,0:0:0:0:
219,177,91970,1,0,0:0:0:0:
221,209,92068,1,0,0:0:0:0:
218,178,92263,1,0,0:0:0:0:
221,209,92361,1,0,0:0:0:0:
221,209,92653,1,8,0:0:0:0:
219,188,92848,1,0,0:0:0:0:
219,188,92946,1,0,0:0:0:0:
221,209,93239,1,8,0:0:0:0:
219,188,93434,1,0,0:0:0:0:
219,188,93531,1,0,0:0:0:0:
250,229,93824,1,8,0:0:0:0:
250,229,94117,1,0,0:0:0:0:
218,219,94312,1,0,0:0:0:0:
250,229,94409,1,0,0:0:0:0:
289,193,94605,1,0,0:0:0:0:
289,193,94702,1,0,0:0:0:0:
223,165,95287,1,8,0:0:0:0:
225,203,95580,1,0,0:0:0:0:
223,165,95775,1,0,0:0:0:0:
221,209,95873,1,0,0:0:0:0:
221,209,96165,1,8,0:0:0:0:
221,209,96458,1,0,0:0:0:0:
219,177,96653,1,0,0:0:0:0:
221,209,96751,1,0,0:0:0:0:
218,178,96946,1,0,0:0:0:0:
221,209,97044,1,0,0:0:0:0:
221,209,97336,1,8,0:0:0:0:
219,188,97531,1,0,0:0:0:0:
219,188,97629,1,0,0:0:0:0:
221,209,97922,1,8,0:0:0:0:
219,188,98117,1,0,0:0:0:0:
219,188,98214,1,0,0:0:0:0:
250,229,98507,1,8,0:0:0:0:
250,229,98800,1,0,0:0:0:0:
218,219,98995,1,0,0:0:0:0:
250,229,99092,1,0,0:0:0:0:
289,193,99287,1,0,0:0:0:0:
289,193,99385,1,0,0:0:0:0:
223,165,99970,1,8,0:0:0:0:
225,203,100263,1,0,0:0:0:0:
223,165,100458,1,0,0:0:0:0:
221,209,100556,1,0,0:0:0:0:
221,209,100848,1,8,0:0:0:0:
221,209,101141,1,0,0:0:0:0:
219,177,101336,1,0,0:0:0:0:
221,209,101434,1,0,0:0:0:0:
218,178,101629,1,0,0:0:0:0:
221,209,101726,1,0,0:0:0:0:
221,209,102019,1,8,0:0:0:0:
219,188,102214,1,0,0:0:0:0:
219,188,102312,1,0,0:0:0:0:
221,209,102605,1,8,0:0:0:0:
219,188,102800,1,0,0:0:0:0:
219,188,102897,1,0,0:0:0:0:
250,229,103190,1,8,0:0:0:0:
250,229,103483,1,0,0:0:0:0:
218,219,103678,1,0,0:0:0:0:
250,229,103775,1,0,0:0:0:0:
289,193,103970,1,0,0:0:0:0:
289,193,104068,1,0,0:0:0:0:
223,165,104653,1,8,0:0:0:0:
225,203,104946,1,0,0:0:0:0:
223,165,105141,1,0,0:0:0:0:
221,209,105239,1,0,0:0:0:0:
221,209,105531,1,8,0:0:0:0:
221,209,105824,1,0,0:0:0:0:
219,177,106019,1,0,0:0:0:0:
221,209,106117,1,0,0:0:0:0:
218,178,106312,1,0,0:0:0:0:
221,209,106409,1,0,0:0:0:0:
221,209,106702,1,8,0:0:0:0:
219,188,106897,1,0,0:0:0:0:
219,188,106995,1,0,0:0:0:0:
221,209,107287,1,8,0:0:0:0:
219,188,107483,1,0,0:0:0:0:
219,188,107580,1,0,0:0:0:0:
250,229,107873,1,8,0:0:0:0:
250,229,108165,1,0,0:0:0:0:
218,219,108361,1,0,0:0:0:0:
250,229,108458,1,0,0:0:0:0:
289,193,108653,1,0,0:0:0:0:
289,193,108751,1,0,0:0:0:0:
223,165,109336,1,8,0:0:0:0:
225,203,109629,1,0,0:0:0:0:
223,165,109824,1,0,0:0:0:0:
221,209,109922,1,0,0:0:0:0:
221,209,110214,1,8,0:0:0:0:
221,209,110507,1,0,0:0:0:0:
219,177,110702,1,0,0:0:0:0:
221,209,110800,1,0,0:0:0:0:
218,178,110995,1,0,0:0:0:0:
221,209,111092,1,0,0:0:0:0:
221,209,111385,1,8,0:0:0:0:
219,188,111580,1,0,0:0:0:0:
219,188,111678,1,0,0:0:0:0:
221,209,111970,1,8,0:0:0:0:
219,188,112165,1,0,0:0:0:0:
219,188,112263,1,0,0:0:0:0:
195,207,112556,1,4,0:0:0:0:
282,212,112995,1,0,0:0:0:0:
282,212,113141,1,8,0:0:0:0:
224,218,113287,1,8,0:0:0:0:
282,212,113434,1,0,0:0:0:0:
224,218,113726,1,8,0:0:0:0:
234,219,113873,1,0,0:0:0:0:
224,218,114019,1,8,0:0:0:0:
179,249,114312,1,0,0:0:0:0:
179,249,114605,1,8,0:0:0:0:
179,249,114751,1,8,0:0:0:0:
179,249,114897,1,0,0:0:0:0:
179,249,115336,1,0,0:0:0:0:
179,249,115483,1,8,0:0:0:0:
193,199,115629,1,0,0:0:0:0:
179,249,115775,1,0,0:0:0:0:
185,250,116214,1,0,0:0:0:0:
185,250,116361,1,8,0:0:0:0:
185,250,116653,1,0,0:0:0:0:
185,250,116946,1,8,0:0:0:0:
185,250,117239,1,0,0:0:0:0:
248,233,117385,1,0,0:0:0:0:
248,233,117531,1,0,0:0:0:0:
248,233,117678,1,0,0:0:0:0:
248,233,117824,1,8,0:0:0:0:
225,235,118117,1,8,0:0:0:0:
229,235,118263,1,8,0:0:0:0:
229,235,118409,1,0,0:0:0:0:
229,235,118556,1,0,0:0:0:0:
229,235,118702,1,8,0:0:0:0:
225,235,118995,1,0,0:0:0:0:
229,235,119141,1,8,0:0:0:0:
229,235,119287,1,0,0:0:0:0:
229,235,119434,1,0,0:0:0:0:
232,238,119580,1,8,0:0:0:0:
229,235,119873,1,0,0:0:0:0:
229,235,120019,1,0,0:0:0:0:
229,235,120165,1,8,0:0:0:0:
232,238,120312,1,8,0:0:0:0:
229,235,120458,1,0,0:0:0:0:
229,235,120751,1,8,0:0:0:0:
229,235,120897,1,8,0:0:0:0:
232,238,121044,1,8,0:0:0:0:
229,235,121190,1,8,0:0:0:0:
229,235,121336,1,0,0:0:0:0:
229,235,121483,1,0,0:0:0:0:
229,235,121629,1,0,0:0:0:0:
232,238,121775,1,0,0:0:0:0:
229,235,121922,1,8,0:0:0:0:
228,191,122361,1,0,0:0:0:0:
228,191,122507,1,8,0:0:0:0:
194,224,122653,1,8,0:0:0:0:
228,191,122800,1,0,0:0:0:0:
194,224,123092,1,8,0:0:0:0:
194,224,123239,1,0,0:0:0:0:
194,224,123385,1,8,0:0:0:0:
194,224,123678,1,0,0:0:0:0:
194,224,123970,1,0,0:0:0:0:
192,231,124117,1,0,0:0:0:0:
192,231,124263,1,8,0:0:0:0:
191,233,124702,1,0,0:0:0:0:
192,231,124848,1,8,0:0:0:0:
192,231,124995,1,0,0:0:0:0:
191,233,125141,1,0,0:0:0:0:
191,233,125434,1,8,0:0:0:0:
192,231,125580,1,8,0:0:0:0:
192,231,125726,1,0,0:0:0:0:
191,233,125873,1,8,0:0:0:0:
191,233,126019,1,0,0:0:0:0:
191,233,126312,1,8,0:0:0:0:
192,231,126458,1,8,0:0:0:0:
192,231,126605,1,0,0:0:0:0:
238,174,126751,1,0,0:0:0:0:
238,174,126897,1,0,0:0:0:0:
238,174,127044,1,0,0:0:0:0:
238,174,127190,1,8,0:0:0:0:
221,188,127483,1,0,0:0:0:0:
221,188,127629,1,0,0:0:0:0:
221,188,127775,1,8,0:0:0:0:
221,188,127922,1,8,0:0:0:0:
221,188,128068,1,0,0:0:0:0:
221,188,128361,1,8,0:0:0:0:
221,188,128507,1,0,0:0:0:0:
221,188,128653,1,0,0:0:0:0:
221,188,128800,1,0,0:0:0:0:
221,188,128946,1,8,0:0:0:0:
221,188,129239,1,0,0:0:0:0:
221,188,129385,1,8,0:0:0:0:
221,188,129531,1,8,0:0:0:0:
221,188,129678,1,8,0:0:0:0:
221,188,129824,1,0,0:0:0:0:
221,188,130117,1,0,0:0:0:0:
221,188,130263,1,8,0:0:0:0:
221,188,130409,1,0,0:0:0:0:
221,188,130556,1,8,0:0:0:0:
221,188,130702,1,0,0:0:0:0:
221,188,130848,1,0,0:0:0:0:
221,188,130995,1,8,0:0:0:0:
221,188,131141,1,8,0:0:0:0:
221,188,131287,1,4,0:0:0:0:
221,188,131726,1,0,0:0:0:0:
221,188,131873,1,8,0:0:0:0:
221,188,132019,1,0,0:0:0:0:
221,188,132165,1,0,0:0:0:0:
221,188,132458,1,8,0:0:0:0:
221,188,132605,1,0,0:0:0:0:
211,223,132751,1,8,0:0:0:0:
361,206,132897,1,8,0:0:0:0:
211,223,133044,1,0,0:0:0:0:
211,223,133336,1,0,0:0:0:0:
211,223,133483,1,8,0:0:0:0:
211,223,133629,1,0,0:0:0:0:
211,223,134068,1,0,0:0:0:0:
211,223,134214,1,8,0:0:0:0:
236,98,134361,1,8,0:0:0:0:
211,223,134507,1,0,0:0:0:0:
165,187,134800,1,8,0:0:0:0:
165,187,134946,1,8,0:0:0:0:
165,187,135092,1,0,0:0:0:0:
165,187,135239,1,0,0:0:0:0:
165,187,135385,1,8,0:0:0:0:
165,187,135678,1,0,0:0:0:0:
165,187,135824,1,8,0:0:0:0:
165,187,135970,1,0,0:0:0:0:
165,187,136117,1,0,0:0:0:0:
165,187,136263,1,0,0:0:0:0:
165,187,136409,1,0,0:0:0:0:
165,187,136556,1,8,0:0:0:0:
165,187,136848,1,0,0:0:0:0:
165,187,136995,1,0,0:0:0:0:
165,187,137141,1,8,0:0:0:0:
165,187,137287,1,8,0:0:0:0:
165,187,137434,1,0,0:0:0:0:
165,187,137726,1,8,0:0:0:0:
165,187,137873,1,8,0:0:0:0:
165,187,138019,1,8,0:0:0:0:
165,187,138165,1,8,0:0:0:0:
165,187,138312,1,0,0:0:0:0:
165,187,138605,1,0,0:0:0:0:
165,187,138751,1,0,0:0:0:0:
165,187,138897,1,8,0:0:0:0:
165,187,139044,1,0,0:0:0:0:
165,187,139190,1,8,0:0:0:0:
165,187,139483,1,0,0:0:0:0:
165,187,139629,1,0,0:0:0:0:
165,187,139775,1,8,0:0:0:0:
165,187,139922,1,8,0:0:0:0:
165,187,140068,1,0,0:0:0:0:
165,187,140214,1,0,0:0:0:0:
165,187,140361,1,8,0:0:0:0:
165,187,140507,1,8,0:0:0:0:
165,187,140653,1,4,0:0:0:0:
219,192,141092,1,0,0:0:0:0:
219,192,141239,1,8,0:0:0:0:
219,192,141385,1,8,0:0:0:0:
219,192,141531,1,0,0:0:0:0:
219,192,141824,1,8,0:0:0:0:
219,192,141970,1,0,0:0:0:0:
219,192,142117,1,8,0:0:0:0:
219,192,142409,1,0,0:0:0:0:
219,192,142702,1,8,0:0:0:0:
219,192,142848,1,8,0:0:0:0:
219,192,142995,1,0,0:0:0:0:
219,192,143434,1,0,0:0:0:0:
219,192,143580,1,8,0:0:0:0:
219,192,143726,1,8,0:0:0:0:
219,192,143873,1,0,0:0:0:0:
219,192,144165,1,0,0:0:0:0:
219,192,144312,1,8,0:0:0:0:
219,192,144458,1,8,0:0:0:0:
219,192,144605,1,8,0:0:0:0:
219,192,144751,1,0,0:0:0:0:
219,192,145044,1,8,0:0:0:0:
219,192,145190,1,8,0:0:0:0:
219,192,145336,1,0,0:0:0:0:
219,192,145483,1,0,0:0:0:0:
219,192,145629,1,0,0:0:0:0:
219,192,145775,1,0,0:0:0:0:
219,192,145922,1,8,0:0:0:0:
219,192,146214,1,0,0:0:0:0:
219,192,146361,1,0,0:0:0:0:
219,192,146507,1,8,0:0:0:0:
219,192,146653,1,8,0:0:0:0:
219,192,146800,1,0,0:0:0:0:
219,192,147092,1,8,0:0:0:0:
219,192,147239,1,8,0:0:0:0:
219,192,147385,1,8,0:0:0:0:
219,192,147531,1,8,0:0:0:0:
219,192,147678,1,0,0:0:0:0:
219,192,147970,1,0,0:0:0:0:
219,192,148117,1,0,0:0:0:0:
219,192,148263,1,0,0:0:0:0:
219,192,148409,1,0,0:0:0:0:
219,192,148556,1,8,0:0:0:0:
219,192,148848,1,0,0:0:0:0:
219,192,148995,1,8,0:0:0:0:
219,192,149141,1,0,0:0:0:0:
219,192,149287,1,8,0:0:0:0:
219,192,149434,1,0,0:0:0:0:
219,192,149580,1,0,0:0:0:0:
219,192,149726,1,8,0:0:0:0:
219,192,149873,1,8,0:0:0:0:
333,178,152361,5,8,0:0:0:0:
242,178,152434,1,8,0:0:0:0:
263,234,152507,1,8,0:0:0:0:
263,234,152653,1,0,0:0:0:0:
263,234,152800,1,8,0:0:0:0:
234,234,152946,1,0,0:0:0:0:
234,234,153092,1,0,0:0:0:0:
242,178,153165,1,0,0:0:0:0:
234,234,153239,1,0,0:0:0:0:
233,234,153385,1,8,0:0:0:0:
233,234,153531,1,0,0:0:0:0:
234,234,153824,1,8,0:0:0:0:
234,234,154117,1,0,0:0:0:0:
233,234,154263,1,0,0:0:0:0:
233,234,154409,1,8,0:0:0:0:
243,186,154483,1,8,0:0:0:0:
234,234,154556,1,8,0:0:0:0:
234,234,154702,1,0,0:0:0:0:
234,234,154995,1,8,0:0:0:0:
233,234,155287,1,0,0:0:0:0:
234,234,155580,1,0,0:0:0:0:
234,234,155726,1,8,0:0:0:0:
244,189,155800,1,8,0:0:0:0:
234,234,155873,1,8,0:0:0:0:
233,234,156019,1,0,0:0:0:0:
233,234,156165,1,8,0:0:0:0:
234,234,156312,1,8,0:0:0:0:
234,234,156458,1,0,0:0:0:0:
244,189,156531,1,0,0:0:0:0:
234,234,156605,1,0,0:0:0:0:
234,234,156751,1,8,0:0:0:0:
233,234,157044,1,0,0:0:0:0:
234,234,157190,1,8,0:0:0:0:
234,234,157483,1,8,0:0:0:0:
233,234,157775,1,0,0:0:0:0:
234,234,158068,1,0,0:0:0:0:
236,168,158141,1,0,0:0:0:0:
234,234,158214,1,0,0:0:0:0:
234,234,158361,1,8,0:0:0:0:
194,179,158507,1,0,0:0:0:0:
233,234,158653,1,8,0:0:0:0:
234,234,158946,1,8,0:0:0:0:
194,179,159092,1,8,0:0:0:0:
234,234,159239,1,8,0:0:0:0:
194,179,159385,1,0,0:0:0:0:
280,191,159678,1,8,0:0:0:0:
280,191,159970,1,0,0:0:0:0:
249,192,160263,1,8,0:0:0:0:
249,193,160409,1,8,0:0:0:0:
249,193,160556,1,0,0:0:0:0:
249,193,160848,1,8,0:0:0:0:
249,192,160995,1,0,0:0:0:0:
249,192,161141,1,8,0:0:0:0:
249,193,161287,1,8,0:0:0:0:
249,193,161434,1,0,0:0:0:0:
249,193,161726,1,8,0:0:0:0:
249,192,161873,1,0,0:0:0:0:
222,183,161946,1,0,0:0:0:0:
249,192,162019,1,0,0:0:0:0:
249,193,162165,1,8,0:0:0:0:
249,193,162312,1,0,0:0:0:0:
249,193,162458,1,8,0:0:0:0:
222,184,162531,1,8,0:0:0:0:
249,193,162605,1,8,0:0:0:0:
249,192,162751,1,0,0:0:0:0:
249,192,162897,1,8,0:0:0:0:
249,193,163190,1,8,0:0:0:0:
249,193,163483,1,0,0:0:0:0:
249,192,163775,1,0,0:0:0:0:
249,193,163922,1,8,0:0:0:0:
222,184,163995,1,8,0:0:0:0:
249,193,164068,1,8,0:0:0:0:
249,193,164214,1,0,0:0:0:0:
249,193,164361,1,8,0:0:0:0:
249,192,164507,1,0,0:0:0:0:
249,192,164653,1,0,0:0:0:0:
249,193,164946,1,8,0:0:0:0:
249,193,165092,1,8,0:0:0:0:
249,193,165239,1,0,0:0:0:0:
220,191,165312,1,0,0:0:0:0:
249,192,165385,1,0,0:0:0:0:
249,192,165531,1,8,0:0:0:0:
249,193,165824,1,0,0:0:0:0:
249,193,166117,1,8,0:0:0:0:
249,200,166409,1,0,0:0:0:0:
249,200,166556,1,8,0:0:0:0:
249,200,166702,1,8,0:0:0:0:
249,200,166848,1,0,0:0:0:0:
249,200,167141,1,8,0:0:0:0:
220,191,167214,1,8,0:0:0:0:
249,200,167287,1,8,0:0:0:0:
249,200,167434,1,0,0:0:0:0:
249,200,167580,1,8,0:0:0:0:
249,200,167726,1,0,0:0:0:0:
249,200,168019,1,8,0:0:0:0:
249,200,168312,1,8,0:0:0:0:
249,200,168605,1,0,0:0:0:0:
224,168,168751,1,8,0:0:0:0:
210,224,169190,1,8,0:0:0:0:
210,224,169483,1,0,0:0:0:0:
210,224,169775,1,0,0:0:0:0:
210,224,169922,1,8,0:0:0:0:
210,224,170068,1,8,0:0:0:0:
210,224,170214,1,0,0:0:0:0:
191,206,170361,1,0,0:0:0:0:
194,207,170507,1,8,0:0:0:0:
195,208,170653,1,0,0:0:0:0:
193,214,170800,1,8,0:0:0:0:
191,206,171092,1,0,0:0:0:0:
194,207,171239,1,8,0:0:0:0:
193,214,171531,1,8,0:0:0:0:
191,206,171824,1,0,0:0:0:0:
194,207,172117,1,0,0:0:0:0:
193,214,172263,1,8,0:0:0:0:
191,206,172556,1,0,0:0:0:0:
194,207,172848,1,8,0:0:0:0:
194,207,172995,1,8,0:0:0:0:
193,214,173141,1,0,0:0:0:0:
191,206,173287,1,8,0:0:0:0:
191,206,173434,1,0,0:0:0:0:
193,214,173873,1,8,0:0:0:0:
191,206,174165,1,0,0:0:0:0:
193,214,174458,1,0,0:0:0:0:
193,214,174605,1,8,0:0:0:0:
191,206,174751,1,8,0:0:0:0:
191,206,174897,1,0,0:0:0:0:
193,214,175190,1,8,0:0:0:0:
193,214,175336,1,0,0:0:0:0:
191,206,175483,1,8,0:0:0:0:
191,206,175629,1,8,0:0:0:0:
195,192,175775,1,0,0:0:0:0:
195,194,176068,1,8,0:0:0:0:
195,194,176214,1,8,0:0:0:0:
191,206,176361,1,0,0:0:0:0:
191,206,176507,1,0,0:0:0:0:
191,199,176653,1,8,0:0:0:0:
191,199,176800,1,8,0:0:0:0:
191,199,176946,1,0,0:0:0:0:
191,206,177239,1,8,0:0:0:0:
191,199,177531,1,0,0:0:0:0:
191,199,177678,1,0,0:0:0:0:
191,199,177824,1,8,0:0:0:0:
191,199,178117,1,8,0:0:0:0:
191,199,178263,1,0,0:0:0:0:
201,185,178556,1,8,0:0:0:0:
201,185,178848,1,0,0:0:0:0:
201,185,179141,1,0,0:0:0:0:
201,185,179287,1,8,0:0:0:0:
201,185,179580,1,0,0:0:0:0:
201,185,179726,1,0,0:0:0:0:
201,185,179873,1,8,0:0:0:0:
201,185,180019,1,8,0:0:0:0:
201,185,180165,1,0,0:0:0:0:
201,185,180458,1,8,0:0:0:0:
201,185,180605,1,0,0:0:0:0:
201,185,180897,1,8,0:0:0:0:
201,185,181190,1,0,0:0:0:0:
201,185,181336,1,0,0:0:0:0:
201,185,181483,1,0,0:0:0:0:
201,185,181629,1,8,0:0:0:0:
201,185,181922,1,0,0:0:0:0:
201,185,182068,1,8,0:0:0:0:
201,185,182214,1,0,0:0:0:0:
201,185,182507,1,8,0:0:0:0:
201,185,182653,1,8,0:0:0:0:
201,185,182800,1,0,0:0:0:0:
201,185,182946,1,8,0:0:0:0:
201,185,183239,1,8,0:0:0:0:
201,185,183531,1,0,0:0:0:0:
201,185,183824,1,0,0:0:0:0:
201,185,183970,1,8,0:0:0:0:
201,185,184263,1,0,0:0:0:0:
201,185,184556,1,8,0:0:0:0:
201,185,184702,1,8,0:0:0:0:
201,185,184848,1,0,0:0:0:0:
201,185,185141,1,0,0:0:0:0:
201,185,185287,1,8,0:0:0:0:
201,185,185434,1,0,0:0:0:0:
201,185,185580,1,8,0:0:0:0:
201,185,185726,1,0,0:0:0:0:
201,185,185873,1,0,0:0:0:0:
227,157,186019,1,8,0:0:0:0:
226,159,186165,1,8,0:0:0:0:
226,159,186312,1,0,0:0:0:0:
226,159,186605,1,8,0:0:0:0:
227,157,186751,1,8,0:0:0:0:
226,159,186897,1,0,0:0:0:0:
185,237,187044,1,0,0:0:0:0:
177,235,187190,1,8,0:0:0:0:
177,235,187336,1,8,0:0:0:0:
197,187,187483,1,4,0:0:0:0:
236,221,187922,1,0,0:0:0:0:
314,191,187995,1,0,0:0:0:0:
236,221,188068,1,0,0:0:0:0:
