osu file format v14

[General]
AudioFilename: audio.ogg
AudioLeadIn: 0
PreviewTime: 151987
Countdown: 0
SampleSet: Normal
StackLeniency: 0.7
Mode: 1
LetterboxInBreaks: 0
WidescreenStoryboard: 1

[Editor]
Bookmarks: 158,25914,26499,27084,27670,35279,35865,36450,37036,131279,140645,187475
DistanceSpacing: 1
BeatDivisor: 1
GridSize: 32
TimelineZoom: 1.8

[Metadata]
Title:Eighty-Sixed
TitleUnicode:Eighty-Sixed
Artist:The Fallen Prodigy
ArtistUnicode:The Fallen Prodigy
Creator:skolodojko
Version:Kantan
Source:
Tags:english metal death deathcore metalcore post-hardcore relive // regret // repeat
BeatmapID:3753882
BeatmapSetID:1829005

[Difficulty]
HPDrainRate:7.5
CircleSize:2
OverallDifficulty:3
ApproachRate:10
SliderMultiplier:1.4
SliderTickRate:1

[Events]
//Background and Video events
0,0,"3911443.jpg",0,60
//Break Periods
2,150011,151911
//Storyboard Layer 0 (Background)
//Storyboard Layer 1 (Fail)
//Storyboard Layer 2 (Pass)
//Storyboard Layer 3 (Foreground)
//Storyboard Layer 4 (Overlay)
//Storyboard Sound Samples

[TimingPoints]
166,292.682926829268,4,1,0,100,1,0
166,-117.647058823529,4,1,0,100,0,1
25922,-117.647058823529,4,1,0,100,0,0
28263,-117.647058823529,4,1,0,100,0,1
35287,-117.647058823529,4,1,0,100,0,0
37629,-117.647058823529,4,1,0,100,0,1
44653,-117.647058823529,4,1,0,100,0,0
46995,-117.647058823529,4,1,0,100,0,1
54019,-117.647058823529,4,1,0,100,0,0
56342,-117.647058823529,4,1,0,90,0,0
56507,-117.647058823529,4,1,0,90,0,0
56653,-117.647058823529,4,1,0,90,0,0
56800,-117.647058823529,4,1,0,90,0,0
56873,-117.647058823529,4,1,0,90,0,0
56946,-117.647058823529,4,1,0,90,0,0
57092,-117.647058823529,4,1,0,90,0,0
57239,-117.647058823529,4,1,0,90,0,0
57385,-117.647058823529,4,1,0,90,0,0
57458,-117.647058823529,4,1,0,90,0,0
57531,-117.647058823529,4,1,0,90,0,0
57678,-117.647058823529,4,1,0,90,0,0
57824,-117.647058823529,4,1,0,90,0,0
57897,-117.647058823529,4,1,0,90,0,0
57970,-117.647058823529,4,1,0,90,0,0
58044,-117.647058823529,4,1,0,90,0,0
58117,-117.647058823529,4,1,0,90,0,0
58263,-117.647058823529,4,1,0,90,0,0
58409,-117.647058823529,4,1,0,90,0,0
58556,-117.647058823529,4,1,0,90,0,0
58702,-117.647058823529,4,1,0,90,0,0
63531,-117.647058823529,4,1,0,90,0,0
65855,-117.647058823529,4,1,0,90,0,0
66001,-117.647058823529,4,1,0,90,0,0
66148,-117.647058823529,4,1,0,90,0,0
66221,-117.647058823529,4,1,0,90,0,0
66294,-117.647058823529,4,1,0,90,0,0
66440,-117.647058823529,4,1,0,90,0,0
66587,-117.647058823529,4,1,0,90,0,0
66733,-117.647058823529,4,1,0,90,0,0
66806,-117.647058823529,4,1,0,90,0,0
66879,-117.647058823529,4,1,0,90,0,0
67026,-117.647058823529,4,1,0,90,0,0
67172,-117.647058823529,4,1,0,90,0,0
67245,-117.647058823529,4,1,0,90,0,0
67318,-117.647058823529,4,1,0,90,0,0
67392,-117.647058823529,4,1,0,90,0,0
67465,-117.647058823529,4,1,0,90,0,0
67611,-117.647058823529,4,1,0,90,0,0
67757,-117.647058823529,4,1,0,90,0,0
67904,-117.647058823529,4,1,0,90,0,0
68050,-117.647058823529,4,1,0,90,0,0
72751,-117.647058823529,4,1,0,90,0,0
72824,-117.647058823529,4,1,0,90,0,0
72897,-117.647058823529,4,1,0,90,0,0
72970,-117.647058823529,4,1,0,90,0,0
73044,-117.647058823529,4,1,0,90,0,0
73117,-117.647058823529,4,1,0,90,0,0
73190,-117.647058823529,4,1,0,90,0,0
73263,-117.647058823529,4,1,0,90,0,0
73336,-117.647058823529,4,1,0,90,0,0
73409,-117.647058823529,4,1,0,90,0,0
73483,-117.647058823529,4,1,0,90,0,0
73556,-117.647058823529,4,1,0,90,0,0
73629,-117.647058823529,4,1,0,90,0,0
73702,-117.647058823529,4,1,0,90,0,0
73775,-117.647058823529,4,1,0,90,0,0
73848,-117.647058823529,4,1,0,90,0,0
73922,-117.647058823529,4,1,0,90,0,0
73995,-117.647058823529,4,1,0,90,0,0
74068,-117.647058823529,4,1,0,90,0,0
74141,-117.647058823529,4,1,0,90,0,0
74214,-117.647058823529,4,1,0,90,0,0
74287,-117.647058823529,4,1,0,90,0,0
74361,-117.647058823529,4,1,0,90,0,0
74434,-117.647058823529,4,1,0,90,0,0
74507,-117.647058823529,4,1,0,90,0,0
75019,-117.647058823529,4,1,0,80,0,0
84458,-117.647058823529,4,1,0,80,0,0
84653,-117.647058823529,4,1,0,80,0,0
84751,-117.647058823529,4,1,0,80,0,0
84848,-117.647058823529,4,1,0,80,0,0
84946,-117.647058823529,4,1,0,80,0,0
85044,-117.647058823529,4,1,0,80,0,0
85141,-117.647058823529,4,1,0,80,0,0
85239,-117.647058823529,4,1,0,80,0,0
85336,-117.647058823529,4,1,0,80,0,0
112653,-117.647058823529,4,1,0,80,0,0
152214,-117.647058823529,4,1,0,100,0,0
152361,-117.647058823529,4,1,0,100,0,1
159385,-117.647058823529,4,1,0,100,0,0
161726,-117.647058823529,4,1,0,100,0,1
168678,-117.647058823529,4,1,0,90,0,1
168751,-117.647058823529,4,1,0,90,0,0
168897,-117.647058823529,4,1,0,90,0,0
169044,-117.647058823529,4,1,0,90,0,0
169190,-117.647058823529,4,1,0,90,0,0
169263,-117.647058823529,4,1,0,90,0,0
169336,-117.647058823529,4,1,0,90,0,0
169483,-117.647058823529,4,1,0,90,0,0
169629,-117.647058823529,4,1,0,90,0,0
169775,-117.647058823529,4,1,0,90,0,0
169848,-117.647058823529,4,1,0,90,0,0
169922,-117.647058823529,4,1,0,90,0,0
170068,-117.647058823529,4,1,0,90,0,0
170214,-117.647058823529,4,1,0,90,0,0
170287,-117.647058823529,4,1,0,90,0,0
170361,-117.647058823529,4,1,0,90,0,0
170434,-117.647058823529,4,1,0,90,0,0
170507,-117.647058823529,4,1,0,90,0,0
170653,-117.647058823529,4,1,0,90,0,0
170800,-117.647058823529,4,1,0,90,0,0
170946,-117.647058823529,4,1,0,90,0,0
171092,-117.647058823529,4,1,0,90,0,0
175912,-117.647058823529,4,1,0,90,0,0
178263,-117.647058823529,4,1,0,90,0,0
178409,-117.647058823529,4,1,0,90,0,0
178556,-117.647058823529,4,1,0,90,0,0
178629,-117.647058823529,4,1,0,90,0,0
178702,-117.647058823529,4,1,0,90,0,0
178848,-117.647058823529,4,1,0,90,0,0
178995,-117.647058823529,4,1,0,90,0,0
179141,-117.647058823529,4,1,0,90,0,0
179214,-117.647058823529,4,1,0,90,0,0
179287,-117.647058823529,4,1,0,90,0,0
179434,-117.647058823529,4,1,0,90,0,0
179580,-117.647058823529,4,1,0,90,0,0
179653,-117.647058823529,4,1,0,90,0,0
179726,-117.647058823529,4,1,0,90,0,0
179800,-117.647058823529,4,1,0,90,0,0
179873,-117.647058823529,4,1,0,90,0,0
180019,-117.647058823529,4,1,0,90,0,0
180165,-117.647058823529,4,1,0,90,0,0
180312,-117.647058823529,4,1,0,90,0,0
180458,-117.647058823529,4,1,0,90,0,0
185141,-117.647058823529,4,1,0,90,0,0
187775,-117.647058823529,4,1,0,80,0,0

[HitObjects]
253,185,166,5,4,0:0:0:0:
300,194,751,1,8,0:0:0:0:
236,209,1336,1,0,0:0:0:0:
236,209,1629,1,0,0:0:0:0:
236,209,1922,1,8,0:0:0:0:
236,209,2507,1,0,0:0:0:0:
236,209,3092,1,8,0:0:0:0:
236,209,3385,1,8,0:0:0:0:
236,209,3678,1,0,0:0:0:0:
225,189,4848,1,8,0:0:0:0:
225,189,5434,1,8,0:0:0:0:
225,189,6019,1,0,0:0:0:0:
225,189,6312,1,8,0:0:0:0:
225,189,6605,1,0,0:0:0:0:
225,189,6897,1,0,0:0:0:0:
225,189,7190,1,8,0:0:0:0:
225,189,7775,1,0,0:0:0:0:
225,189,8361,1,8,0:0:0:0:
225,192,9531,1,0,0:0:0:0:
225,192,10117,1,8,0:0:0:0:
225,192,10409,1,8,0:0:0:0:
225,192,10702,1,0,0:0:0:0:
225,192,11287,1,8,0:0:0:0:
225,192,11873,1,0,0:0:0:0:
225,192,12458,1,0,0:0:0:0:
225,192,12751,1,8,0:0:0:0:
225,192,13044,1,0,0:0:0:0:
227,197,14214,1,8,0:0:0:0:
227,197,14800,1,0,0:0:0:0:
227,197,15092,1,0,0:0:0:0:
227,197,15385,1,8,0:0:0:0:
227,197,15678,1,8,0:0:0:0:
227,197,15970,1,0,0:0:0:0:
227,197,16556,1,8,0:0:0:0:
224,187,17141,1,0,0:0:0:0:
227,197,17434,1,8,0:0:0:0:
227,197,17726,1,0,0:0:0:0:
211,187,18897,1,0,0:0:0:0:
211,187,19483,1,8,0:0:0:0:
211,187,19775,1,8,0:0:0:0:
211,187,20068,1,0,0:0:0:0:
211,187,20653,1,8,0:0:0:0:
211,187,21239,1,0,0:0:0:0:
211,187,21824,1,0,0:0:0:0:
209,194,22117,1,0,0:0:0:0:
209,194,22409,1,8,0:0:0:0:
206,190,23580,1,0,0:0:0:0:
206,190,24165,1,8,0:0:0:0:
206,190,24458,1,8,0:0:0:0:
206,190,24751,1,0,0:0:0:0:
206,190,25922,1,4,0:0:0:0:
206,190,26507,1,12,0:0:0:0:
205,197,27092,1,4,0:0:0:0:
205,197,27678,1,12,0:0:0:0:
205,197,28263,1,0,0:0:0:0:
236,178,28848,1,8,0:0:0:0:
236,178,29141,1,8,0:0:0:0:
236,178,29434,1,0,0:0:0:0:
236,178,29726,1,0,0:0:0:0:
236,178,30019,1,8,0:0:0:0:
236,178,30605,1,0,0:0:0:0:
236,178,31190,1,0,0:0:0:0:
236,178,31483,1,8,0:0:0:0:
236,178,31775,1,0,0:0:0:0:
236,181,32946,1,0,0:0:0:0:
236,181,33531,1,8,0:0:0:0:
236,181,33824,1,8,0:0:0:0:
236,181,34117,1,0,0:0:0:0:
236,182,35287,1,4,0:0:0:0:
236,182,35873,1,12,0:0:0:0:
236,182,36458,1,4,0:0:0:0:
236,182,37044,1,12,0:0:0:0:
236,182,37629,1,0,0:0:0:0:
236,182,38214,1,0,0:0:0:0:
236,182,38507,1,8,0:0:0:0:
236,182,38800,1,0,0:0:0:0:
236,182,39092,1,0,0:0:0:0:
236,189,39385,1,8,0:0:0:0:
236,189,39970,1,0,0:0:0:0:
236,189,40263,1,0,0:0:0:0:
236,189,40556,1,8,0:0:0:0:
236,189,41141,1,0,0:0:0:0:
224,182,42312,1,0,0:0:0:0:
224,182,42897,1,8,0:0:0:0:
224,182,43190,1,8,0:0:0:0:
224,182,43483,1,0,0:0:0:0:
224,182,43775,1,0,0:0:0:0:
224,182,44068,1,8,0:0:0:0:
226,188,44653,1,0,0:0:0:0:
226,188,45239,1,8,0:0:0:0:
226,188,45824,1,0,0:0:0:0:
227,195,46995,1,0,0:0:0:0:
204,230,47580,1,8,0:0:0:0:
204,230,47873,1,0,0:0:0:0:
204,230,48165,1,8,0:0:0:0:
204,230,48751,1,0,0:0:0:0:
204,230,49336,1,8,0:0:0:0:
204,230,49922,1,0,0:0:0:0:
204,230,50214,1,0,0:0:0:0:
204,230,50507,1,8,0:0:0:0:
205,232,51678,1,0,0:0:0:0:
205,232,52263,1,8,0:0:0:0:
205,232,52556,1,8,0:0:0:0:
205,232,52848,1,0,0:0:0:0:
205,232,53141,1,0,0:0:0:0:
205,232,53434,1,8,0:0:0:0:
205,232,54019,1,0,0:0:0:0:
205,232,54605,1,8,0:0:0:0:
205,232,55190,1,0,0:0:0:0:
240,205,56361,1,0,0:0:0:0:
240,205,56946,1,8,0:0:0:0:
240,205,57239,1,8,0:0:0:0:
240,205,57531,1,0,0:0:0:0:
241,211,58117,1,8,0:0:0:0:
241,211,58702,1,0,0:0:0:0:
242,217,59873,1,0,0:0:0:0:
242,217,60165,1,8,0:0:0:0:
242,217,60458,1,0,0:0:0:0:
242,217,61044,1,0,0:0:0:0:
242,217,61629,1,8,0:0:0:0:
242,217,62214,1,0,0:0:0:0:
240,226,62507,1,0,0:0:0:0:
240,226,62800,1,8,0:0:0:0:
240,226,63385,1,0,0:0:0:0:
240,226,63970,1,8,0:0:0:0:
240,226,64556,1,8,0:0:0:0:
240,205,65726,1,0,0:0:0:0:
240,205,66312,1,8,0:0:0:0:
240,205,66605,1,8,0:0:0:0:
240,205,66897,1,0,0:0:0:0:
241,211,67483,1,8,0:0:0:0:
241,211,68068,1,0,0:0:0:0:
242,217,69239,1,8,0:0:0:0:
242,217,69531,1,0,0:0:0:0:
242,217,69824,1,8,0:0:0:0:
242,217,70409,1,0,0:0:0:0:
242,217,70995,1,8,0:0:0:0:
242,217,71580,1,0,0:0:0:0:
240,226,71873,1,0,0:0:0:0:
240,226,72165,1,8,0:0:0:0:
240,226,72751,1,0,0:0:0:0:
240,226,73336,1,8,0:0:0:0:
240,226,73922,1,0,0:0:0:0:
236,161,75092,1,12,0:0:0:0:
236,161,75678,1,0,0:0:0:0:
235,172,76556,1,0,0:0:0:0:
235,172,76848,1,8,0:0:0:0:
235,172,77434,1,0,0:0:0:0:
236,179,78019,1,8,0:0:0:0:
236,179,78605,1,0,0:0:0:0:
202,166,79190,1,0,0:0:0:0:
236,161,79775,1,0,0:0:0:0:
236,161,80361,1,8,0:0:0:0:
235,172,81239,1,0,0:0:0:0:
235,172,81531,1,8,0:0:0:0:
235,172,82117,1,0,0:0:0:0:
236,179,82702,1,8,0:0:0:0:
236,179,83287,1,0,0:0:0:0:
202,166,83873,1,0,0:0:0:0:
236,161,85044,1,8,0:0:0:0:
235,172,85922,1,0,0:0:0:0:
235,172,86214,1,8,0:0:0:0:
235,172,86800,1,0,0:0:0:0:
236,179,87385,1,8,0:0:0:0:
236,179,87970,1,0,0:0:0:0:
202,166,88556,1,0,0:0:0:0:
236,161,89141,1,0,0:0:0:0:
236,161,89726,1,8,0:0:0:0:
235,172,90605,1,0,0:0:0:0:
235,172,90897,1,8,0:0:0:0:
235,172,91483,1,0,0:0:0:0:
236,179,92068,1,8,0:0:0:0:
236,179,92653,1,0,0:0:0:0:
202,166,93239,1,0,0:0:0:0:
236,161,93824,1,0,0:0:0:0:
236,161,94409,1,8,0:0:0:0:
235,172,95287,1,0,0:0:0:0:
235,172,95580,1,8,0:0:0:0:
235,172,96165,1,0,0:0:0:0:
236,179,96751,1,8,0:0:0:0:
236,179,97336,1,0,0:0:0:0:
202,166,97922,1,0,0:0:0:0:
236,161,98507,1,0,0:0:0:0:
236,161,99092,1,8,0:0:0:0:
235,172,99970,1,0,0:0:0:0:
235,172,100263,1,8,0:0:0:0:
235,172,100848,1,0,0:0:0:0:
236,179,101434,1,8,0:0:0:0:
236,179,102019,1,0,0:0:0:0:
202,166,102605,1,0,0:0:0:0:
236,161,103190,1,0,0:0:0:0:
236,161,103775,1,8,0:0:0:0:
235,172,104653,1,0,0:0:0:0:
235,172,104946,1,8,0:0:0:0:
235,172,105531,1,0,0:0:0:0:
236,179,106117,1,8,0:0:0:0:
236,179,106702,1,0,0:0:0:0:
202,166,107287,1,0,0:0:0:0:
236,161,107873,1,0,0:0:0:0:
236,161,108458,1,8,0:0:0:0:
235,172,109336,1,0,0:0:0:0:
235,172,109629,1,8,0:0:0:0:
235,172,110214,1,0,0:0:0:0:
236,179,110800,1,8,0:0:0:0:
236,179,111385,1,0,0:0:0:0:
202,166,111970,1,0,0:0:0:0:
224,175,112556,1,4,0:0:0:0:
178,154,113141,1,8,0:0:0:0:
178,154,113434,1,0,0:0:0:0:
183,158,114312,1,8,0:0:0:0:
183,158,114897,1,0,0:0:0:0:
183,158,115483,1,0,0:0:0:0:
183,158,115775,1,8,0:0:0:0:
183,158,116653,1,8,0:0:0:0:
183,158,117239,1,0,0:0:0:0:
183,158,117531,1,0,0:0:0:0:
183,158,117824,1,8,0:0:0:0:
183,158,118409,1,0,0:0:0:0:
183,158,118995,1,8,0:0:0:0:
183,158,119580,1,0,0:0:0:0:
183,158,119873,1,8,0:0:0:0:
183,158,120165,1,0,0:0:0:0:
183,158,120751,1,0,0:0:0:0:
185,164,121922,1,0,0:0:0:0:
185,164,122507,1,8,0:0:0:0:
185,164,122800,1,0,0:0:0:0:
185,164,123678,1,0,0:0:0:0:
185,164,124263,1,8,0:0:0:0:
185,164,124848,1,8,0:0:0:0:
185,164,125141,1,0,0:0:0:0:
185,164,126019,1,8,0:0:0:0:
185,164,126605,1,0,0:0:0:0:
185,164,126897,1,0,0:0:0:0:
185,164,127190,1,8,0:0:0:0:
185,164,127775,1,0,0:0:0:0:
185,164,128361,1,8,0:0:0:0:
185,164,128653,1,0,0:0:0:0:
185,164,128946,1,8,0:0:0:0:
185,164,129531,1,0,0:0:0:0:
395,95,130117,1,8,0:0:0:0:
247,151,131287,1,4,0:0:0:0:
183,184,131873,1,8,0:0:0:0:
178,98,132165,1,0,0:0:0:0:
205,235,132458,1,8,0:0:0:0:
230,116,133044,1,0,0:0:0:0:
205,235,133629,1,8,0:0:0:0:
206,137,134214,1,8,0:0:0:0:
191,160,134507,1,0,0:0:0:0:
191,160,135385,1,0,0:0:0:0:
191,160,135970,1,8,0:0:0:0:
190,169,136263,1,8,0:0:0:0:
190,169,136556,1,0,0:0:0:0:
190,169,137141,1,8,0:0:0:0:
190,169,137726,1,0,0:0:0:0:
190,169,138312,1,8,0:0:0:0:
190,169,138605,1,0,0:0:0:0:
190,169,138897,1,8,0:0:0:0:
190,169,139483,1,0,0:0:0:0:
193,173,140653,1,4,0:0:0:0:
177,180,141239,1,8,0:0:0:0:
177,180,141531,1,8,0:0:0:0:
177,180,141824,1,0,0:0:0:0:
177,180,142409,1,0,0:0:0:0:
177,180,142995,1,8,0:0:0:0:
177,180,143873,1,0,0:0:0:0:
177,180,144165,1,8,0:0:0:0:
184,182,144751,1,0,0:0:0:0:
185,183,145044,1,8,0:0:0:0:
184,182,145336,1,0,0:0:0:0:
185,183,145922,1,8,0:0:0:0:
185,183,146507,1,0,0:0:0:0:
185,183,147092,1,8,0:0:0:0:
185,183,147385,1,8,0:0:0:0:
185,183,147678,1,0,0:0:0:0:
185,183,148263,1,8,0:0:0:0:
185,183,148848,1,0,0:0:0:0:
185,183,149434,1,8,0:0:0:0:
289,211,152361,5,0,0:0:0:0:
228,187,152653,1,0,0:0:0:0:
228,187,152946,1,8,0:0:0:0:
228,187,153239,1,8,0:0:0:0:
228,187,153531,1,0,0:0:0:0:
228,187,154117,1,8,0:0:0:0:
228,187,154702,1,0,0:0:0:0:
227,195,155287,1,8,0:0:0:0:
226,195,155580,1,0,0:0:0:0:
227,195,155873,1,0,0:0:0:0:
209,163,157044,1,8,0:0:0:0:
208,172,157336,1,8,0:0:0:0:
207,172,157629,1,0,0:0:0:0:
207,176,157922,1,8,0:0:0:0:
208,172,158214,1,0,0:0:0:0:
207,176,158800,1,8,0:0:0:0:
205,183,159385,1,0,0:0:0:0:
205,148,159970,1,0,0:0:0:0:
203,151,160263,1,8,0:0:0:0:
205,148,160556,1,0,0:0:0:0:
203,152,161726,1,0,0:0:0:0:
203,152,162019,1,0,0:0:0:0:
203,152,162312,1,8,0:0:0:0:
203,152,162605,1,8,0:0:0:0:
203,152,162897,1,0,0:0:0:0:
203,152,163483,1,8,0:0:0:0:
203,152,164068,1,0,0:0:0:0:
202,159,164653,1,8,0:0:0:0:
202,159,164946,1,8,0:0:0:0:
202,159,165239,1,0,0:0:0:0:
203,166,166409,5,0,0:0:0:0:
203,166,166702,1,8,0:0:0:0:
203,166,166995,1,8,0:0:0:0:
203,166,167287,1,8,0:0:0:0:
203,173,167580,1,0,0:0:0:0:
203,173,168165,1,8,0:0:0:0:
240,205,168751,1,0,0:0:0:0:
240,205,169336,1,8,0:0:0:0:
240,205,169629,1,8,0:0:0:0:
240,205,169922,1,0,0:0:0:0:
241,211,170507,1,8,0:0:0:0:
241,211,171092,1,0,0:0:0:0:
242,217,172263,1,0,0:0:0:0:
242,217,172556,1,8,0:0:0:0:
242,217,172848,1,8,0:0:0:0:
242,217,173434,1,0,0:0:0:0:
242,217,174019,1,8,0:0:0:0:
242,217,174605,1,0,0:0:0:0:
240,226,174897,1,8,0:0:0:0:
240,226,175190,1,0,0:0:0:0:
240,226,175775,1,8,0:0:0:0:
240,226,176361,1,8,0:0:0:0:
240,226,176946,1,0,0:0:0:0:
240,205,178117,1,0,0:0:0:0:
240,205,178702,1,8,0:0:0:0:
240,205,178995,1,8,0:0:0:0:
240,205,179287,1,0,0:0:0:0:
241,211,179873,1,8,0:0:0:0:
241,211,180458,1,0,0:0:0:0:
242,217,181629,1,0,0:0:0:0:
242,217,181922,1,8,0:0:0:0:
242,217,182214,1,8,0:0:0:0:
242,217,182800,1,0,0:0:0:0:
242,217,183385,1,8,0:0:0:0:
242,217,183970,1,0,0:0:0:0:
240,226,184263,1,8,0:0:0:0:
240,226,184556,1,0,0:0:0:0:
240,226,185141,1,8,0:0:0:0:
240,226,185726,1,8,0:0:0:0:
240,226,186312,1,8,0:0:0:0:
211,179,187483,1,4,0:0:0:0:
229,184,188068,1,0,0:0:0:0:
