osu file format v14

[General]
AudioFilename: audio.ogg
AudioLeadIn: 0
PreviewTime: 151987
Countdown: 0
SampleSet: Normal
StackLeniency: 0.7
Mode: 1
LetterboxInBreaks: 0
WidescreenStoryboard: 1

[Editor]
Bookmarks: 158,25914,26499,27084,27670,35279,35865,36450,37036,131279,140645,187475
DistanceSpacing: 1
BeatDivisor: 2
GridSize: 32
TimelineZoom: 2.899999

[Metadata]
Title:Eighty-Sixed
TitleUnicode:Eighty-Sixed
Artist:The Fallen Prodigy
ArtistUnicode:The Fallen Prodigy
Creator:skolodojko
Version:Futsuu
Source:
Tags:english metal death deathcore metalcore post-hardcore relive // regret // repeat
BeatmapID:3753880
BeatmapSetID:1829005

[Difficulty]
HPDrainRate:7
CircleSize:2
OverallDifficulty:4
ApproachRate:10
SliderMultiplier:1.4
SliderTickRate:1

[Events]
//Background and Video events
0,0,"3911443.jpg",0,60
//Break Periods
2,150011,151911
//Storyboard Layer 0 (Background)
//Storyboard Layer 1 (Fail)
//Storyboard Layer 2 (Pass)
//Storyboard Layer 3 (Foreground)
//Storyboard Layer 4 (Overlay)
//Storyboard Sound Samples

[TimingPoints]
166,292.682926829268,4,1,0,100,1,0
166,-107.52688172043,4,1,0,100,0,1
25922,-107.52688172043,4,1,0,100,0,0
28263,-107.52688172043,4,1,0,100,0,1
35287,-107.52688172043,4,1,0,100,0,0
37629,-107.52688172043,4,1,0,100,0,1
44653,-107.52688172043,4,1,0,100,0,0
46995,-107.52688172043,4,1,0,100,0,1
54019,-107.52688172043,4,1,0,100,0,0
56342,-107.52688172043,4,1,0,90,0,0
56507,-107.52688172043,4,1,0,90,0,0
56653,-107.52688172043,4,1,0,90,0,0
56800,-107.52688172043,4,1,0,90,0,0
56873,-107.52688172043,4,1,0,90,0,0
56946,-107.52688172043,4,1,0,90,0,0
57092,-107.52688172043,4,1,0,90,0,0
57239,-107.52688172043,4,1,0,90,0,0
57385,-107.52688172043,4,1,0,90,0,0
57458,-107.52688172043,4,1,0,90,0,0
57531,-107.52688172043,4,1,0,90,0,0
57678,-107.52688172043,4,1,0,90,0,0
57824,-107.52688172043,4,1,0,90,0,0
57897,-107.52688172043,4,1,0,90,0,0
57970,-107.52688172043,4,1,0,90,0,0
58044,-107.52688172043,4,1,0,90,0,0
58117,-107.52688172043,4,1,0,90,0,0
58263,-107.52688172043,4,1,0,90,0,0
58409,-107.52688172043,4,1,0,90,0,0
58556,-107.52688172043,4,1,0,90,0,0
58702,-107.52688172043,4,1,0,90,0,0
63531,-107.52688172043,4,1,0,90,0,0
65855,-107.52688172043,4,1,0,90,0,0
66001,-107.52688172043,4,1,0,90,0,0
66148,-107.52688172043,4,1,0,90,0,0
66221,-107.52688172043,4,1,0,90,0,0
66294,-107.52688172043,4,1,0,90,0,0
66440,-107.52688172043,4,1,0,90,0,0
66587,-107.52688172043,4,1,0,90,0,0
66733,-107.52688172043,4,1,0,90,0,0
66806,-107.52688172043,4,1,0,90,0,0
66879,-107.52688172043,4,1,0,90,0,0
67026,-107.52688172043,4,1,0,90,0,0
67172,-107.52688172043,4,1,0,90,0,0
67245,-107.52688172043,4,1,0,90,0,0
67318,-107.52688172043,4,1,0,90,0,0
67392,-107.52688172043,4,1,0,90,0,0
67465,-107.52688172043,4,1,0,90,0,0
67611,-107.52688172043,4,1,0,90,0,0
67757,-107.52688172043,4,1,0,90,0,0
67904,-107.52688172043,4,1,0,90,0,0
68050,-107.52688172043,4,1,0,90,0,0
72751,-107.52688172043,4,1,0,90,0,0
72824,-107.52688172043,4,1,0,90,0,0
72897,-107.52688172043,4,1,0,90,0,0
72970,-107.52688172043,4,1,0,90,0,0
73044,-107.52688172043,4,1,0,90,0,0
73117,-107.52688172043,4,1,0,90,0,0
73190,-107.52688172043,4,1,0,90,0,0
73263,-107.52688172043,4,1,0,90,0,0
73336,-107.52688172043,4,1,0,90,0,0
73409,-107.52688172043,4,1,0,90,0,0
73483,-107.52688172043,4,1,0,90,0,0
73556,-107.52688172043,4,1,0,90,0,0
73629,-107.52688172043,4,1,0,90,0,0
73702,-107.52688172043,4,1,0,90,0,0
73775,-107.52688172043,4,1,0,90,0,0
73848,-107.52688172043,4,1,0,90,0,0
73922,-107.52688172043,4,1,0,90,0,0
73995,-107.52688172043,4,1,0,90,0,0
74068,-107.52688172043,4,1,0,90,0,0
74141,-107.52688172043,4,1,0,90,0,0
74214,-107.52688172043,4,1,0,90,0,0
74287,-107.52688172043,4,1,0,90,0,0
74361,-107.52688172043,4,1,0,90,0,0
74434,-107.52688172043,4,1,0,90,0,0
74507,-107.52688172043,4,1,0,90,0,0
75019,-107.52688172043,4,1,0,80,0,0
84458,-107.52688172043,4,1,0,80,0,0
84653,-107.52688172043,4,1,0,80,0,0
84751,-107.52688172043,4,1,0,80,0,0
84848,-107.52688172043,4,1,0,80,0,0
84946,-107.52688172043,4,1,0,80,0,0
85044,-107.52688172043,4,1,0,80,0,0
85141,-107.52688172043,4,1,0,80,0,0
85239,-107.52688172043,4,1,0,80,0,0
85336,-107.52688172043,4,1,0,80,0,0
112653,-107.52688172043,4,1,0,80,0,0
152214,-107.52688172043,4,1,0,100,0,0
152361,-107.52688172043,4,1,0,100,0,1
159385,-107.52688172043,4,1,0,100,0,0
161726,-107.52688172043,4,1,0,100,0,1
168678,-107.52688172043,4,1,0,90,0,1
168751,-107.52688172043,4,1,0,90,0,0
168897,-107.52688172043,4,1,0,90,0,0
169044,-107.52688172043,4,1,0,90,0,0
169190,-107.52688172043,4,1,0,90,0,0
169263,-107.52688172043,4,1,0,90,0,0
169336,-107.52688172043,4,1,0,90,0,0
169483,-107.52688172043,4,1,0,90,0,0
169629,-107.52688172043,4,1,0,90,0,0
169775,-107.52688172043,4,1,0,90,0,0
169848,-107.52688172043,4,1,0,90,0,0
169922,-107.52688172043,4,1,0,90,0,0
170068,-107.52688172043,4,1,0,90,0,0
170214,-107.52688172043,4,1,0,90,0,0
170287,-107.52688172043,4,1,0,90,0,0
170361,-107.52688172043,4,1,0,90,0,0
170434,-107.52688172043,4,1,0,90,0,0
170507,-107.52688172043,4,1,0,90,0,0
170653,-107.52688172043,4,1,0,90,0,0
170800,-107.52688172043,4,1,0,90,0,0
170946,-107.52688172043,4,1,0,90,0,0
171092,-107.52688172043,4,1,0,90,0,0
175912,-107.52688172043,4,1,0,90,0,0
178263,-107.52688172043,4,1,0,90,0,0
178409,-107.52688172043,4,1,0,90,0,0
178556,-107.52688172043,4,1,0,90,0,0
178629,-107.52688172043,4,1,0,90,0,0
178702,-107.52688172043,4,1,0,90,0,0
178848,-107.52688172043,4,1,0,90,0,0
178995,-107.52688172043,4,1,0,90,0,0
179141,-107.52688172043,4,1,0,90,0,0
179214,-107.52688172043,4,1,0,90,0,0
179287,-107.52688172043,4,1,0,90,0,0
179434,-107.52688172043,4,1,0,90,0,0
179580,-107.52688172043,4,1,0,90,0,0
179653,-107.52688172043,4,1,0,90,0,0
179726,-107.52688172043,4,1,0,90,0,0
179800,-107.52688172043,4,1,0,90,0,0
179873,-107.52688172043,4,1,0,90,0,0
180019,-107.52688172043,4,1,0,90,0,0
180165,-107.52688172043,4,1,0,90,0,0
180312,-107.52688172043,4,1,0,90,0,0
180458,-107.52688172043,4,1,0,90,0,0
185141,-107.52688172043,4,1,0,90,0,0
187775,-107.52688172043,4,1,0,80,0,0

[HitObjects]
235,118,166,5,4,0:0:0:0:
192,227,458,1,8,0:0:0:0:
192,227,605,1,8,0:0:0:0:
192,227,751,1,0,0:0:0:0:
192,227,897,1,0,0:0:0:0:
192,227,1044,1,8,0:0:0:0:
192,227,1336,1,0,0:0:0:0:
192,227,1629,1,8,0:0:0:0:
192,227,1775,1,0,0:0:0:0:
192,227,1922,1,8,0:0:0:0:
192,227,2214,1,8,0:0:0:0:
192,227,2507,1,0,0:0:0:0:
192,227,2800,1,0,0:0:0:0:
192,227,2946,1,0,0:0:0:0:
192,227,3092,1,8,0:0:0:0:
192,227,3239,1,8,0:0:0:0:
192,227,3385,1,0,0:0:0:0:
192,227,3678,1,8,0:0:0:0:
192,227,3970,1,0,0:0:0:0:
192,227,4263,1,8,0:0:0:0:
192,227,4848,1,0,0:0:0:0:
192,227,5141,1,8,0:0:0:0:
192,227,5434,1,0,0:0:0:0:
192,227,5580,1,0,0:0:0:0:
192,227,5726,1,8,0:0:0:0:
192,227,5873,1,0,0:0:0:0:
192,227,6019,1,8,0:0:0:0:
192,227,6312,1,8,0:0:0:0:
192,227,6458,1,8,0:0:0:0:
192,227,6605,1,0,0:0:0:0:
192,227,6897,1,8,0:0:0:0:
199,226,7190,1,0,0:0:0:0:
224,184,7483,1,0,0:0:0:0:
224,184,7629,1,8,0:0:0:0:
224,184,7775,1,0,0:0:0:0:
224,184,7922,1,0,0:0:0:0:
224,184,8068,1,8,0:0:0:0:
224,184,8361,1,0,0:0:0:0:
224,184,8653,1,8,0:0:0:0:
224,184,8800,1,8,0:0:0:0:
224,184,8946,1,0,0:0:0:0:
224,184,9531,1,0,0:0:0:0:
224,184,9824,1,8,0:0:0:0:
224,184,9970,1,8,0:0:0:0:
224,184,10117,1,0,0:0:0:0:
224,184,10409,1,8,0:0:0:0:
224,184,10702,1,0,0:0:0:0:
224,184,10995,1,0,0:0:0:0:
224,184,11141,1,8,0:0:0:0:
224,184,11287,1,0,0:0:0:0:
224,184,11434,1,0,0:0:0:0:
224,184,11580,1,8,0:0:0:0:
224,184,11873,1,0,0:0:0:0:
252,167,12165,1,8,0:0:0:0:
252,167,12312,1,8,0:0:0:0:
252,167,12458,1,0,0:0:0:0:
251,169,12751,1,8,0:0:0:0:
252,167,13044,1,0,0:0:0:0:
252,167,13190,1,0,0:0:0:0:
252,167,13336,1,0,0:0:0:0:
252,167,13483,1,0,0:0:0:0:
251,169,13629,1,8,0:0:0:0:
252,167,14214,1,0,0:0:0:0:
252,167,14361,1,8,0:0:0:0:
252,167,14507,1,0,0:0:0:0:
251,169,14653,1,0,0:0:0:0:
252,167,14800,1,8,0:0:0:0:
252,167,15092,1,0,0:0:0:0:
252,167,15385,1,8,0:0:0:0:
251,169,15678,1,8,0:0:0:0:
250,174,15824,1,8,0:0:0:0:
250,174,15970,1,0,0:0:0:0:
250,174,16263,1,8,0:0:0:0:
251,169,16556,1,0,0:0:0:0:
250,174,16848,1,8,0:0:0:0:
250,174,16995,1,0,0:0:0:0:
250,174,17141,1,8,0:0:0:0:
250,174,17287,1,8,0:0:0:0:
251,169,17434,1,0,0:0:0:0:
250,174,17726,1,8,0:0:0:0:
250,174,17873,1,8,0:0:0:0:
250,174,18019,1,0,0:0:0:0:
250,174,18165,1,0,0:0:0:0:
250,174,18312,1,8,0:0:0:0:
250,174,18897,1,0,0:0:0:0:
216,186,19190,1,8,0:0:0:0:
216,186,19336,1,8,0:0:0:0:
216,186,19483,1,0,0:0:0:0:
216,186,19629,1,8,0:0:0:0:
216,185,19922,1,8,0:0:0:0:
216,186,20068,1,0,0:0:0:0:
216,186,20361,1,8,0:0:0:0:
216,186,20653,1,0,0:0:0:0:
216,185,20800,1,8,0:0:0:0:
216,185,20946,1,0,0:0:0:0:
216,186,21239,1,0,0:0:0:0:
216,186,21531,1,8,0:0:0:0:
216,186,21678,1,8,0:0:0:0:
216,185,21824,1,0,0:0:0:0:
216,185,21970,1,8,0:0:0:0:
216,186,22263,1,0,0:0:0:0:
216,186,22409,1,8,0:0:0:0:
216,186,22702,1,8,0:0:0:0:
216,185,22995,1,0,0:0:0:0:
216,186,23580,1,0,0:0:0:0:
216,185,23873,1,8,0:0:0:0:
216,185,24019,1,0,0:0:0:0:
216,186,24165,1,0,0:0:0:0:
216,186,24312,1,8,0:0:0:0:
216,186,24605,1,0,0:0:0:0:
216,185,24751,1,8,0:0:0:0:
216,185,25044,1,8,0:0:0:0:
216,186,25336,1,0,0:0:0:0:
216,186,25483,1,0,0:0:0:0:
216,186,25629,1,8,0:0:0:0:
216,185,25922,1,4,0:0:0:0:
216,186,26507,1,12,0:0:0:0:
216,186,27092,1,4,0:0:0:0:
216,186,27678,1,12,0:0:0:0:
216,186,28263,1,0,0:0:0:0:
212,153,28556,1,8,0:0:0:0:
187,181,28702,1,0,0:0:0:0:
188,181,28848,1,0,0:0:0:0:
188,181,28995,1,8,0:0:0:0:
189,181,29287,1,8,0:0:0:0:
189,181,29434,1,0,0:0:0:0:
187,181,29726,1,8,0:0:0:0:
188,181,30019,1,0,0:0:0:0:
189,181,30165,1,0,0:0:0:0:
189,181,30312,1,8,0:0:0:0:
194,181,30605,1,0,0:0:0:0:
188,181,30897,1,8,0:0:0:0:
188,181,31044,1,8,0:0:0:0:
189,181,31190,1,8,0:0:0:0:
189,181,31336,1,0,0:0:0:0:
194,181,31629,1,0,0:0:0:0:
195,181,31775,1,8,0:0:0:0:
195,181,32068,1,0,0:0:0:0:
189,181,32361,1,8,0:0:0:0:
195,181,32946,1,0,0:0:0:0:
189,181,33239,1,8,0:0:0:0:
189,181,33385,1,0,0:0:0:0:
195,181,33531,1,0,0:0:0:0:
195,181,33678,1,8,0:0:0:0:
195,181,33970,1,0,0:0:0:0:
189,181,34117,1,8,0:0:0:0:
189,181,34409,1,8,0:0:0:0:
195,181,34702,1,0,0:0:0:0:
195,181,34848,1,8,0:0:0:0:
195,181,34995,1,0,0:0:0:0:
196,181,35287,1,4,0:0:0:0:
195,181,35873,1,12,0:0:0:0:
195,181,36458,1,4,0:0:0:0:
195,181,37044,1,12,0:0:0:0:
195,181,37629,5,0,0:0:0:0:
195,181,37775,1,0,0:0:0:0:
195,181,37922,1,8,0:0:0:0:
195,181,38068,1,8,0:0:0:0:
195,181,38214,1,0,0:0:0:0:
195,181,38507,1,8,0:0:0:0:
195,181,38653,1,0,0:0:0:0:
195,181,38800,1,8,0:0:0:0:
195,181,39092,1,0,0:0:0:0:
195,181,39385,1,8,0:0:0:0:
195,181,39531,1,8,0:0:0:0:
195,181,39678,1,8,0:0:0:0:
195,181,39824,1,8,0:0:0:0:
195,181,39970,1,0,0:0:0:0:
195,181,40263,1,8,0:0:0:0:
195,181,40556,1,0,0:0:0:0:
195,181,40848,1,0,0:0:0:0:
195,181,40995,1,8,0:0:0:0:
195,181,41141,1,0,0:0:0:0:
195,181,41287,1,0,0:0:0:0:
195,181,41434,1,8,0:0:0:0:
195,181,41726,1,0,0:0:0:0:
208,202,42312,1,8,0:0:0:0:
208,201,42605,1,8,0:0:0:0:
208,201,42751,1,0,0:0:0:0:
208,202,42897,1,8,0:0:0:0:
208,202,43044,1,8,0:0:0:0:
208,202,43190,1,0,0:0:0:0:
208,201,43483,1,0,0:0:0:0:
208,201,43629,1,0,0:0:0:0:
208,201,43775,1,8,0:0:0:0:
208,202,44068,1,0,0:0:0:0:
208,201,44361,1,8,0:0:0:0:
208,201,44653,1,0,0:0:0:0:
208,202,44946,1,0,0:0:0:0:
208,202,45092,1,8,0:0:0:0:
182,188,45385,1,8,0:0:0:0:
182,188,45678,1,8,0:0:0:0:
182,188,45824,1,0,0:0:0:0:
224,160,46117,1,0,0:0:0:0:
224,160,46263,1,8,0:0:0:0:
224,160,46556,1,8,0:0:0:0:
224,160,46848,1,8,0:0:0:0:
224,160,46995,1,0,0:0:0:0:
198,174,47580,1,8,0:0:0:0:
199,174,47873,1,0,0:0:0:0:
199,174,48019,1,0,0:0:0:0:
198,174,48165,1,8,0:0:0:0:
198,174,48458,1,0,0:0:0:0:
199,174,48751,1,8,0:0:0:0:
199,174,48897,1,8,0:0:0:0:
199,174,49044,1,0,0:0:0:0:
198,174,49190,1,0,0:0:0:0:
198,174,49336,1,8,0:0:0:0:
199,174,49629,1,0,0:0:0:0:
199,174,49922,1,0,0:0:0:0:
199,174,50068,1,8,0:0:0:0:
198,174,50214,1,0,0:0:0:0:
198,174,50361,1,0,0:0:0:0:
199,174,50507,1,8,0:0:0:0:
199,174,50800,1,0,0:0:0:0:
199,174,51092,1,8,0:0:0:0:
199,174,51678,1,8,0:0:0:0:
199,174,51970,1,0,0:0:0:0:
199,174,52117,1,8,0:0:0:0:
199,174,52263,1,0,0:0:0:0:
199,174,52556,1,8,0:0:0:0:
199,174,52848,1,0,0:0:0:0:
199,174,52995,1,0,0:0:0:0:
199,174,53141,1,8,0:0:0:0:
199,174,53287,1,8,0:0:0:0:
199,174,53434,1,0,0:0:0:0:
199,174,53726,1,8,0:0:0:0:
199,174,54019,1,0,0:0:0:0:
190,171,54312,1,8,0:0:0:0:
190,172,54458,1,0,0:0:0:0:
190,171,54751,1,0,0:0:0:0:
191,173,55044,1,0,0:0:0:0:
190,171,55190,1,8,0:0:0:0:
190,172,55483,1,8,0:0:0:0:
190,171,55629,1,0,0:0:0:0:
191,173,55922,1,0,0:0:0:0:
190,171,56214,1,0,0:0:0:0:
190,172,56361,1,8,0:0:0:0:
194,179,56653,1,0,0:0:0:0:
191,173,56800,1,8,0:0:0:0:
213,182,56946,1,0,0:0:0:0:
213,182,57239,1,8,0:0:0:0:
214,182,57531,1,0,0:0:0:0:
214,182,57824,1,8,0:0:0:0:
213,182,57970,1,8,0:0:0:0:
213,182,58117,1,0,0:0:0:0:
214,182,58702,1,0,0:0:0:0:
213,182,58995,1,0,0:0:0:0:
213,182,59141,1,8,0:0:0:0:
214,182,59434,1,0,0:0:0:0:
214,182,59726,1,8,0:0:0:0:
213,182,59873,1,0,0:0:0:0:
213,182,60165,1,0,0:0:0:0:
214,182,60458,1,8,0:0:0:0:
214,182,60605,1,8,0:0:0:0:
214,182,60751,1,0,0:0:0:0:
213,182,61044,1,0,0:0:0:0:
214,182,61336,1,0,0:0:0:0:
214,182,61483,1,8,0:0:0:0:
214,182,61629,1,0,0:0:0:0:
213,182,61922,1,8,0:0:0:0:
214,182,62214,1,0,0:0:0:0:
214,182,62507,1,8,0:0:0:0:
214,182,62653,1,8,0:0:0:0:
213,182,62800,1,0,0:0:0:0:
214,182,63385,1,8,0:0:0:0:
214,182,63531,1,8,0:0:0:0:
214,182,63678,1,8,0:0:0:0:
213,182,63824,1,8,0:0:0:0:
214,182,63970,1,0,0:0:0:0:
214,182,64263,1,8,0:0:0:0:
214,182,64556,1,0,0:0:0:0:
214,182,64702,1,0,0:0:0:0:
213,182,64848,1,8,0:0:0:0:
214,182,64995,1,8,0:0:0:0:
214,182,65141,1,0,0:0:0:0:
214,182,65434,1,8,0:0:0:0:
214,182,65726,1,0,0:0:0:0:
214,182,66019,1,0,0:0:0:0:
214,182,66165,1,8,0:0:0:0:
214,182,66312,1,0,0:0:0:0:
214,182,66605,1,8,0:0:0:0:
214,182,66897,1,0,0:0:0:0:
214,182,67190,1,8,0:0:0:0:
214,182,67336,1,8,0:0:0:0:
214,182,67483,1,0,0:0:0:0:
214,182,68068,1,0,0:0:0:0:
214,182,68361,1,0,0:0:0:0:
222,74,68507,1,8,0:0:0:0:
214,182,68800,1,8,0:0:0:0:
168,189,69092,1,8,0:0:0:0:
168,189,69239,1,0,0:0:0:0:
168,189,69531,1,8,0:0:0:0:
168,189,69824,1,0,0:0:0:0:
168,189,69970,1,0,0:0:0:0:
168,189,70117,1,8,0:0:0:0:
168,189,70409,1,0,0:0:0:0:
168,189,70702,1,8,0:0:0:0:
168,189,70848,1,8,0:0:0:0:
168,189,70995,1,0,0:0:0:0:
168,189,71287,1,8,0:0:0:0:
168,189,71580,1,0,0:0:0:0:
168,189,71873,1,0,0:0:0:0:
168,189,72019,1,8,0:0:0:0:
168,189,72165,1,0,0:0:0:0:
168,189,72751,1,0,0:0:0:0:
168,189,72897,1,0,0:0:0:0:
168,189,73044,1,0,0:0:0:0:
168,189,73190,1,0,0:0:0:0:
168,189,73336,1,8,0:0:0:0:
168,189,73629,1,0,0:0:0:0:
168,189,73922,1,8,0:0:0:0:
168,189,74068,1,8,0:0:0:0:
168,189,74214,1,8,0:0:0:0:
168,189,74361,1,8,0:0:0:0:
168,189,74507,1,0,0:0:0:0:
168,189,75092,1,12,0:0:0:0:
229,186,75678,1,8,0:0:0:0:
344,163,75873,1,0,0:0:0:0:
229,189,75970,1,0,0:0:0:0:
249,243,76556,1,0,0:0:0:0:
249,243,76848,1,8,0:0:0:0:
336,203,77044,1,0,0:0:0:0:
336,203,77141,1,0,0:0:0:0:
286,190,77434,1,8,0:0:0:0:
286,190,78019,1,8,0:0:0:0:
332,194,78214,1,0,0:0:0:0:
332,194,78312,1,0,0:0:0:0:
257,215,78605,1,8,0:0:0:0:
257,215,79190,1,8,0:0:0:0:
168,189,79775,1,8,0:0:0:0:
229,186,80361,1,8,0:0:0:0:
344,163,80556,1,0,0:0:0:0:
229,189,80653,1,0,0:0:0:0:
249,243,81239,1,0,0:0:0:0:
249,243,81531,1,8,0:0:0:0:
336,203,81726,1,0,0:0:0:0:
336,203,81824,1,0,0:0:0:0:
286,190,82117,1,8,0:0:0:0:
286,190,82702,1,8,0:0:0:0:
332,194,82897,1,0,0:0:0:0:
332,194,82995,1,0,0:0:0:0:
257,215,83287,1,8,0:0:0:0:
257,215,83873,1,8,0:0:0:0:
229,186,85044,1,8,0:0:0:0:
249,243,85922,1,0,0:0:0:0:
249,243,86214,1,8,0:0:0:0:
336,203,86409,1,0,0:0:0:0:
336,203,86507,1,0,0:0:0:0:
286,190,86800,1,8,0:0:0:0:
286,190,87385,1,8,0:0:0:0:
332,194,87580,1,0,0:0:0:0:
332,194,87678,1,0,0:0:0:0:
257,215,87970,1,8,0:0:0:0:
257,215,88556,1,8,0:0:0:0:
168,189,89141,1,8,0:0:0:0:
229,186,89726,1,8,0:0:0:0:
344,163,89922,1,0,0:0:0:0:
229,189,90019,1,0,0:0:0:0:
249,243,90605,1,0,0:0:0:0:
249,243,90897,1,8,0:0:0:0:
336,203,91092,1,0,0:0:0:0:
336,203,91190,1,0,0:0:0:0:
286,190,91483,1,8,0:0:0:0:
286,190,92068,1,8,0:0:0:0:
332,194,92263,1,0,0:0:0:0:
332,194,92361,1,0,0:0:0:0:
257,215,92653,1,8,0:0:0:0:
257,215,93239,1,8,0:0:0:0:
168,189,93824,1,8,0:0:0:0:
229,186,94409,1,8,0:0:0:0:
344,163,94605,1,0,0:0:0:0:
229,189,94702,1,0,0:0:0:0:
249,243,95287,1,0,0:0:0:0:
249,243,95580,1,8,0:0:0:0:
336,203,95775,1,0,0:0:0:0:
336,203,95873,1,0,0:0:0:0:
286,190,96165,1,8,0:0:0:0:
286,190,96751,1,8,0:0:0:0:
332,194,96946,1,0,0:0:0:0:
332,194,97044,1,0,0:0:0:0:
257,215,97336,1,8,0:0:0:0:
257,215,97922,1,8,0:0:0:0:
168,189,98507,1,8,0:0:0:0:
229,186,99092,1,8,0:0:0:0:
344,163,99287,1,0,0:0:0:0:
229,189,99385,1,0,0:0:0:0:
249,243,99970,1,0,0:0:0:0:
249,243,100263,1,8,0:0:0:0:
336,203,100458,1,0,0:0:0:0:
336,203,100556,1,0,0:0:0:0:
286,190,100848,1,8,0:0:0:0:
286,190,101434,1,8,0:0:0:0:
332,194,101629,1,0,0:0:0:0:
332,194,101726,1,0,0:0:0:0:
257,215,102019,1,8,0:0:0:0:
257,215,102605,1,8,0:0:0:0:
168,189,103190,1,8,0:0:0:0:
229,186,103775,1,8,0:0:0:0:
344,163,103970,1,0,0:0:0:0:
229,189,104068,1,0,0:0:0:0:
249,243,104653,1,0,0:0:0:0:
249,243,104946,1,8,0:0:0:0:
336,203,105141,1,0,0:0:0:0:
336,203,105239,1,0,0:0:0:0:
286,190,105531,1,8,0:0:0:0:
286,190,106117,1,8,0:0:0:0:
332,194,106312,1,0,0:0:0:0:
332,194,106409,1,0,0:0:0:0:
257,215,106702,1,8,0:0:0:0:
257,215,107287,1,8,0:0:0:0:
168,189,107873,1,8,0:0:0:0:
229,186,108458,1,8,0:0:0:0:
344,163,108653,1,0,0:0:0:0:
229,189,108751,1,0,0:0:0:0:
249,243,109336,1,0,0:0:0:0:
249,243,109629,1,8,0:0:0:0:
336,203,109824,1,0,0:0:0:0:
336,203,109922,1,0,0:0:0:0:
286,190,110214,1,8,0:0:0:0:
286,190,110800,1,8,0:0:0:0:
332,194,110995,1,0,0:0:0:0:
332,194,111092,1,0,0:0:0:0:
257,215,111385,1,8,0:0:0:0:
257,215,111970,1,8,0:0:0:0:
195,207,112556,1,4,0:0:0:0:
282,212,112995,1,0,0:0:0:0:
282,212,113141,1,8,0:0:0:0:
224,218,113287,1,8,0:0:0:0:
282,212,113434,1,0,0:0:0:0:
224,218,113726,1,8,0:0:0:0:
234,219,113873,1,0,0:0:0:0:
224,218,114019,1,8,0:0:0:0:
179,249,114312,1,0,0:0:0:0:
179,249,114605,1,8,0:0:0:0:
179,249,114751,1,8,0:0:0:0:
179,249,114897,1,0,0:0:0:0:
179,249,115483,1,8,0:0:0:0:
179,249,115775,1,8,0:0:0:0:
185,250,116214,1,0,0:0:0:0:
185,250,116361,1,8,0:0:0:0:
185,250,116653,1,0,0:0:0:0:
185,250,116946,1,8,0:0:0:0:
185,250,117239,1,0,0:0:0:0:
248,233,117824,1,8,0:0:0:0:
225,235,118117,1,0,0:0:0:0:
229,235,118409,1,8,0:0:0:0:
229,235,118556,1,8,0:0:0:0:
229,235,118702,1,0,0:0:0:0:
225,235,118995,1,8,0:0:0:0:
229,235,119287,1,0,0:0:0:0:
229,235,119434,1,8,0:0:0:0:
232,238,119580,1,0,0:0:0:0:
229,235,120165,1,0,0:0:0:0:
232,238,120312,1,0,0:0:0:0:
229,235,120458,1,8,0:0:0:0:
229,235,120751,1,0,0:0:0:0:
232,238,121044,1,8,0:0:0:0:
229,235,121190,1,8,0:0:0:0:
229,235,121336,1,0,0:0:0:0:
229,235,121922,1,8,0:0:0:0:
228,191,122361,1,0,0:0:0:0:
228,191,122507,1,8,0:0:0:0:
228,191,122800,1,0,0:0:0:0:
194,224,123092,1,8,0:0:0:0:
194,224,123239,1,0,0:0:0:0:
194,224,123385,1,8,0:0:0:0:
194,224,123678,1,0,0:0:0:0:
194,224,123970,1,8,0:0:0:0:
192,231,124263,1,0,0:0:0:0:
192,231,124848,1,8,0:0:0:0:
191,233,125141,1,8,0:0:0:0:
191,233,125434,1,0,0:0:0:0:
192,231,125580,1,0,0:0:0:0:
192,231,125726,1,8,0:0:0:0:
191,233,125873,1,0,0:0:0:0:
191,233,126019,1,8,0:0:0:0:
191,233,126312,1,8,0:0:0:0:
192,231,126458,1,8,0:0:0:0:
192,231,126605,1,0,0:0:0:0:
238,174,127190,1,0,0:0:0:0:
221,188,127483,1,0,0:0:0:0:
221,188,127629,1,8,0:0:0:0:
221,188,127775,1,0,0:0:0:0:
221,188,128068,1,8,0:0:0:0:
221,188,128361,1,0,0:0:0:0:
221,188,128507,1,0,0:0:0:0:
221,188,128653,1,8,0:0:0:0:
221,188,128946,1,0,0:0:0:0:
221,188,129531,1,0,0:0:0:0:
221,188,129824,1,8,0:0:0:0:
221,188,130117,1,0,0:0:0:0:
221,188,130409,1,0,0:0:0:0:
221,188,130556,1,8,0:0:0:0:
221,188,130702,1,0,0:0:0:0:
221,188,130995,1,8,0:0:0:0:
221,188,131287,1,4,0:0:0:0:
221,188,131873,5,8,0:0:0:0:
221,188,132165,1,0,0:0:0:0:
221,188,132458,1,8,0:0:0:0:
211,223,132751,1,8,0:0:0:0:
361,206,132897,1,8,0:0:0:0:
211,223,133044,1,0,0:0:0:0:
211,223,133336,1,8,0:0:0:0:
211,223,133629,1,0,0:0:0:0:
211,223,134214,1,8,0:0:0:0:
211,223,134507,1,0,0:0:0:0:
165,187,134800,1,8,0:0:0:0:
165,187,135092,1,0,0:0:0:0:
165,187,135239,1,0,0:0:0:0:
165,187,135385,1,8,0:0:0:0:
165,187,135678,1,0,0:0:0:0:
165,187,135970,1,8,0:0:0:0:
165,187,136556,1,8,0:0:0:0:
165,187,136848,1,0,0:0:0:0:
165,187,137141,1,8,0:0:0:0:
165,187,137287,1,8,0:0:0:0:
165,187,137434,1,0,0:0:0:0:
165,187,137726,1,8,0:0:0:0:
165,187,138019,1,0,0:0:0:0:
165,187,138165,1,8,0:0:0:0:
165,187,138312,1,0,0:0:0:0:
165,187,138897,1,0,0:0:0:0:
165,187,139190,1,8,0:0:0:0:
165,187,139483,1,0,0:0:0:0:
165,187,139775,1,8,0:0:0:0:
165,187,139922,1,8,0:0:0:0:
165,187,140068,1,0,0:0:0:0:
165,187,140653,1,4,0:0:0:0:
219,192,141239,1,8,0:0:0:0:
219,192,141531,1,0,0:0:0:0:
219,192,141824,1,8,0:0:0:0:
219,192,141970,1,0,0:0:0:0:
219,192,142117,1,8,0:0:0:0:
219,192,142409,1,0,0:0:0:0:
219,192,142702,1,8,0:0:0:0:
219,192,142995,1,0,0:0:0:0:
219,192,143434,1,0,0:0:0:0:
219,192,143580,1,8,0:0:0:0:
219,192,143873,1,0,0:0:0:0:
219,192,144458,1,8,0:0:0:0:
219,192,144605,1,8,0:0:0:0:
219,192,144751,1,0,0:0:0:0:
219,192,145044,1,8,0:0:0:0:
219,192,145336,1,0,0:0:0:0:
219,192,145922,1,8,0:0:0:0:
219,192,146214,1,0,0:0:0:0:
219,192,146507,1,8,0:0:0:0:
219,192,146653,1,8,0:0:0:0:
219,192,146800,1,0,0:0:0:0:
219,192,147092,1,8,0:0:0:0:
219,192,147385,1,0,0:0:0:0:
219,192,147531,1,8,0:0:0:0:
219,192,147678,1,0,0:0:0:0:
219,192,148263,1,0,0:0:0:0:
219,192,148409,1,0,0:0:0:0:
219,192,148556,1,8,0:0:0:0:
219,192,148848,1,0,0:0:0:0:
219,192,149141,1,8,0:0:0:0:
219,192,149287,1,8,0:0:0:0:
219,192,149434,1,0,0:0:0:0:
219,192,149580,1,0,0:0:0:0:
219,192,149726,1,8,0:0:0:0:
206,163,152361,5,0,0:0:0:0:
206,203,152507,1,0,0:0:0:0:
206,203,152653,1,8,0:0:0:0:
206,203,152800,1,0,0:0:0:0:
206,203,152946,1,8,0:0:0:0:
206,203,153239,1,0,0:0:0:0:
206,203,153531,1,8,0:0:0:0:
206,203,153678,1,8,0:0:0:0:
206,203,153824,1,0,0:0:0:0:
206,203,153970,1,0,0:0:0:0:
206,203,154117,1,8,0:0:0:0:
200,181,154409,1,0,0:0:0:0:
200,181,154556,1,8,0:0:0:0:
200,182,154702,1,0,0:0:0:0:
200,182,154995,1,8,0:0:0:0:
200,181,155287,1,0,0:0:0:0:
200,181,155580,1,8,0:0:0:0:
200,182,155726,1,8,0:0:0:0:
200,182,155873,1,0,0:0:0:0:
200,182,156019,1,0,0:0:0:0:
200,181,156165,1,0,0:0:0:0:
200,181,156458,1,8,0:0:0:0:
200,182,157044,1,0,0:0:0:0:
200,181,157190,1,8,0:0:0:0:
200,181,157336,1,0,0:0:0:0:
200,181,157483,1,8,0:0:0:0:
200,182,157629,1,0,0:0:0:0:
200,182,157922,1,8,0:0:0:0:
200,181,158214,1,0,0:0:0:0:
199,188,158361,1,0,0:0:0:0:
199,188,158507,1,8,0:0:0:0:
199,188,158653,1,8,0:0:0:0:
199,188,158800,1,0,0:0:0:0:
199,188,159092,1,8,0:0:0:0:
199,188,159385,1,0,0:0:0:0:
199,188,159678,1,8,0:0:0:0:
215,178,159824,1,8,0:0:0:0:
199,188,159970,1,0,0:0:0:0:
215,179,160263,1,8,0:0:0:0:
215,179,160556,1,0,0:0:0:0:
215,181,160702,1,8,0:0:0:0:
215,178,160848,1,0,0:0:0:0:
215,182,160995,1,0,0:0:0:0:
215,179,161141,1,8,0:0:0:0:
227,177,161726,1,8,0:0:0:0:
227,177,162019,1,8,0:0:0:0:
227,177,162165,1,8,0:0:0:0:
227,177,162312,1,0,0:0:0:0:
227,177,162605,1,8,0:0:0:0:
227,177,162751,1,8,0:0:0:0:
227,177,162897,1,0,0:0:0:0:
227,177,163044,1,0,0:0:0:0:
227,177,163190,1,8,0:0:0:0:
227,177,163483,1,0,0:0:0:0:
227,177,163775,1,8,0:0:0:0:
227,177,163922,1,0,0:0:0:0:
227,177,164068,1,8,0:0:0:0:
227,177,164361,1,0,0:0:0:0:
227,177,164653,1,8,0:0:0:0:
227,177,164946,1,0,0:0:0:0:
227,177,165092,1,0,0:0:0:0:
227,177,165239,1,8,0:0:0:0:
227,177,165385,1,8,0:0:0:0:
227,177,165531,1,0,0:0:0:0:
227,177,165824,1,8,0:0:0:0:
225,184,166409,1,0,0:0:0:0:
225,184,166556,1,8,0:0:0:0:
225,184,166702,1,0,0:0:0:0:
226,185,166848,1,8,0:0:0:0:
225,184,166995,1,0,0:0:0:0:
225,184,167287,1,8,0:0:0:0:
225,184,167580,1,0,0:0:0:0:
225,184,167726,1,0,0:0:0:0:
226,185,167873,1,8,0:0:0:0:
225,184,168019,1,8,0:0:0:0:
225,184,168165,1,0,0:0:0:0:
225,184,168458,1,8,0:0:0:0:
190,172,168751,1,0,0:0:0:0:
194,179,169044,1,0,0:0:0:0:
191,173,169190,1,8,0:0:0:0:
213,182,169336,1,0,0:0:0:0:
213,182,169629,1,8,0:0:0:0:
214,182,169922,1,0,0:0:0:0:
214,182,170214,1,8,0:0:0:0:
213,182,170361,1,8,0:0:0:0:
213,182,170507,1,0,0:0:0:0:
214,182,171092,1,8,0:0:0:0:
213,182,171385,1,0,0:0:0:0:
213,182,171531,1,8,0:0:0:0:
214,182,171824,1,8,0:0:0:0:
214,182,172117,1,8,0:0:0:0:
213,182,172263,1,0,0:0:0:0:
213,182,172556,1,8,0:0:0:0:
214,182,172848,1,0,0:0:0:0:
214,182,172995,1,0,0:0:0:0:
214,182,173141,1,8,0:0:0:0:
213,182,173434,1,0,0:0:0:0:
214,182,173726,1,8,0:0:0:0:
214,182,173873,1,0,0:0:0:0:
214,182,174019,1,8,0:0:0:0:
213,182,174312,1,0,0:0:0:0:
214,182,174605,1,8,0:0:0:0:
214,182,174897,1,0,0:0:0:0:
214,182,175044,1,0,0:0:0:0:
213,182,175190,1,8,0:0:0:0:
214,182,175775,1,0,0:0:0:0:
214,182,175922,1,0,0:0:0:0:
214,182,176068,1,8,0:0:0:0:
213,182,176214,1,8,0:0:0:0:
214,182,176361,1,0,0:0:0:0:
214,182,176653,1,8,0:0:0:0:
214,182,176946,1,0,0:0:0:0:
214,182,177092,1,0,0:0:0:0:
213,182,177239,1,8,0:0:0:0:
214,182,177385,1,0,0:0:0:0:
214,182,177531,1,8,0:0:0:0:
214,182,177824,1,0,0:0:0:0:
214,182,178117,1,8,0:0:0:0:
214,182,178409,1,0,0:0:0:0:
214,182,178556,1,8,0:0:0:0:
214,182,178702,1,0,0:0:0:0:
214,182,178995,1,8,0:0:0:0:
214,182,179287,1,0,0:0:0:0:
214,182,179580,1,8,0:0:0:0:
214,182,179726,1,8,0:0:0:0:
214,182,179873,1,0,0:0:0:0:
214,182,180458,1,8,0:0:0:0:
214,182,180751,1,0,0:0:0:0:
222,74,180897,1,8,0:0:0:0:
214,182,181190,1,8,0:0:0:0:
168,189,181483,1,8,0:0:0:0:
168,189,181629,1,0,0:0:0:0:
168,189,181922,1,8,0:0:0:0:
168,189,182214,1,0,0:0:0:0:
168,189,182361,1,0,0:0:0:0:
168,189,182507,1,8,0:0:0:0:
168,189,182800,1,0,0:0:0:0:
168,189,183092,1,8,0:0:0:0:
168,189,183239,1,0,0:0:0:0:
168,189,183385,1,8,0:0:0:0:
168,189,183678,1,0,0:0:0:0:
168,189,183970,1,8,0:0:0:0:
168,189,184263,1,0,0:0:0:0:
168,189,184409,1,0,0:0:0:0:
168,189,184556,1,8,0:0:0:0:
168,189,185141,1,0,0:0:0:0:
168,189,185287,1,8,0:0:0:0:
168,189,185434,1,0,0:0:0:0:
168,189,185580,1,8,0:0:0:0:
168,189,185726,1,0,0:0:0:0:
168,189,186019,1,8,0:0:0:0:
168,189,186312,1,0,0:0:0:0:
168,189,186458,1,0,0:0:0:0:
168,189,186605,1,8,0:0:0:0:
168,189,186751,1,8,0:0:0:0:
168,189,186897,1,0,0:0:0:0:
246,171,187190,1,8,0:0:0:0:
280,181,187483,1,4,0:0:0:0:
235,182,188068,1,0,0:0:0:0:
