osu file format v14

[General]
AudioFilename: audio.mp3
AudioLeadIn: 0
PreviewTime: 10057
Countdown: 0
SampleSet: Normal
StackLeniency: 0.3
Mode: 1
LetterboxInBreaks: 0
WidescreenStoryboard: 0

[Editor]
Bookmarks: 101391
DistanceSpacing: 1.1
BeatDivisor: 2
GridSize: 32
TimelineZoom: 1.4

[Metadata]
Title:Lazy Generation
TitleUnicode:Lazy Generation
Artist:The F-Ups
ArtistUnicode:The F-Ups
Creator:Senko-san
Version:Kantan
Source:Burnout 3: Takedown
Tags:Punk Rock F Ups Travis Allen Clean ver Hiicantpk HPK Jory -Jordan- English Rock
BeatmapID:1391298
BeatmapSetID:442707

[Difficulty]
HPDrainRate:8
CircleSize:2
OverallDifficulty:2
ApproachRate:7
SliderMultiplier:1.4
SliderTickRate:1

[Events]
//Background and Video events
0,0,"BuWjkgQ - Imgur.jpg",0,0
//Break Periods
//Storyboard Layer 0 (Background)
//Storyboard Layer 1 (Fail)
//Storyboard Layer 2 (Pass)
//Storyboard Layer 3 (Foreground)
//Storyboard Layer 4 (Overlay)
//Storyboard Sound Samples

[TimingPoints]
365,303.505488390915,4,1,0,80,1,0
10380,-100,4,1,0,100,0,1
29501,-100,4,1,0,80,0,0
78365,-100,4,1,0,100,0,1
97486,-100,4,1,0,80,0,0
126926,-100,4,1,0,100,0,1
136335,-100,4,1,0,100,0,0
136942,-100,4,1,0,90,0,0
137549,-100,4,1,0,80,0,0
138156,-100,4,1,0,70,0,0
138763,-100,4,1,0,60,0,0
139370,-100,4,1,0,50,0,0
139977,-100,4,1,0,40,0,0
140584,-100,4,1,0,30,0,0
141191,-100,4,1,0,100,0,1
141267,-100,4,1,0,100,0,0

[HitObjects]
192,128,8863,5,0,0:0:0:0:
192,256,9166,1,8,0:0:0:0:
192,128,9470,1,0,0:1:0:0:
192,256,9773,1,8,0:0:0:0:
320,128,10380,1,4,0:0:0:0:
192,256,10987,1,8,0:0:0:0:
192,128,11594,1,0,0:0:0:0:
192,256,11898,1,8,0:0:0:0:
192,128,12808,1,0,0:0:0:0:
192,128,13415,1,0,0:0:0:0:
192,128,14022,1,0,0:0:0:0:
192,256,14326,1,8,0:0:0:0:
192,128,15236,1,0,0:0:0:0:
192,256,15843,1,8,0:0:0:0:
192,128,16450,1,0,0:0:0:0:
192,256,16754,1,8,0:0:0:0:
192,128,17361,1,0,0:0:0:0:
192,256,17968,1,8,0:0:0:0:
192,256,18575,1,8,0:0:0:0:
320,128,20092,1,4,0:0:0:0:
192,256,20699,1,8,0:0:0:0:
192,128,21306,1,0,0:0:0:0:
192,256,21610,1,8,0:0:0:0:
192,128,22520,1,0,0:0:0:0:
192,128,23127,1,0,0:0:0:0:
192,128,23734,1,0,0:0:0:0:
192,256,24038,1,8,0:0:0:0:
192,128,24948,1,0,0:0:0:0:
192,256,25555,1,8,0:0:0:0:
192,128,26162,1,0,0:0:0:0:
192,256,26466,1,8,0:0:0:0:
192,128,27073,1,0,0:0:0:0:
192,256,27680,1,8,0:0:0:0:
192,256,28287,1,8,0:0:0:0:
320,128,29501,1,4,0:0:0:0:
192,256,30108,1,8,0:0:0:0:
192,256,30715,1,8,0:0:0:0:
192,128,31322,1,0,0:0:0:0:
320,128,31929,1,4,0:0:0:0:
192,128,32840,1,0,0:0:0:0:
192,128,33143,1,0,0:0:0:0:
192,256,33598,1,8,0:0:0:0:
192,128,34357,1,0,0:0:0:0:
320,128,34661,1,4,0:0:0:0:
320,128,35268,1,4,0:0:0:0:
320,128,35875,1,4,0:0:0:0:
320,128,36482,1,4,0:0:0:0:
320,128,37089,1,4,0:0:0:0:
320,128,37696,1,4,0:0:0:0:
192,128,38303,1,0,0:0:0:0:
192,256,38606,1,8,0:0:0:0:
320,128,39213,1,4,0:0:0:0:
192,128,39820,1,0,0:0:0:0:
192,128,40731,1,0,0:0:0:0:
192,256,41034,1,8,0:0:0:0:
192,128,41641,1,0,0:0:0:0:
192,256,42248,1,8,0:0:0:0:
192,256,43159,1,8,0:0:0:0:
192,256,43462,1,8,0:0:0:0:
192,128,44069,1,0,0:0:0:0:
192,256,44676,1,8,0:0:0:0:
192,128,44980,1,0,0:0:0:0:
192,128,45587,1,0,0:0:0:0:
192,128,45890,1,8,0:0:0:0:
192,128,46801,1,0,0:0:0:0:
192,128,47104,1,0,0:0:0:0:
192,256,47711,1,8,0:0:0:0:
192,256,48015,1,8,0:0:0:0:
192,128,48622,1,0,0:0:0:0:
192,128,49229,1,0,0:0:0:0:
192,128,49836,1,0,0:0:0:0:
192,128,50443,1,0,0:0:0:0:
192,256,50746,1,8,0:0:0:0:
192,128,51657,1,8,0:0:0:0:
192,128,51960,1,0,0:0:0:0:
192,128,52871,1,0,0:0:0:0:
192,256,53174,1,8,0:0:0:0:
320,128,53781,1,4,0:0:0:0:
192,128,54388,1,0,0:0:0:0:
192,128,54995,1,0,0:0:0:0:
192,128,55602,1,0,0:0:0:0:
192,128,55906,1,0,0:0:0:0:
192,256,56210,1,8,0:0:0:0:
192,128,56817,1,0,0:0:0:0:
192,256,57272,1,12,0:0:0:0:
192,256,57575,1,12,0:0:0:0:
192,256,57879,1,12,0:0:0:0:
320,128,58638,1,4,0:0:0:0:
192,128,59245,1,0,0:0:0:0:
192,256,59852,1,8,0:0:0:0:
192,128,60459,1,0,0:0:0:0:
192,256,61066,1,8,0:0:0:0:
192,128,61976,1,0,0:0:0:0:
320,128,62280,1,0,0:0:0:0:
192,256,62735,1,8,0:0:0:0:
192,128,63494,1,0,0:0:0:0:
320,128,63797,1,4,0:0:0:0:
320,128,64404,1,4,0:0:0:0:
320,128,65011,1,4,0:0:0:0:
320,128,65618,1,4,0:0:0:0:
320,128,66225,1,4,0:0:0:0:
320,256,66832,1,12,0:0:0:0:
320,128,68350,1,4,0:0:0:0:
192,128,68957,1,0,0:0:0:0:
192,256,69564,1,8,0:0:0:0:
192,128,70171,1,0,0:0:0:0:
192,256,70778,1,8,0:0:0:0:
192,128,71688,1,0,0:0:0:0:
320,128,71992,1,0,0:0:0:0:
192,256,72447,1,8,0:0:0:0:
192,128,73206,1,0,0:0:0:0:
320,128,73509,1,4,0:0:0:0:
320,128,74116,1,4,0:0:0:0:
320,128,74723,1,4,0:0:0:0:
320,128,75330,1,4,0:0:0:0:
320,128,75937,1,4,0:0:0:0:
320,256,76544,1,12,0:0:0:0:
192,128,77151,1,0,0:0:0:0:
192,128,77455,1,0,0:0:0:0:
320,128,78365,1,4,0:0:0:0:
192,256,78972,1,8,0:0:0:0:
192,128,79579,1,0,0:0:0:0:
192,256,79883,1,8,0:0:0:0:
192,128,80793,1,0,0:0:0:0:
192,128,81400,1,0,0:0:0:0:
192,128,82007,1,0,0:0:0:0:
192,256,82311,1,8,0:0:0:0:
192,128,83221,1,0,0:0:0:0:
192,256,83828,1,8,0:0:0:0:
192,128,84435,1,0,0:0:0:0:
192,256,84739,1,8,0:0:0:0:
192,128,85346,1,0,0:0:0:0:
192,256,85953,1,8,0:0:0:0:
192,256,86560,1,8,0:0:0:0:
320,128,88077,1,4,0:0:0:0:
192,256,88684,1,8,0:0:0:0:
192,128,89291,1,0,0:0:0:0:
192,256,89595,1,8,0:0:0:0:
192,128,90505,1,0,0:0:0:0:
192,128,91112,1,0,0:0:0:0:
192,128,91719,1,0,0:0:0:0:
192,256,92023,1,8,0:0:0:0:
192,128,92933,1,0,0:0:0:0:
192,256,93540,1,8,0:0:0:0:
192,128,94147,1,0,0:0:0:0:
192,256,94451,1,8,0:0:0:0:
192,128,95058,1,0,0:0:0:0:
192,256,95665,1,8,0:0:0:0:
192,256,96272,1,8,0:0:0:0:
192,128,97486,1,0,0:0:0:0:
192,256,98093,1,8,0:0:0:0:
192,256,99004,1,8,0:0:0:0:
192,128,99307,1,0,0:0:0:0:
192,128,100218,1,0,0:0:0:0:
192,256,100521,1,8,0:0:0:0:
192,256,101432,1,8,0:0:0:0:
192,128,101735,1,0,0:0:0:0:
192,128,102646,1,0,0:0:0:0:
192,256,102949,1,8,0:0:0:0:
192,256,103860,1,8,0:0:0:0:
192,128,104163,1,0,0:0:0:0:
192,128,104770,1,0,0:0:0:0:
192,256,105377,1,8,0:0:0:0:
192,128,105984,1,0,0:0:0:0:
192,128,106288,1,0,0:0:0:0:
192,256,106591,1,8,0:0:0:0:
320,128,107198,1,4,0:0:0:0:
192,128,107805,1,0,0:0:0:0:
192,256,108412,1,8,0:0:0:0:
192,128,108715,1,0,0:0:0:0:
192,128,109019,1,0,0:0:0:0:
192,256,109626,1,8,0:0:0:0:
192,128,110536,1,0,0:0:0:0:
320,128,110840,1,0,0:0:0:0:
192,256,111295,1,8,0:0:0:0:
192,128,112054,1,0,0:0:0:0:
320,128,112357,1,4,0:0:0:0:
320,128,112965,1,4,0:0:0:0:
320,128,113572,1,4,0:0:0:0:
320,128,114179,1,4,0:0:0:0:
320,128,114786,1,4,0:0:0:0:
320,256,115393,1,12,0:0:0:0:
320,128,116911,1,4,0:0:0:0:
192,128,117518,1,0,0:0:0:0:
192,256,118125,1,8,0:0:0:0:
192,128,118428,1,0,0:0:0:0:
192,128,118732,1,0,0:0:0:0:
192,256,119339,1,8,0:0:0:0:
192,128,120249,1,0,0:0:0:0:
320,128,120553,1,0,0:0:0:0:
192,256,121008,1,8,0:0:0:0:
192,128,121767,1,0,0:0:0:0:
320,128,122070,1,4,0:0:0:0:
320,128,122677,1,4,0:0:0:0:
320,128,123284,1,4,0:0:0:0:
320,128,123891,1,4,0:0:0:0:
320,128,124498,1,4,0:0:0:0:
320,256,125105,1,12,0:0:0:0:
192,128,125712,1,0,0:0:0:0:
192,128,126016,1,0,0:0:0:0:
320,128,126926,1,4,0:0:0:0:
192,256,127533,1,8,0:0:0:0:
192,128,128140,1,0,0:0:0:0:
192,256,128444,1,8,0:0:0:0:
320,128,129354,1,0,0:0:0:0:
192,256,129961,1,8,0:0:0:0:
192,128,130568,1,0,0:0:0:0:
192,256,130872,1,8,0:0:0:0:
320,128,131782,1,0,0:0:0:0:
192,256,132389,1,8,0:0:0:0:
192,128,132996,1,0,0:0:0:0:
192,256,133300,1,8,0:0:0:0:
320,128,134210,1,0,0:0:0:0:
192,256,134817,1,8,0:0:0:0:
192,128,135424,1,0,0:0:0:0:
192,256,135728,1,8,0:0:0:0:
320,128,136335,1,4,0:0:0:0:
256,192,136487,8,8,140584,0:0:0:0:
320,128,141191,5,4,0:0:0:0:
