osu file format v14

[General]
AudioFilename: audio.mp3
AudioLeadIn: 0
PreviewTime: 64434
Countdown: 0
SampleSet: Soft
StackLeniency: 0.7
Mode: 0
LetterboxInBreaks: 0
WidescreenStoryboard: 1

[Editor]
Bookmarks: 32559,54909,64509,83709,102909,112509,131709,150909,160509,179709,198909,218109,227709,240309,246909,266109,282909
DistanceSpacing: 2.1
BeatDivisor: 12
GridSize: 4
TimelineZoom: 2.8

[Metadata]
Title:Kairos
TitleUnicode:Kairos
Artist:The Eden Project
ArtistUnicode:The Eden Project
Creator:Mao
Version:Insane
Source:
Tags:jonathon ng electronic english EDEN
BeatmapID:2298458
BeatmapSetID:1099699

[Difficulty]
HPDrainRate:7
CircleSize:4.6
OverallDifficulty:7.8
ApproachRate:9
SliderMultiplier:1.8
SliderTickRate:1

[Events]
//Background and Video events
0,0,"kairos.jpg",0,0
//Break Periods
2,103109,107080
2,218309,222280
//Storyboard Layer 0 (Background)
//Storyboard Layer 1 (Fail)
//Storyboard Layer 2 (Pass)
//Storyboard Layer 3 (Foreground)
//Storyboard Layer 4 (Overlay)
//Storyboard Sound Samples

[TimingPoints]
2109,600,4,2,1,20,1,0
54909,-333.333333333333,4,2,1,20,0,0
59709,-250,4,2,1,20,0,0
62109,-200,4,2,1,20,0,0
64509,615.384615384615,4,2,1,30,1,0
64509,-200,4,2,1,30,0,0
65739,645.161290322581,4,2,1,30,1,0
66061,625,4,2,1,30,1,0
66686,576.923076923077,4,2,1,30,1,0
66974,550.45871559633,4,2,1,30,1,0
66974,-200,4,2,1,30,0,0
67249,571.428571428571,4,2,1,30,1,0
67846,609.137055837563,4,2,1,30,1,0
68455,569.80056980057,4,2,1,30,1,0
69309,-200,4,2,1,30,0,0
69594,612.244897959184,4,2,1,30,1,0
70206,583.090379008746,4,2,1,30,1,0
70789,625,4,2,1,30,1,0
71101,555.555555555556,4,2,1,30,1,0
71378,600,4,2,1,30,1,0
71678,-200,4,2,1,30,0,0
71978,615.700359158543,4,2,1,30,1,0
73209,571.428571428571,4,2,1,30,1,0
73780,-200,4,2,1,30,0,0
74066,705.882352941176,4,2,1,30,1,0
74066,-200,4,2,1,30,0,0
74418,612.870275791624,4,2,1,30,1,0
74418,-200,4,2,1,30,0,0
75643,638.297872340426,4,2,1,30,1,0
75962,530.973451327434,4,2,1,30,1,0
76227,564.705882352941,4,2,1,30,1,0
76227,-200,4,2,1,30,0,0
76509,691.64265129683,4,2,1,30,1,0
76854,600,4,2,1,30,1,0
76854,-200,4,2,1,30,0,0
78354,545.454545454546,4,2,1,30,1,0
78626,-200,4,2,1,30,0,0
78899,600,4,2,1,30,1,0
78899,-200,4,2,1,30,0,0
83709,600,4,2,1,50,1,0
83709,-111.111111111111,4,2,1,50,0,0
102909,-111.111111111111,4,2,1,20,0,0
107709,-999.99999999999,4,2,1,30,0,0
112509,-166.666666666667,4,2,1,70,0,0
114759,-50,4,2,1,70,0,0
115059,-66.6666666666667,4,2,1,70,0,0
116859,-166.666666666667,4,2,1,70,0,0
119709,-83.3333333333333,4,2,1,70,0,0
121584,-66.6666666666667,4,2,1,20,0,0
122109,-166.666666666667,4,2,1,70,0,0
124509,-66.6666666666667,4,2,1,70,0,0
126909,-166.666666666667,4,2,1,70,0,0
130659,-66.6666666666667,4,2,1,70,0,0
131109,-50,4,2,1,70,0,0
131709,-40,4,2,1,70,0,0
134559,-50,4,2,1,70,0,0
136509,-40,4,2,1,70,0,0
138909,-100,4,2,1,70,0,0
140709,-50,4,2,1,70,0,0
141309,-40,4,2,1,70,0,0
143709,-166.666666666667,4,2,1,70,0,0
145509,-76.9230769230769,4,2,1,70,0,0
146109,-28.5714285714286,4,2,1,70,0,0
148509,-28.5714285714286,4,2,1,80,0,0
149709,-50,4,2,1,70,0,0
150909,571.428571428571,4,2,1,20,1,0
150909,-200,4,2,1,20,0,0
151828,604.534005037783,4,2,1,20,1,0
151828,-200,4,2,1,20,0,0
152130,604.534005037783,4,2,1,20,1,0
152734,-200,4,2,1,20,0,0
153339,638.297872340426,4,2,1,20,1,0
153658,593.178447849728,4,2,1,20,1,0
154251,601.202404809619,4,2,1,20,1,0
154551,-200,4,2,1,20,0,0
155152,557.620817843866,4,2,1,20,1,0
155152,-200,4,2,1,20,0,0
155430,618.556701030928,4,2,1,20,1,0
155739,535.714285714286,4,2,1,20,1,0
155739,-200,4,2,1,20,0,0
156006,606.060606060606,4,2,1,20,1,0
156309,666.666666666667,4,2,1,20,1,0
156642,588.235294117647,4,2,1,20,1,0
157818,535.714285714286,4,2,1,20,1,0
157818,-200,4,2,1,20,0,0
158085,588.235294117647,4,2,1,20,1,0
158379,661.157024793388,4,2,1,20,1,0
158709,600,4,2,1,20,1,0
159309,-200,4,2,1,20,0,0
159909,580.27079303675,4,2,1,20,1,0
160489,628.272251308901,4,2,1,30,1,0
160509,-200,4,2,1,30,0,0
162373,476.190476190476,4,2,1,30,1,0
162373,-200,4,2,1,30,0,0
162849,540.540540540541,4,2,1,30,1,0
162849,-200,4,2,1,30,0,0
163254,600,4,2,1,30,1,0
163254,-200,4,2,1,30,0,0
165309,600,4,2,1,30,1,0
165309,-200,4,2,1,30,0,0
170409,612.244897959184,4,2,1,30,1,0
170409,-200,4,2,1,30,0,0
171633,552.995391705069,4,2,1,30,1,0
171909,600,4,2,1,30,1,0
171909,-200,4,2,1,30,0,0
172509,666.666666666667,4,2,1,30,1,0
172509,-200,4,2,1,30,0,0
172842,606.060606060606,4,2,1,30,1,0
172842,-200,4,2,1,30,0,0
174660,498.960498960499,4,2,1,30,1,0
174660,-200,4,2,1,30,0,0
174909,600,4,2,1,30,1,0
175809,-200,4,2,1,30,0,0
176709,666.666666666667,4,2,1,30,1,0
177042,474.308300395257,4,2,1,30,1,0
177279,600,4,2,1,30,1,0
177279,-200,4,2,1,30,0,0
178779,620.15503875969,4,2,1,30,1,0
179709,600,4,2,1,40,1,0
179709,-133.333333333333,4,2,1,40,0,0
191409,541.76072234763,4,2,1,40,1,0
191409,-133.333333333333,4,2,1,40,0,0
191950,618.556701030928,4,2,1,40,1,0
191950,-133.333333333333,4,2,1,40,0,0
192259,701.754385964912,4,2,1,40,1,0
192609,600,4,2,1,40,1,0
192909,-133.333333333333,4,2,1,40,0,0
194109,600,4,2,1,40,1,0
194109,-133.333333333333,4,2,1,40,0,0
198909,-111.111111111111,4,2,1,50,0,0
218109,-111.111111111111,4,2,1,20,0,0
227709,-166.666666666667,4,2,1,70,0,0
229959,-50,4,2,1,70,0,0
230259,-66.6666666666667,4,2,1,70,0,0
232059,-166.666666666667,4,2,1,70,0,0
234909,-83.3333333333333,4,2,1,70,0,0
236784,-66.6666666666667,4,2,1,20,0,0
237309,-166.666666666667,4,2,1,70,0,0
239709,-66.6666666666667,4,2,1,70,0,0
242109,-166.666666666667,4,2,1,70,0,0
245559,-66.6666666666667,4,2,1,70,0,0
246459,-66.6666666666667,4,2,1,70,0,0
246909,-40,4,2,1,70,0,0
249759,-50,4,2,1,70,0,0
251709,-40,4,2,1,70,0,0
253509,-40,4,2,1,70,0,0
254109,-100,4,2,1,70,0,0
255909,-50,4,2,1,70,0,0
256509,-40,4,2,1,70,0,0
258909,-166.666666666667,4,2,1,70,0,0
260709,-76.9230769230769,4,2,1,70,0,0
261309,-28.5714285714286,4,2,1,70,0,0
263709,-28.5714285714286,4,2,1,80,0,0
264909,-50,4,2,1,70,0,0
266109,-33.3333333333333,4,2,1,70,0,0
267909,-1000,4,2,1,70,0,0
270009,-50,4,2,1,70,0,0
270909,-33.3333333333333,4,2,1,70,0,0
272109,-125,4,2,1,70,0,0
272709,-1000,4,1,1,70,0,0
273309,-1000,4,1,2,60,0,0
273909,-1000,4,1,1,50,0,0
274509,-1000,4,1,2,40,0,0
275109,-1000,4,1,1,30,0,0
275709,-1000,4,1,2,20,0,0
276309,-1000,4,1,1,10,0,0
276909,-1000,4,2,2,5,0,0

[Colours]
Combo1 : 255,70,121
Combo2 : 227,185,208
Combo3 : 240,210,211
Combo4 : 255,0,6

[HitObjects]
58,22,54909,6,0,P|82:12|163:125,1,202.499993820191,6|0,0:0|0:0,0:0:0:0:
75,181,57309,2,0,B|98:126|165:125|163:182|220:172|246:124,1,202.499993820191,2|0,0:0|0:0,0:0:0:0:
297,15,59709,6,0,P|295:49|474:113,1,270,2|0,0:0|0:0,0:0:0:0:
482,0,62109,2,0,B|442:49|443:271|402:334,1,337.5,2|0,0:0|0:0,0:0:0:0:
287,305,64509,38,0,P|247:320|208:349,2,90,2|2|0,0:0|0:0|0:0,0:0:0:0:
50,362,66061,5,0,0:0:0:0:
102,299,66373,1,2,0:0:0:0:
39,247,66686,1,0,0:0:0:0:
39,247,66974,2,0,P|29:215|11:155,1,91.5,2|0,0:0|0:0,0:0:0:0:
253,17,68455,37,0,0:0:0:0:
322,61,68739,1,2,0:0:0:0:
398,24,69024,1,0,0:0:0:0:
398,24,69309,2,0,B|409:62|437:44|457:93,1,93.5,2|0,0:0|0:0,0:0:0:0:
409,366,70789,5,0,0:0:0:0:
469,298,71101,1,2,0:0:0:0:
400,246,71378,1,0,0:0:0:0:
400,246,71678,2,0,P|358:262|324:298,1,91,2|0,0:0|0:0,0:0:0:0:
12,153,73209,37,0,0:0:0:0:
95,164,73494,1,2,0:0:0:0:
132,89,73780,2,0,L|126:60,1,22.5
115,50,74066,6,0,P|141:34|162:38,1,45,4|0,0:0|0:0,0:0:0:0:
40,81,74724,2,0,P|15:73|0:56,2,45,2|0|0,0:0|0:0|0:0,0:0:0:0:
224,77,75643,37,0,0:0:0:0:
178,147,75962,1,2,0:0:0:0:
235,203,76227,2,0,L|239:251,1,45
188,321,76854,2,0,P|137:333|96:350,1,90,2|0,0:0|0:0,0:0:0:0:
494,364,78054,5,0,0:0:0:0:
411,333,78354,1,2,0:0:0:0:
478,274,78626,2,0,L|471:249,1,22.5
451,241,78899,2,0,P|454:205|491:111,1,135,2|0,0:0|0:0,0:0:0:0:
279,20,80399,37,0,0:0:0:0:
315,102,80699,1,2,0:0:0:0:
270,179,80999,1,0,0:0:0:0:
270,179,81299,2,0,P|273:226|278:285,2,90,2|0|2,0:0|0:0|0:0,0:0:0:0:
197,127,82799,1,0,0:0:0:0:
197,127,83099,1,2,0:0:0:0:
128,183,83399,1,0,0:0:0:0:
128,183,83549,1,0,0:0:0:0:
128,183,83709,6,0,P|117:143|96:94,1,80.9999975280763,4|0,1:2|0:0,0:0:0:0:
43,26,84309,2,0,P|54:66|72:111,2,80.9999975280763,4|0|4,0:3|0:0|0:3,0:0:0:0:
22,204,85209,1,2,0:0:0:0:
22,204,85509,2,0,L|72:212,1,40.4999987640381,6|0,0:3|0:0,0:0:0:0:
157,227,85809,1,2,0:0:0:0:
157,227,86109,38,0,P|152:289|136:360,1,121.499996292114,4|0,1:2|0:0,0:0:0:0:
73,375,86709,2,0,P|85:319|111:310,1,80.9999975280763,6|0,0:3|0:0,0:0:0:0:
237,365,87309,2,0,P|280:352|319:328,1,80.9999975280763,6|0,0:3|0:0,0:0:0:0:
360,265,87759,2,0,P|348:306|354:354,1,80.9999975280763,2|0,0:0|0:0,0:0:0:0:
363,357,88209,1,2,0:0:0:0:
278,253,88509,6,0,P|293:211|334:186,1,80.9999975280763,4|0,1:2|0:0,0:0:0:0:
401,132,89109,2,0,P|386:174|345:199,2,80.9999975280763,4|0|4,0:3|0:0|0:3,0:0:0:0:
319,59,90009,1,2,0:0:0:0:
319,59,90309,1,6,0:3:0:0:
471,13,90609,2,0,L|460:75,1,40.4999987640381,2|0,0:0|0:0,0:0:0:0:
495,83,90909,38,0,P|483:146|476:204,1,121.499996292114,6|0,1:2|0:0,0:0:0:0:
469,282,91509,2,0,P|456:263|509:252,1,80.9999975280763,6|2,3:0|0:0,0:0:0:0:
376,360,92109,2,0,P|374:314|349:271,1,80.9999975280763,6|0,0:3|0:0,0:0:0:0:
267,313,92559,2,0,P|303:329|342:309,1,80.9999975280763,2|0,0:0|0:0,0:0:0:0:
344,292,93009,1,2,0:0:0:0:
257,234,93309,6,0,P|213:238|189:275,1,80.9999975280763,6|0,1:2|0:0,0:0:0:0:
116,325,93909,2,0,P|159:320|184:284,2,80.9999975280763,4|0|4,0:3|0:0|0:3,0:0:0:0:
24,365,94809,1,2,0:0:0:0:
24,365,95109,2,0,L|14:312,1,40.4999987640381,6|0,3:0|0:0,0:0:0:0:
64,261,95409,2,0,L|54:208,2,40.4999987640381,2|0|6,0:0|0:0|1:2,0:0:0:0:
7,124,96009,38,0,P|62:119|90:152,1,80.9999975280763,2|4,0:0|0:3,0:0:0:0:
171,33,96609,2,0,P|191:39|229:31,1,40.4999987640381,2|0,0:0|0:0,0:0:0:0:
324,84,96909,2,0,P|267:76|237:11,1,121.499996292114,6|0,3:0|0:0,0:0:0:0:
324,200,97509,2,0,P|333:180|327:159,1,40.4999987640381,6|0,0:3|0:0,0:0:0:0:
250,110,97809,2,0,P|241:130|248:152,1,40.4999987640381,2|0,0:0|0:0,0:0:0:0:
250,235,98109,6,0,B|307:196|349:253|404:211,1,161.999995056153,6|4,1:2|0:3,0:0:0:0:
404,210,99309,1,4,0:3:0:0:
490,311,99609,2,0,L|479:262,1,40.4999987640381,2|0,0:0|0:0,0:0:0:0:
501,143,99909,2,0,L|491:182,1,40.4999987640381,6|0,0:3|0:0,0:0:0:0:
388,213,100209,38,0,P|399:167|420:116,1,80.9999975280763,2|4,0:0|0:3,0:0:0:0:
326,290,100809,2,0,P|315:336|294:387,1,80.9999975280763,2|4,0:0|0:3,0:0:0:0:
243,183,101409,2,0,P|234:149|219:122,1,40.4999987640381,2|0,0:0|0:0,0:0:0:0:
168,95,101709,2,0,P|212:115|259:68,1,121.499996292114,6|0,3:0|0:0,0:0:0:0:
139,68,102309,2,0,P|123:109|90:136,1,80.9999975280763,6|0,3:0|0:0,0:0:0:0:
20,109,102759,1,2,0:0:0:0:
20,244,102909,5,4,0:1:0:0:
256,192,107709,12,2,110109,0:0:0:0:
256,192,110259,12,0,112209,0:0:0:0:
80,59,112509,38,0,P|85:103|96:160,1,80.9999975280763,4|0,1:0|0:0,0:0:0:0:
187,219,113109,2,0,P|182:175|171:118,1,80.9999975280763,4|0,1:0|0:0,0:0:0:0:
62,75,113709,2,0,P|67:119|78:176,1,80.9999975280763,4|0,1:0|0:0,0:0:0:0:
227,75,114309,2,0,P|222:31|216:2,1,53.9999983520508,4|0,1:0|0:0,0:0:0:0:
289,140,114759,22,0,B|329:126|329:126|377:134,1,90,6|0,1:2|0:0,0:0:0:0:
487,270,115059,6,0,L|388:250,1,67.5000025749208,2|0,0:1|0:0,0:0:0:0:
496,288,115359,2,0,L|397:268,1,67.5000025749208,2|0,0:0|1:0,0:0:0:0:
378,348,115659,2,0,L|477:368,1,67.5000025749208,2|0,0:0|0:0,0:0:0:0:
343,264,115959,1,6,3:0:0:0:
343,264,116109,1,6,3:0:0:0:
221,348,116259,2,0,P|250:356|322:367,1,67.5000025749208,2|0,0:1|0:0,0:0:0:0:
199,242,116559,37,2,0:0:0:0:
129,361,116709,1,2,1:0:0:0:
31,260,116859,22,0,L|97:272,1,53.9999983520508,6|0,1:2|0:0,0:0:0:0:
161,110,117309,6,0,P|140:150|127:193,1,80.9999975280763,4|0,1:0|0:0,0:0:0:0:
62,102,117909,2,0,P|79:65|91:26,1,80.9999975280763,4|0,1:0|0:0,0:0:0:0:
174,116,118509,2,0,P|157:153|145:192,1,80.9999975280763,4|0,1:0|0:0,0:0:0:0:
39,100,119109,2,0,P|58:64|70:25,1,80.9999975280763,4|0,1:0|0:0,0:0:0:0:
227,29,119709,5,4,1:0:0:0:
227,29,119859,2,0,L|286:38,1,53.9999983520508,2|0,0:3|0:0,0:0:0:0:
322,122,120159,2,0,L|379:106,1,53.9999983520508,2|0,0:0|1:0,0:0:0:0:
321,136,120459,2,0,L|378:120,1,53.9999983520508,2|0,0:0|0:0,0:0:0:0:
434,17,120759,2,0,L|456:73,1,53.9999983520508,2|6,0:0|0:3,0:0:0:0:
427,209,121059,1,2,1:2:0:0:
427,209,121209,1,2,0:0:0:0:
504,150,121359,1,2,0:3:0:0:
496,289,121509,5,0,1:0:0:0:
496,289,121584,2,0,L|467:297,10,16.8750006437302,2|2|2|2|2|2|2|2|2|2|2,0:1|0:1|0:1|0:1|0:1|0:1|0:1|0:1|0:1|0:1|0:1,0:0:0:0:
495,329,122109,6,0,P|456:340|419:358,1,80.9999975280763,4|0,1:0|0:0,0:0:0:0:
304,299,122709,2,0,P|342:287|379:269,1,80.9999975280763,4|0,1:0|0:0,0:0:0:0:
492,364,123309,2,0,P|452:362|412:366,1,80.9999975280763,4|0,1:0|0:0,0:0:0:0:
288,257,123909,2,0,P|328:259|368:255,1,80.9999975280763,4|0,1:0|0:0,0:0:0:0:
465,142,124509,22,0,L|457:213,1,67.5000025749208,6|0,1:0|0:0,0:0:0:0:
476,62,124809,1,2,0:0:0:0:
476,62,124959,1,0,0:0:0:0:
377,157,125109,6,0,L|369:86,1,67.5000025749208,0|2,1:0|0:0,0:0:0:0:
356,8,125409,1,4,0:3:0:0:
356,8,125559,1,4,0:3:0:0:
290,103,125709,37,6,1:2:0:0:
262,18,125859,2,0,L|272:55,2,33.7500012874604,4|4|4,0:3|0:3|0:3,0:0:0:0:
199,96,126159,1,2,0:0:0:0:
167,2,126309,2,0,L|114:65,1,67.5000025749208,0|2,1:0|0:0,0:0:0:0:
18,99,126609,5,6,0:3:0:0:
40,16,126759,1,4,0:3:0:0:
102,138,126909,22,0,P|88:176|70:212,1,80.9999975280763,4|0,1:0|0:0,0:0:0:0:
202,297,127509,2,0,P|188:258|170:222,1,80.9999975280763,4|0,1:0|0:0,0:0:0:0:
2,265,128109,2,0,P|40:251|76:233,1,80.9999975280763,4|0,1:0|0:0,0:0:0:0:
157,370,128709,2,0,P|120:352|82:338,1,80.9999975280763,4|0,1:0|0:0,0:0:0:0:
227,291,129309,21,4,1:0:0:0:
285,355,129459,1,0,1:0:0:0:
299,354,129759,1,0,1:0:0:0:
313,354,130059,1,0,1:0:0:0:
284,219,130209,1,14,3:0:0:0:
400,311,130359,37,0,1:0:0:0:
400,311,130509,1,2,1:2:0:0:
483,305,130659,2,0,L|480:341,2,33.7500012874604,0|0|0,1:0|1:0|1:0,0:0:0:0:
431,145,130959,1,6,1:3:0:0:
502,58,131109,2,0,L|499:103,1,45,6|0,0:0|0:0,0:0:0:0:
72,48,131709,6,2,B|32:40|28:-12|104:-36|164:28|144:104|120:176|40:140|28:228,1,337.5,4|0,1:0|0:0,0:3:0:0:
68,304,132309,2,2,B|12:296|-15:349|19:431|130:432|190:304|74:279|23:251|116:175|188:203|166:265,1,337.5,4|0,1:0|0:0,0:3:0:0:
188,144,132909,2,2,B|182:69|287:72|328:131|266:205|263:205|209:286|294:317,1,337.5,4|0,1:0|0:0,0:3:0:0:
200,352,133509,2,2,B|246:398|358:396|399:288|420:241|397:205|327:250|399:301,1,337.5,4|0,1:0|0:0,0:3:0:0:
456,358,134109,5,4,1:0:0:0:
503,220,134259,2,0,P|470:168|487:110,1,112.5,2|0,0:1|0:0,0:0:0:0:
353,32,134559,2,0,L|378:133,1,90,2|0,0:0|0:0,0:0:0:0:
362,21,134859,2,0,L|387:122,1,90,2|0,0:1|0:0,0:0:0:0:
310,200,135159,2,0,L|283:92,1,90,2|0,0:0|0:0,0:0:0:0:
263,13,135459,5,2,1:0:0:0:
263,13,135609,1,0,1:0:0:0:
143,95,135759,37,0,1:0:0:0:
168,11,135909,1,2,1:0:0:0:
208,149,136059,22,2,B|225:252|164:205|176:323,1,180,6|0,1:2|0:0,0:3:0:0:
96,370,136509,6,2,B|125:389|246:344|174:165|4:308|59:386|153:380|210:374|183:308|240:308|268:338,1,337.5,4|0,1:0|0:0,0:3:0:0:
339,371,137109,2,2,B|431:400|495:285|462:218|372:204|335:308|453:329,1,337.5,4|0,1:0|0:0,0:3:0:0:
391,223,137709,38,2,P|338:202|284:185,1,112.5,4|0,1:0|0:0,0:3:0:0:
159,162,138009,2,0,P|194:180|191:216,1,56.25,2|0,3:0|0:0,0:0:0:0:
235,263,138159,2,0,P|223:239|197:232,1,56.25,6|4,0:3|0:3,0:0:0:0:
196,329,138309,6,2,B|185:360|118:356|101:299|153:240|226:262|226:264|158:304|115:248|109:196|204:175|171:116|98:172|112:78,1,337.5,4|0,1:0|0:0,0:3:0:0:
27,137,138909,6,0,L|80:153,1,45,6|0,1:3|0:0,0:0:0:0:
12,155,139209,2,0,L|66:171,1,45,2|0,3:0|0:0,0:0:0:0:
216,83,139509,21,6,1:2:0:0:
216,83,139659,1,4,0:3:0:0:
164,14,139809,1,4,0:3:0:0:
285,37,139959,6,0,L|288:14,2,22.5,4|4|6,0:3|0:3|1:2,0:0:0:0:
324,109,140259,1,4,0:3:0:0:
487,65,140409,37,4,0:3:0:0:
387,20,140559,1,4,0:3:0:0:
422,152,140709,6,0,L|477:159,1,45,4|0,1:0|0:0,0:0:0:0:
487,172,140859,2,0,L|520:167,8,22.5,2|2|2|2|2|0|0|0|0,0:0|0:0|0:0|0:0|0:0|0:0|0:0|0:0|0:0,0:0:0:0:
509,240,141309,38,2,B|441:234|392:333|485:423|558:237|453:222|395:242|482:350|331:365,1,337.5,4|0,1:0|0:0,0:3:0:0:
338,262,141909,2,2,B|325:304|214:322|280:427|322:406|338:349|262:337|211:373|197:258|242:200,1,337.5,4|0,1:0|0:0,0:3:0:0:
317,139,142509,2,2,B|241:163|221:315|209:411|93:415|137:247|213:359,1,337.5,4|0,1:0|0:0,0:3:0:0:
63,329,143109,2,2,B|21:339|17:471|198:309|51:111,1,337.5,4|0,1:0|0:0,0:3:0:0:
0,68,143709,22,0,P|48:75|85:76,1,80.9999975280763,4|0,0:0|0:0,0:0:0:0:
242,24,144309,2,0,P|209:43|167:60,1,80.9999975280763,2|0,1:2|0:0,0:0:0:0:
243,128,144909,5,0,3:3:0:0:
243,128,145059,1,0,3:0:0:0:
324,87,145209,1,0,3:0:0:0:
416,156,145359,1,0,3:0:0:0:
487,5,145509,38,2,P|464:42|455:174,1,175.499991966248,2|0,1:2|0:0,0:3:0:0:
512,219,146109,22,2,B|449:195|405:319|517:385|663:118|405:189|328:238|293:350|182:326,1,472.500004506111,6|0,1:0|0:0,0:3:0:0:
22,263,146709,2,2,B|84:238|128:363|16:429|-128:162|128:233|205:282|240:394|351:370,1,472.500004506111,6|0,1:0|0:0,0:3:0:0:
310,290,147309,6,2,B|407:310|460:255|382:44|268:217|268:221|268:224|271:320|100:329|131:190|193:205,1,472.500004506111,6|0,1:0|0:0,0:3:0:0:
257,116,147909,2,2,B|337:96|377:276|157:264|161:140|161:136|161:132|13:-92|-86:180|-19:252|108:225,1,472.500004506111,6|0,1:0|0:0,0:3:0:0:
88,194,148509,38,2,B|-28:173|-45:292|23:314|131:282|83:215|14:103|88:-4|184:45,1,472.500004506111,6|0,1:0|0:0,0:3:0:0:
254,93,149109,2,2,B|212:-62|81:-13|83:81|163:169|231:113|339:-18|503:25|483:159,1,472.500004506111,6|0,1:0|0:0,0:3:0:0:
456,3,149709,6,0,P|460:66|477:107,1,90,6|0,1:0|0:0,0:0:0:0:
491,304,150009,2,0,P|487:241|470:200,1,90,6|0,0:0|0:0,0:0:0:0:
338,167,150309,2,0,P|296:214|279:255,1,90,6|0,1:0|0:0,0:0:0:0:
360,373,150609,1,2,0:0:0:0:
360,373,150759,1,0,0:0:0:0:
394,235,150909,6,0,L|378:285,1,45,4|0,0:1|0:0,0:0:0:0:
224,320,151828,2,0,L|235:366,1,45,2|0,0:0|0:0,0:0:0:0:
287,158,152734,2,0,P|265:127|222:27,1,137.5,2|2,0:0|0:0,0:0:0:0:
225,38,154251,5,2,0:0:0:0:
149,74,154551,2,0,P|139:87|127:123,1,45
71,49,155152,2,0,P|69:32|52:-1,1,45,2|0,0:0|0:0,0:0:0:0:
28,157,155739,38,0,L|32:204,1,45,4|0,0:0|0:0,0:0:0:0:
38,288,156309,1,2,0:0:0:0:
159,205,156642,1,2,0:0:0:0:
146,221,157230,1,2,0:0:0:0:
138,234,157818,2,0,L|147:287,1,45,2|0,0:0|0:0,0:0:0:0:
252,378,158379,5,0,0:0:0:0:
252,378,158709,1,2,0:0:0:0:
301,305,159009,1,0,0:0:0:0:
263,227,159309,2,0,L|249:178,1,45,2|0,0:0|0:0,0:0:0:0:
219,93,159909,1,2,0:0:0:0:
224,80,160489,37,4,0:0:0:0:
314,108,160803,2,0,P|354:79|401:62,1,90,2|2,0:0|0:0,0:0:0:0:
493,286,162059,1,0,0:0:0:0:
493,286,162373,2,0,P|465:274|435:226,1,67.5,2|0,0:0|0:0,0:0:0:0:
424,170,162849,6,0,L|433:217,1,45,2|0,0:0|0:0,0:0:0:0:
357,252,163254,2,0,P|340:238|271:251,1,90,2|0,0:0|0:0,0:0:0:0:
61,359,164454,1,0,0:0:0:0:
14,290,164754,1,2,0:0:0:0:
14,290,165309,38,0,P|70:309|117:317,1,90,4|0,0:0|0:0,0:0:0:0:
187,376,166209,1,2,0:0:0:0:
187,376,166509,2,0,P|194:342|197:315,1,45,2|0,0:0|0:0,0:0:0:0:
237,300,166959,2,0,P|232:275|227:250,1,45,2|0,0:0|0:0,0:0:0:0:
167,211,167409,2,0,P|151:187|126:109,2,90,2|2|0,0:0|0:0|0:0,0:0:0:0:
459,360,169209,1,2,0:0:0:0:
459,360,169509,2,0,P|443:305|422:261,1,90,2|0,0:0|0:0,0:0:0:0:
445,109,170409,6,0,P|460:163|481:207,1,90,2|0,0:0|0:0,0:0:0:0:
295,81,171633,1,0,0:0:0:0:
295,81,171909,2,0,P|307:53|349:31,1,67.5,2|0,0:0|0:0,0:0:0:0:
368,101,172509,38,0,L|372:136,1,22.5,2|0,0:0|0:0,0:0:0:0:
305,161,172842,2,0,P|271:163|242:215,1,90,2|0,0:0|0:0,0:0:0:0:
24,36,174054,1,0,0:0:0:0:
108,17,174357,1,2,0:0:0:0:
147,94,174660,6,0,P|203:113|246:116,1,99,2|0,0:0|0:0,0:0:0:0:
69,137,175509,1,2,0:0:0:0:
69,137,175809,2,0,P|59:172|55:226,1,90,2|0,0:0|0:0,0:0:0:0:
257,363,177042,37,2,0:0:0:0:
169,348,177279,2,0,L|124:356,1,45,2|0,0:0|0:0,0:0:0:0:
115,321,177729,2,0,L|56:299,1,45,2|0,0:0|0:0,0:0:0:0:
167,250,178179,2,0,P|199:244|251:256,1,67.5,2|0,0:0|0:0,0:0:0:0:
244,264,178779,1,0,0:0:0:0:
309,209,179089,1,2,0:0:0:0:
257,122,179399,1,0,0:0:0:0:
388,13,179709,6,0,P|395:97|418:152,1,135.000005149842,4|0,0:0|0:0,0:0:0:0:
471,48,180609,1,0,0:0:0:0:
499,178,180909,2,0,P|457:210|440:235,1,67.5000025749208,2|0,0:0|0:0,0:0:0:0:
414,273,181359,2,0,P|456:241|473:216,1,67.5000025749208,0|0,0:0|0:0,0:0:0:0:
341,238,181809,38,0,P|338:196|325:164,1,67.5000025749208,2|0,0:0|0:0,0:0:0:0:
491,313,182409,2,0,P|494:355|507:387,2,67.5000025749208,2|0|0,0:0|0:0|0:0,0:0:0:0:
250,278,183609,1,2,0:0:0:0:
193,363,183909,1,2,0:0:0:0:
113,308,184209,1,2,0:0:0:0:
167,177,184509,6,0,P|140:146|49:92,1,135.000005149842,4|0,0:0|0:0,0:0:0:0:
86,211,185409,1,0,0:0:0:0:
178,58,185709,2,0,P|227:62|262:98,1,101.250003862381,2|0,0:0|0:0,0:0:0:0:
256,114,186309,1,0,0:0:0:0:
342,48,186609,2,0,P|360:43|405:20,1,67.5000025749208,2|4,0:0|0:0,0:0:0:0:
491,188,187509,2,0,P|473:193|428:216,2,67.5000025749208,2|0|2,0:0|0:0|0:0,0:0:0:0:
494,282,188409,1,0,0:0:0:0:
456,365,188709,1,2,0:0:0:0:
387,298,189009,1,2,0:0:0:0:
256,374,189309,38,0,P|190:370|143:323,1,135.000005149842,4|0,0:0|0:0,0:0:0:0:
292,295,190209,1,0,0:0:0:0:
173,234,190509,2,0,P|150:204|167:174,1,67.5000025749208,2|0,0:0|0:0,0:0:0:0:
210,227,190959,2,0,P|219:196|198:173,1,67.5000025749208,0|0,0:0|0:0,0:0:0:0:
272,123,191409,6,0,P|314:120|352:97,1,84.3750032186509,2|0,0:0|0:0,0:0:0:0:
150,99,191950,2,0,P|114:98|82:113,1,67.5000025749208,2|0,0:0|0:0,0:0:0:0:
292,22,192909,1,2,0:0:0:0:
292,22,193209,1,2,0:0:0:0:
223,83,193509,1,2,0:0:0:0:
302,135,193809,2,0,L|312:190,1,33.7500012874604,2|0,0:0|0:0,0:0:0:0:
362,74,194109,38,0,P|380:67|478:47,1,101.250003862381,4|0,0:0|0:0,0:0:0:0:
481,47,194709,1,2,0:0:0:0:
420,150,195009,2,0,P|451:172|476:264,1,135.000005149842,0|0,0:0|0:0,0:0:0:0:
428,370,195909,1,2,0:0:0:0:
317,287,196209,2,0,P|335:282|355:273,1,33.7500012874604,2|0,0:0|0:0,0:0:0:0:
292,362,196509,6,0,P|272:326|261:211,1,135.000005149842,4|2,0:0|0:0,0:0:0:0:
257,234,197409,1,0,0:0:0:0:
308,155,197709,1,2,0:0:0:0:
219,35,198009,37,2,0:0:0:0:
150,106,198309,2,0,L|93:89,1,33.7500012874604,2|0,0:0|0:0,0:0:0:0:
29,37,198609,2,0,L|63:21,1,33.7500012874604,2|0,0:0|0:0,0:0:0:0:
88,190,198909,6,0,P|48:201|-3:222,1,80.9999975280763,4|0,1:2|0:0,0:0:0:0:
120,211,199509,2,0,P|160:200|211:179,2,80.9999975280763,4|0|4,0:3|0:0|0:3,0:0:0:0:
78,317,200409,1,2,0:0:0:0:
78,317,200709,2,0,L|131:323,1,40.4999987640381,6|0,0:3|0:0,0:0:0:0:
191,369,201009,1,2,0:0:0:0:
191,369,201309,38,0,P|251:366|311:358,1,121.499996292114,4|0,1:2|0:0,0:0:0:0:
344,263,201909,2,0,P|335:302|343:342,1,80.9999975280763,6|0,0:3|0:0,0:0:0:0:
434,256,202509,2,0,P|476:237|491:189,1,80.9999975280763,6|0,0:3|0:0,0:0:0:0:
501,292,202959,2,0,P|489:333|467:364,1,80.9999975280763,2|0,0:0|0:0,0:0:0:0:
450,367,203409,1,2,0:0:0:0:
405,180,203709,6,0,P|374:147|323:132,1,80.9999975280763,4|0,1:2|0:0,0:0:0:0:
288,51,204309,2,0,P|319:84|370:99,2,80.9999975280763,4|0|4,0:3|0:0|0:3,0:0:0:0:
485,83,205209,1,2,0:0:0:0:
485,83,205509,2,0,L|423:94,1,40.4999987640381,6|0,0:3|0:0,0:0:0:0:
327,134,205809,2,0,L|389:145,1,40.4999987640381,2|0,0:0|0:0,0:0:0:0:
337,217,206109,38,0,P|272:230|232:282,1,121.499996292114,6|0,1:2|0:0,0:0:0:0:
158,281,206709,2,0,P|172:318|196:336,1,40.4999987640381,6|0,3:0|0:0,0:0:0:0:
76,372,207009,2,0,P|90:335|114:317,1,40.4999987640381,2|0,0:0|0:0,0:0:0:0:
76,254,207309,2,0,P|46:218|34:173,1,80.9999975280763,6|0,0:3|0:0,0:0:0:0:
43,100,207759,2,0,P|43:139|67:185,1,80.9999975280763,2|0,0:0|0:0,0:0:0:0:
89,38,208209,2,0,P|52:21|23:28,1,40.4999987640381,2|0,0:0|0:0,0:0:0:0:
147,96,208509,6,0,P|181:79|178:14,1,80.9999975280763,6|0,1:2|0:0,0:0:0:0:
320,18,209109,2,0,P|286:35|289:100,2,80.9999975280763,4|0|4,0:3|0:0|0:3,0:0:0:0:
254,187,210009,1,2,0:0:0:0:
254,187,210309,2,0,L|209:180,1,40.4999987640381,6|0,3:0|0:0,0:0:0:0:
273,264,210609,2,0,L|318:257,1,40.4999987640381,2|0,0:0|0:0,0:0:0:0:
252,345,210909,37,6,1:2:0:0:
252,345,211209,2,0,P|202:326|154:316,1,80.9999975280763,2|4,0:0|0:3,0:0:0:0:
413,364,211809,2,0,P|407:344|383:316,1,40.4999987640381,2|0,0:0|0:0,0:0:0:0:
499,233,212109,2,0,P|439:258|426:322,1,121.499996292114,6|0,3:0|0:0,0:0:0:0:
415,232,212709,2,0,P|424:212|418:191,1,40.4999987640381,6|0,0:3|0:0,0:0:0:0:
468,97,213009,2,0,P|465:119|477:137,1,40.4999987640381,2|0,0:0|0:0,0:0:0:0:
384,120,213309,6,0,P|336:116|218:49,1,161.999995056153,6|4,1:2|0:3,0:0:0:0:
370,0,214209,2,0,P|353:28|349:67,1,40.4999987640381,2|0,0:0|0:0,0:0:0:0:
330,194,214509,1,4,0:3:0:0:
196,258,214809,2,0,L|245:253,1,40.4999987640381,2|0,0:0|0:0,0:0:0:0:
112,169,215109,2,0,L|122:212,1,40.4999987640381,6|0,0:3|0:0,0:0:0:0:
83,375,215409,38,0,P|97:328|128:284,1,80.9999975280763,2|4,0:0|0:3,0:0:0:0:
234,102,216009,2,0,P|220:149|189:193,1,80.9999975280763,2|4,0:0|0:3,0:0:0:0:
168,17,216609,2,0,P|161:39|156:61,1,40.4999987640381,2|0,0:0|0:0,0:0:0:0:
315,138,216909,2,0,P|318:87|279:-7,1,121.499996292114,6|0,3:0|0:0,0:0:0:0:
354,143,217509,2,0,P|370:184|403:214,1,80.9999975280763,6|0,3:0|0:0,0:0:0:0:
419,218,217959,1,2,0:0:0:0:
451,127,218109,5,4,0:1:0:0:
256,192,222909,12,0,225309,0:0:0:0:
256,192,225459,12,0,226509,0:0:0:0:
451,55,227709,38,0,P|407:60|350:71,1,80.9999975280763,4|0,1:0|0:0,0:0:0:0:
291,162,228309,2,0,P|335:157|392:146,1,80.9999975280763,4|0,1:0|0:0,0:0:0:0:
435,37,228909,2,0,P|391:42|334:53,1,80.9999975280763,4|0,1:0|0:0,0:0:0:0:
435,202,229509,2,0,P|479:197|508:191,1,53.9999983520508,4|0,1:0|0:0,0:0:0:0:
504,296,229959,6,0,B|457:288|457:288|417:302,1,90,6|0,1:2|0:0,0:0:0:0:
309,366,230259,6,0,L|329:267,1,67.5000025749208,2|0,0:1|0:0,0:0:0:0:
291,375,230559,2,0,L|311:276,1,67.5000025749208,2|0,0:0|1:0,0:0:0:0:
231,257,230859,2,0,L|211:356,1,67.5000025749208,2|0,0:0|0:0,0:0:0:0:
318,226,231159,1,6,3:0:0:0:
318,226,231309,1,6,3:0:0:0:
176,156,231459,2,0,P|205:164|277:175,1,67.5000025749208,2|0,0:1|0:0,0:0:0:0:
252,17,231759,5,2,0:0:0:0:
322,136,231909,1,2,1:0:0:0:
420,35,232059,22,0,L|354:47,1,53.9999983520508,6|0,1:2|0:0,0:0:0:0:
300,86,232509,38,0,P|260:65|217:52,1,80.9999975280763,4|0,1:0|0:0,0:0:0:0:
54,57,233109,2,0,P|91:74|130:86,1,80.9999975280763,4|0,1:0|0:0,0:0:0:0:
294,99,233709,2,0,P|257:82|218:70,1,80.9999975280763,4|0,1:0|0:0,0:0:0:0:
56,34,234309,2,0,P|92:53|131:65,1,80.9999975280763,4|0,1:0|0:0,0:0:0:0:
37,209,234909,21,4,1:0:0:0:
37,209,235059,2,0,L|46:150,1,53.9999983520508,2|0,0:3|0:0,0:0:0:0:
136,290,235359,2,0,L|120:233,1,53.9999983520508,2|0,0:0|1:0,0:0:0:0:
150,291,235659,2,0,L|134:234,1,53.9999983520508,2|0,0:0|0:0,0:0:0:0:
223,131,235959,2,0,L|173:151,1,53.9999983520508,2|6,0:0|0:3,0:0:0:0:
281,221,236259,1,2,1:2:0:0:
281,221,236409,1,2,0:0:0:0:
321,91,236559,1,2,0:3:0:0:
381,169,236709,5,0,1:0:0:0:
381,169,236784,2,0,L|358:175,10,16.8750006437302,2|2|2|2|2|2|2|0|0|0|0,0:1|0:1|0:1|0:1|0:1|0:1|0:1|0:1|0:1|0:1|0:1,0:0:0:0:
465,110,237309,6,0,P|454:71|436:34,1,80.9999975280763,4|0,1:0|0:0,0:0:0:0:
445,238,237909,2,0,P|457:276|475:313,1,80.9999975280763,4|0,1:0|0:0,0:0:0:0:
430,107,238509,2,0,P|432:67|428:27,1,80.9999975280763,4|0,1:0|0:0,0:0:0:0:
487,222,239109,2,0,P|485:262|489:295,1,53.9999983520508,4|0,1:0|0:0,0:0:0:0:
404,369,239559,1,2,0:0:0:0:
256,309,239709,21,6,1:0:0:0:
256,309,239859,1,0,0:0:0:0:
335,319,240009,2,0,L|342:251,1,67.5000025749208,2|0,0:0|0:0,0:0:0:0:
153,233,240309,5,6,1:0:0:0:
166,314,240459,2,0,L|173:381,2,67.5000025749208,0|2|0,0:0|0:0|0:0,0:0:0:0:
47,343,240909,38,0,L|37:380,4,33.7500012874604,6|0|4|4|4,1:2|0:0|0:3|0:3|0:3,0:0:0:0:
20,227,241359,1,2,0:0:0:0:
140,116,241509,2,0,L|87:179,1,67.5000025749208,0|2,1:0|0:0,0:0:0:0:
40,13,241809,5,6,0:3:0:0:
0,118,241959,1,4,0:3:0:0:
157,30,242109,22,0,P|195:44|231:62,1,80.9999975280763,4|0,1:0|0:0,0:0:0:0:
395,78,242709,2,0,P|381:39|363:3,1,80.9999975280763,4|0,1:0|0:0,0:0:0:0:
221,88,243309,2,0,P|240:125|254:163,1,80.9999975280763,4|0,1:0|0:0,0:0:0:0:
491,93,243909,2,0,P|476:130|459:167,1,80.9999975280763,4|0,1:0|0:0,0:0:0:0:
437,175,244509,21,4,1:0:0:0:
494,283,244659,1,0,1:0:0:0:
495,269,244959,1,0,1:0:0:0:
495,255,245259,1,0,1:0:0:0:
485,379,245409,1,14,3:0:0:0:
356,289,245559,37,0,1:0:0:0:
356,289,245709,1,2,1:2:0:0:
276,357,245859,2,0,L|317:366,2,33.7500012874604,0|0|0,1:0|1:0|1:0,0:0:0:0:
301,213,246159,1,6,1:3:0:0:
215,275,246309,2,0,L|218:232,1,33.7500012874604,0|0,0:0|0:0,0:0:0:0:
173,151,246459,6,0,L|214:135,1,33.7500012874604,2|0,3:0|0:0,0:0:0:0:
270,97,246609,2,0,L|257:130,1,33.7500012874604,2|0,0:3|0:0,0:0:0:0:
363,107,246759,2,0,L|394:80,1,33.7500012874604,2|0,0:3|0:0,0:0:0:0:
343,19,246909,38,2,B|359:10|411:6|435:82|371:142|295:122|223:98|259:18|176:7,1,337.5,4|0,1:0|0:0,0:3:0:0:
100,7,247509,2,2,B|116:-10|161:9|156:129|103:105|14:28|-51:153|15:241|101:218|127:165|87:125,1,337.5,4|0,1:0|0:0,0:3:0:0:
27,259,248109,2,2,B|56:177|137:231|137:234|211:296|270:255|273:150|198:156,1,337.5,4|0,1:0|0:0,0:3:0:0:
274,65,248709,2,2,B|209:118|184:39|225:26|265:58|358:111|237:200|302:284,1,337.5,4|0,1:0|0:0,0:3:0:0:
456,358,249309,21,4,1:0:0:0:
456,358,249459,2,0,P|399:383|344:358,1,112.5,2|0,0:1|0:0,0:0:0:0:
485,230,249759,2,0,L|384:255,1,90,2|0,0:0|0:0,0:0:0:0:
496,239,250059,2,0,L|395:264,1,90,2|0,0:1|0:0,0:0:0:0:
414,145,250359,2,0,L|522:118,1,90,2|0,0:0|0:0,0:0:0:0:
388,51,250659,5,2,1:0:0:0:
388,51,250809,1,0,1:0:0:0:
268,133,250959,37,0,1:0:0:0:
293,49,251109,1,2,1:0:0:0:
334,194,251259,22,2,B|273:278|263:202|188:294,1,180,6|0,1:2|0:0,0:3:0:0:
282,349,251709,6,6,B|256:321|199:321|226:387|169:393|75:399|20:321|190:178|262:357|141:402|112:383,1,337.5,4|0,1:0|0:0,0:3:0:0:
23,306,252309,2,2,B|139:326|102:430|12:416|-20:349|43:234|131:232,1,337.5,4|0,1:0|0:0,0:3:0:0:
119,153,252909,38,2,P|66:132|12:115,1,112.5,4|0,1:0|0:0,0:3:0:0:
162,31,253209,2,0,P|197:49|194:85,1,56.25,2|0,3:0|0:0,0:0:0:0:
247,125,253359,2,0,P|282:107|279:71,1,56.25,6|4,0:3|0:3,0:0:0:0:
343,38,253509,6,2,B|335:5|268:1|245:56|289:121|364:108|364:106|302:58|252:108|240:159|332:191|292:246|226:181|229:276,1,337.5,4|0,1:0|0:0,0:3:0:0:
316,332,254109,6,0,L|300:385,1,45,6|0,1:3|0:0,0:0:0:0:
298,317,254409,2,0,L|282:371,1,45,2|0,3:0|0:0,0:0:0:0:
405,314,254709,21,6,1:2:0:0:
405,314,254859,1,4,0:3:0:0:
474,366,255009,1,4,0:3:0:0:
451,245,255159,6,0,L|481:240,2,22.5,4|4|6,0:3|0:3|1:2,0:0:0:0:
375,199,255459,1,4,0:3:0:0:
494,64,255609,37,4,0:3:0:0:
413,32,255759,1,4,0:3:0:0:
389,112,255909,6,0,L|444:143,1,45,4|0,1:0|0:0,0:0:0:0:
470,159,256059,2,0,L|503:154,8,22.5,2|2|2|2|2|2|2|2|2,0:0|0:0|0:0|0:0|0:0|0:0|0:0|0:0|0:0,0:0:0:0:
322,62,256509,38,2,B|265:200|401:174|391:234|329:320|199:168|322:128|386:218|349:275,1,337.5,4|0,1:0|0:0,0:3:0:0:
387,353,257109,2,2,B|332:395|217:381|253:330|241:254|184:270|163:312|268:378|286:267|342:275,1,337.5,4|0,1:0|0:0,0:3:0:0:
270,211,257709,2,2,B|334:175|343:298|243:293|231:197|211:45|155:42,1,337.5,4|0,1:0|0:0,0:3:0:0:
77,11,258309,2,2,B|-60:196|120:358|116:226|74:216,1,337.5,4|0,1:0|0:0,0:3:0:0:
109,113,258909,22,0,P|105:153|112:193,1,80.9999975280763,4|0,0:0|0:0,0:0:0:0:
168,374,259509,2,0,P|163:333|171:294,1,80.9999975280763,2|0,1:2|0:0,0:0:0:0:
77,354,260109,5,0,3:3:0:0:
77,354,260259,1,0,3:0:0:0:
171,294,260409,1,0,3:0:0:0:
271,366,260559,1,0,3:0:0:0:
424,362,260709,38,2,P|387:339|255:330,1,175.499991966248,2|0,1:2|0:0,0:3:0:0:
127,367,261309,22,2,B|187:273|291:327|380:307|613:175|321:89|288:215|407:272|434:210,1,472.500004506111,6|0,1:0|0:0,0:3:0:0:
512,119,261909,2,2,B|450:94|406:219|518:285|662:18|406:89|329:138|294:250|183:226,1,472.500004506111,6|0,1:0|0:0,0:3:0:0:
256,141,262509,6,2,B|343:95|350:19|157:-95|177:110|179:113|181:116|244:188|117:303|53:175|111:148,1,472.500004506111,6|0,1:0|0:0,0:3:0:0:
79,64,263109,2,2,B|82:3|-59:-2|-20:163|73:144|76:143|80:143|270:225|76:338|12:296|15:197,1,472.500004506111,6|0,1:0|0:0,0:3:0:0:
11,317,263709,38,2,B|47:396|170:391|201:263|214:182|313:236|346:299|249:372|194:221,1,472.500004506111,6|0,1:0|0:0,0:3:0:0:
307,243,264309,2,2,B|265:88|134:137|136:231|216:319|284:263|392:132|556:175|536:309,1,472.500004506111,6|0,1:0|0:0,0:3:0:0:
512,123,264909,6,0,P|449:119|408:102,1,90,6|0,1:0|0:0,0:0:0:0:
327,20,265209,2,0,P|339:63|340:108,1,90,6|0,1:2|0:0,0:0:0:0:
456,301,265509,2,0,P|452:238|435:197,1,90,6|0,1:0|0:0,0:0:0:0:
404,372,265809,1,6,0:0:0:0:
404,372,265959,1,2,0:0:0:0:
304,294,266109,38,0,B|291:287|291:287|170:300,1,135.000005149842,6|0,1:0|0:0,0:0:0:0:
35,338,266409,2,0,B|47:331|47:331|169:344,1,135.000005149842,6|0,1:0|0:0,0:0:0:0:
13,233,266709,1,4,1:2:0:0:
13,233,266859,1,4,1:2:0:0:
276,165,267009,6,0,B|263:171|263:171|142:158,1,135.000005149842,6|0,1:0|0:0,0:0:0:0:
7,121,267309,2,0,B|19:127|19:127|141:114,1,135.000005149842,6|0,1:0|0:0,0:0:0:0:
40,25,267609,1,6,1:2:0:0:
40,25,267759,1,6,1:2:0:0:
266,62,267909,22,2,L|208:50,1,58.5,6|0,1:0|0:0,0:3:0:0:
352,24,270009,5,4,1:0:0:0:
423,89,270159,1,6,1:3:0:0:
503,36,270309,1,2,1:0:0:0:
503,36,270459,1,6,0:3:0:0:
416,176,270609,1,4,1:2:0:0:
416,176,270759,1,0,1:0:0:0:
501,346,270909,6,0,B|486:338|486:338|348:353,1,135.000005149842,6|0,1:0|0:0,0:3:0:0:
147,338,271209,2,0,B|161:345|161:345|299:330,1,135.000005149842,6|0,1:0|0:0,0:0:0:0:
352,198,271509,1,6,1:2:0:0:
352,198,271659,1,6,1:2:0:0:
169,221,271809,38,0,B|154:228|154:228|14:213,1,135.000005149842,6|0,1:0|0:0,0:0:0:0:
252,145,272109,22,2,L|260:32,1,108,6|0,1:0|0:0,0:3:0:0:
52,63,272709,6,2,B|63:137|144:158|173:132|252:155|266:248,1,306,6|0,1:0|0:0,0:0:0:0:
