osu file format v14

[General]
AudioFilename: audio.mp3
AudioLeadIn: 0
PreviewTime: 107152
Countdown: 1
SampleSet: Normal
StackLeniency: 0.7
Mode: 0
LetterboxInBreaks: 0
WidescreenStoryboard: 0

[Editor]
Bookmarks: 23513,45438,46123,55552,56427,67381,78352,89323,97552,100295,108523,110409,111266,122238,133209,144181,155152,166123,177095,186695,197666,199038,204523,207266,210009,241552,242923
DistanceSpacing: 2.3
BeatDivisor: 4
GridSize: 8
TimelineZoom: 2.1

[Metadata]
Title:I Am
TitleUnicode:I Am
Artist:The Eden Project
ArtistUnicode:The Eden Project
Creator:Tsusumu
Version:Insane
Source:
Tags:
BeatmapID:1098258
BeatmapSetID:516827

[Difficulty]
HPDrainRate:6
CircleSize:4
OverallDifficulty:9
ApproachRate:9
SliderMultiplier:1.8
SliderTickRate:1

[Events]
//Background and Video events
0,0,"bg 12.jpg",0,0
//Break Periods
//Storyboard Layer 0 (Background)
//Storyboard Layer 1 (Fail)
//Storyboard Layer 2 (Pass)
//Storyboard Layer 3 (Foreground)
//Storyboard Layer 4 (Overlay)
//Storyboard Sound Samples

[TimingPoints]
181,342.857142857143,4,1,0,100,1,0
181,-133.333333333333,4,1,0,40,0,0
24866,-200,4,1,0,40,0,0
27609,-133.333333333333,4,1,0,40,0,0
30352,-200,4,1,0,40,0,0
32923,-133.333333333333,4,1,0,40,0,0
94809,-200,4,1,0,40,0,0
96352,-133.333333333333,4,1,0,40,0,0
111266,-83.3333333333333,4,1,0,61,0,1
119323,-100,4,1,0,61,0,1
120009,-125,4,1,0,61,0,1
120695,-166.666666666667,4,1,0,61,0,1
122238,-83.3333333333333,4,1,0,61,0,1
133209,-100,4,1,0,41,0,0
166123,-200,4,1,0,41,0,0
186695,-100,4,1,0,41,0,0
199038,-133.333333333333,4,1,0,41,0,0
204523,-100,4,1,0,41,0,0
210009,-58.8235294117647,4,1,0,100,0,1
242238,-250,4,1,0,100,0,0

[Colours]
Combo1 : 137,254,140
Combo2 : 249,253,91
Combo3 : 222,51,247
Combo4 : 250,95,95

[HitObjects]
120,266,1552,6,0,P|191:293|277:272,1,135.000005149842
190,82,2238,2,0,L|195:232,1,135.000005149842
309,177,2923,6,0,P|502:192|315:238,1,540.000020599366
403,197,4638,2,0,L|452:347,1,135.000005149842
292,95,5323,2,0,L|309:182,1,67.5000025749208
231,211,5666,5,0,0:0:0:0:
226,216,6009,1,0,0:0:0:0:
214,217,6352,1,0,0:0:0:0:
218,210,6695,1,0,0:0:0:0:
442,135,7038,6,0,L|307:129,1,135.000005149842
236,57,7723,2,0,P|197:119|226:198,1,135.000005149842
419,204,8409,6,0,P|358:386|348:195,1,540.000020599366
372,290,10123,2,0,L|381:140,1,135.000005149842
292,30,10809,2,0,L|284:124,1,67.5000025749208
239,211,11152,5,0,0:0:0:0:
243,205,11495,1,0,0:0:0:0:
235,204,11838,1,0,0:0:0:0:
236,216,12181,1,0,0:0:0:0:
93,25,12523,6,0,L|89:170,1,135.000005149842
12,258,13209,2,0,P|78:279|158:262,1,135.000005149842
333,212,13895,6,0,P|432:376|279:260,1,540.000020599366
368,301,15609,5,0,0:0:0:0:
376,292,15952,1,0,0:0:0:0:
359,298,16295,1,0,0:0:0:0:
82,151,16638,6,0,B|200:112|256:192|320:272|493:175,1,405.000015449525
380,93,18009,1,0,0:0:0:0:
362,111,18352,1,0,0:0:0:0:
340,83,18695,1,0,0:0:0:0:
398,125,19038,1,0,0:0:0:0:
227,146,19381,5,0,0:0:0:0:
153,216,19723,1,0,0:0:0:0:
137,131,20066,1,0,0:0:0:0:
244,228,20409,1,0,0:0:0:0:
256,192,20752,12,0,23323,0:0:0:0:
55,55,23495,6,0,P|131:47|213:64,1,135.000005149842
162,173,24009,2,0,P|223:187|312:168,1,135.000005149842
406,169,24523,1,0,0:0:0:0:
323,90,24695,1,0,0:0:0:0:
468,266,24866,2,0,B|437:338|345:378|305:349|211:116|58:250|5:282|9:337|24:422|103:424|157:386|154:342,1,630
268,207,27609,5,0,0:0:0:0:
255,193,27952,1,0,0:0:0:0:
255,213,28295,1,0,0:0:0:0:
275,198,28638,1,0,0:0:0:0:
400,30,28981,6,0,P|381:90|391:174,1,135.000005149842
488,125,29495,2,0,L|495:290,1,135.000005149842
412,348,30009,1,0,0:0:0:0:
512,344,30181,1,0,0:0:0:0:
230,285,30352,2,0,B|209:299|227:362|289:410|354:354|392:313|413:253|336:55|116:177|68:174|22:85|43:10,1,630
180,41,33095,5,0,0:0:0:0:
205,70,33438,1,0,0:0:0:0:
222,32,33781,1,0,0:0:0:0:
170,85,34123,1,0,0:0:0:0:
418,169,34466,6,0,L|283:161,1,135.000005149842
379,265,34980,2,0,L|244:269,1,135.000005149842
75,270,35494,1,0,0:0:0:0:
165,211,35666,1,0,0:0:0:0:
256,192,35838,12,0,45438,0:0:0:0:
256,192,46123,12,0,55381,0:0:0:0:
155,138,55552,5,0,0:0:0:0:
210,234,55895,1,0,0:0:0:0:
210,234,56409,1,0,0:0:0:0:
102,142,56752,2,0,L|229:140,1,101.250003862381
122,229,57266,2,0,L|274:242,1,135.000005149842
364,313,57866,1,0,0:0:0:0:
413,137,58038,2,0,L|416:257,1,101.250003862381
507,94,58466,2,0,L|512:162,1,67.5000025749208
284,201,58981,6,0,P|320:209|356:202,2,67.5000025749208
100,119,59495,2,0,L|0:106,1,101.250003862381
136,90,60095,2,0,P|141:148|122:198,1,101.250003862381
273,301,60523,6,0,L|132:261,1,135.000005149842
401,220,61038,2,0,P|312:180|232:184,2,168.750006437302
82,77,62238,6,0,L|68:233,1,135.000005149842
80,316,62752,1,0,0:0:0:0:
182,163,62923,2,0,L|164:256,1,67.5000025749208
350,331,63266,6,0,P|286:336|216:311,1,135.000005149842
282,115,63781,2,0,L|286:267,1,135.000005149842
431,60,64295,2,0,P|513:134|402:195,1,270.000010299683
235,97,65152,6,0,B|187:172|165:289|216:339|215:405|266:413|320:351|322:323|316:304|280:294,1,405.000015449525
307,191,66523,1,0,0:0:0:0:
307,191,66866,1,0,0:0:0:0:
73,86,67381,6,0,P|101:168|210:213,1,202.500007724762
307,220,68066,1,0,0:0:0:0:
328,197,68238,1,0,0:0:0:0:
339,228,68409,1,0,0:0:0:0:
268,132,68581,1,0,0:0:0:0:
284,122,68752,5,0,0:0:0:0:
210,223,68923,1,0,0:0:0:0:
227,240,69095,1,0,0:0:0:0:
75,92,69266,2,0,L|167:99,1,67.5000025749208
123,333,69609,2,0,P|105:280|114:198,1,135.000005149842
354,112,70123,6,0,P|325:194|216:239,1,202.500007724762
113,189,70809,1,0,0:0:0:0:
131,160,70980,1,0,0:0:0:0:
152,195,71151,1,0,0:0:0:0:
99,174,71323,1,0,0:0:0:0:
172,354,71494,5,0,0:0:0:0:
147,214,71665,1,0,0:0:0:0:
292,316,71837,1,0,0:0:0:0:
249,156,72009,2,0,L|242:253,1,67.5000025749208
307,302,72352,1,0,0:0:0:0:
420,197,72523,1,0,0:0:0:0:
429,187,72695,1,0,0:0:0:0:
383,115,72867,6,0,P|296:101|233:1,1,202.500007724762
139,46,73552,1,0,0:0:0:0:
117,30,73724,1,0,0:0:0:0:
126,71,73895,1,0,0:0:0:0:
193,170,74067,1,0,0:0:0:0:
196,147,74238,5,0,0:0:0:0:
103,224,74409,1,0,0:0:0:0:
103,248,74581,5,0,0:0:0:0:
294,276,74752,2,0,L|227:271,1,67.5000025749208
414,335,75095,2,0,P|396:282|405:200,1,135.000005149842
335,106,75609,6,0,P|251:131|203:239,1,202.500007724762
265,312,76294,1,0,0:0:0:0:
237,296,76466,1,0,0:0:0:0:
249,319,76637,1,0,0:0:0:0:
268,285,76809,1,0,0:0:0:0:
407,261,76980,5,0,0:0:0:0:
406,79,77151,1,0,0:0:0:0:
472,187,77323,1,0,0:0:0:0:
235,171,77494,2,0,L|327:178,1,67.5000025749208
170,84,77838,1,0,0:0:0:0:
278,94,78009,1,0,0:0:0:0:
121,176,78181,1,0,0:0:0:0:
271,284,78352,6,0,L|137:285,1,135.000005149842
44,291,78866,1,0,0:0:0:0:
171,56,79038,2,0,L|175:149,1,67.5000025749208
181,210,79381,1,0,0:0:0:0:
291,133,79552,2,0,P|356:124|453:129,2,135.000005149842
85,169,80409,1,0,0:0:0:0:
325,231,80581,2,0,L|190:224,1,135.000005149842
0,303,81095,6,0,L|151:321,1,135.000005149842
263,319,81609,1,0,0:0:0:0:
212,148,81781,2,0,L|211:224,1,67.5000025749208
257,287,82124,1,0,0:0:0:0:
373,161,82295,2,0,B|394:94|423:68|423:68|392:50,2,135.000005149842
371,312,83152,1,0,0:0:0:0:
512,192,83324,2,0,L|377:185,1,135.000005149842
87,189,83838,6,0,L|236:216,1,135.000005149842
308,278,84352,1,0,0:0:0:0:
114,325,84523,2,0,L|200:300,1,67.5000025749208
306,198,84866,1,0,0:0:0:0:
202,97,85038,2,0,B|163:63|163:63|123:70|79:40,2,135.000005149842
378,256,85894,1,0,0:0:0:0:
296,44,86066,2,0,L|289:201,1,135.000005149842
179,342,86581,6,0,L|199:198,1,135.000005149842
173,108,87095,1,0,0:0:0:0:
41,174,87267,2,0,L|131:175,1,67.5000025749208
260,187,87610,1,0,0:0:0:0:
159,279,87781,2,0,P|215:324|306:346,2,135.000005149842
158,132,88638,1,0,0:0:0:0:
373,145,88810,2,0,L|263:245,1,135.000005149842
123,348,89323,5,0,0:0:0:0:
178,247,89666,2,0,P|164:182|206:131,2,135.000005149842
366,139,91209,5,0,0:0:0:0:
462,28,91381,1,0,0:0:0:0:
277,136,91552,1,0,0:0:0:0:
460,105,91723,1,0,0:0:0:0:
222,34,91895,1,0,0:0:0:0:
473,225,92066,2,0,L|415:192,1,67.5000025749208
110,136,92409,2,0,L|258:136,1,135.000005149842
367,322,93952,6,0,L|351:256,1,67.5000025749208
357,141,94295,1,0,0:0:0:0:
424,212,94466,1,0,0:0:0:0:
52,185,94809,6,0,B|141:138|241:350|326:131|421:201,1,382.5
280,123,96695,5,0,0:0:0:0:
267,38,96866,1,0,0:0:0:0:
349,85,97038,1,0,0:0:0:0:
129,84,97209,2,0,L|212:90,1,67.5000025749208
55,167,97552,6,0,L|153:168,1,67.5000025749208
250,190,97895,1,0,0:0:0:0:
90,265,98066,2,0,L|185:266,1,67.5000025749208
398,196,98409,2,0,L|330:191,1,67.5000025749208
148,104,98752,2,0,L|231:108,1,67.5000025749208
309,68,99095,5,0,0:0:0:0:
308,259,99266,2,0,L|308:210,1,33.7500012874604
285,217,99438,1,0,0:0:0:0:
137,129,99609,2,0,L|339:141,1,202.500007724762
256,192,100295,12,0,105438,0:0:0:0:
84,55,105781,5,0,0:0:0:0:
161,100,105952,1,0,0:0:0:0:
56,120,106123,1,0,0:0:0:0:
172,19,106295,1,0,0:0:0:0:
226,169,106466,5,0,0:0:0:0:
145,247,106638,1,0,0:0:0:0:
250,248,106809,1,0,0:0:0:0:
133,168,106981,1,0,0:0:0:0:
238,144,107152,5,0,0:0:0:0:
320,239,107323,1,0,0:0:0:0:
359,135,107495,5,0,0:0:0:0:
182,256,107666,1,0,0:0:0:0:
355,273,107838,5,0,0:0:0:0:
231,168,108009,1,0,0:0:0:0:
190,323,108181,5,0,0:0:0:0:
290,115,108352,1,0,0:0:0:0:
90,67,108523,5,0,0:0:0:0:
90,89,108609,1,0,0:0:0:0:
132,103,108695,2,0,L|131:166,1,33.7500012874604
137,324,108866,2,0,L|132:263,1,33.7500012874604
172,261,109038,1,0,0:0:0:0:
171,234,109123,1,0,0:0:0:0:
203,208,109209,5,0,0:0:0:0:
238,223,109295,1,0,0:0:0:0:
279,227,109381,1,0,0:0:0:0:
310,196,109466,1,0,0:0:0:0:
310,148,109552,1,0,0:0:0:0:
279,117,109638,1,0,0:0:0:0:
246,106,109723,1,0,0:0:0:0:
204,127,109809,1,0,0:0:0:0:
175,143,109895,6,0,L|118:149,1,33.7500012874604
315,295,110066,2,0,L|255:299,1,33.7500012874604
490,135,110238,2,0,L|431:136,1,33.7500012874604
360,145,110409,1,0,0:0:0:0:
461,341,110752,5,0,0:0:0:0:
85,311,111266,2,0,B|145:306|145:306|194:321|194:321|267:300|267:300|332:303,1,215.999993408203
420,123,111781,1,0,0:0:0:0:
421,165,111866,1,0,0:0:0:0:
402,203,111952,2,0,L|473:213,1,53.9999983520508
372,225,112123,1,0,0:0:0:0:
112,194,112295,2,0,P|160:215|235:191,1,107.999996704102
344,113,112638,5,0,0:0:0:0:
287,323,112809,1,0,0:0:0:0:
208,181,112981,1,0,0:0:0:0:
342,216,113152,1,0,0:0:0:0:
380,211,113238,1,0,0:0:0:0:
403,193,113323,2,0,L|445:243,1,53.9999983520508
345,126,113495,1,0,0:0:0:0:
308,127,113581,1,0,0:0:0:0:
274,108,113666,2,0,P|276:55|321:13,1,107.999996704102
61,90,114009,6,0,B|119:87|119:87|207:100,1,107.999996704102
373,108,114352,1,0,0:0:0:0:
291,250,114523,1,0,0:0:0:0:
277,223,114609,1,0,0:0:0:0:
259,192,114695,2,0,L|333:172,1,53.9999983520508
224,183,114866,1,0,0:0:0:0:
498,216,115038,2,0,P|444:222|390:209,1,107.999996704102
76,214,115381,5,0,0:0:0:0:
381,92,115552,2,0,P|327:83|240:116,1,107.999996704102
103,143,115895,1,0,0:0:0:0:
87,131,115981,1,0,0:0:0:0:
83,112,116066,1,0,0:0:0:0:
157,293,116238,1,0,0:0:0:0:
177,68,116495,1,0,0:0:0:0:
177,68,116581,1,0,0:0:0:0:
306,300,116752,6,0,B|319:228|319:228|306:166|306:166|316:116|316:116|303:62,1,215.999993408203
200,221,117266,1,0,0:0:0:0:
346,182,117438,1,0,0:0:0:0:
267,49,117609,1,0,0:0:0:0:
119,281,117781,2,0,B|106:237|106:237|118:196|118:196|118:176,1,107.999996704102
130,69,118123,6,0,P|209:59|331:79,1,161.999995056153
315,101,118466,1,0,0:0:0:0:
369,308,118638,1,0,0:0:0:0:
383,272,118723,1,0,0:0:0:0:
390,238,118809,2,0,L|454:305,1,53.9999983520508
291,232,118981,1,0,0:0:0:0:
268,263,119066,1,0,0:0:0:0:
233,275,119152,1,0,0:0:0:0:
89,132,119323,6,0,B|157:137|157:137|205:127|205:127|264:147|264:147|316:142,1,225
330,123,119838,1,0,0:0:0:0:
473,232,120009,2,0,B|405:237|405:237|357:227|357:227|321:238|321:238|266:242,1,180
267,227,120523,1,0,0:0:0:0:
38,337,120695,6,0,B|79:340|79:340|120:332|120:332|158:339|158:339|192:333,1,134.999995880127
183,325,121209,1,0,0:0:0:0:
88,244,121381,1,0,0:0:0:0:
73,120,121552,5,0,0:0:0:0:
130,323,121723,1,0,0:0:0:0:
219,118,121895,5,0,0:0:0:0:
0,221,122066,1,0,0:0:0:0:
225,227,122238,6,0,P|284:238|349:231,1,107.999996704102
463,126,122581,1,0,0:0:0:0:
446,285,122752,1,0,0:0:0:0:
419,304,122837,1,0,0:0:0:0:
377,312,122923,2,0,L|373:378,1,53.9999983520508
339,310,123094,1,0,0:0:0:0:
51,276,123266,2,0,P|107:292|174:273,1,107.999996704102
356,212,123609,5,0,0:0:0:0:
147,160,123780,1,0,0:0:0:0:
306,79,123952,1,0,0:0:0:0:
284,253,124123,1,0,0:0:0:0:
270,282,124209,1,0,0:0:0:0:
242,299,124295,2,0,L|287:345,1,53.9999983520508
184,223,124466,1,0,0:0:0:0:
200,190,124552,1,0,0:0:0:0:
231,170,124637,2,0,P|283:164|349:174,1,107.999996704102
101,62,124980,6,0,L|247:72,1,107.999996704102
468,118,125323,1,0,0:0:0:0:
279,176,125494,1,0,0:0:0:0:
275,213,125580,1,0,0:0:0:0:
258,247,125666,2,0,L|333:260,1,53.9999983520508
231,271,125837,1,0,0:0:0:0:
3,342,126009,2,0,B|74:341|74:341|139:322,1,107.999996704102
344,267,126352,5,0,0:0:0:0:
173,191,126523,2,0,P|116:177|65:187,1,107.999996704102
83,276,126866,1,0,0:0:0:0:
82,303,126952,1,0,0:0:0:0:
80,329,127037,1,0,0:0:0:0:
183,205,127209,1,0,0:0:0:0:
85,30,127381,1,0,0:0:0:0:
85,59,127466,1,0,0:0:0:0:
83,91,127552,1,0,0:0:0:0:
318,34,127723,6,0,B|313:92|313:92|329:143|329:143|314:198|314:198|327:283,1,215.999993408203
426,352,128237,1,0,0:0:0:0:
283,206,128409,1,0,0:0:0:0:
427,142,128580,1,0,0:0:0:0:
162,204,128752,2,0,P|218:199|283:211,1,107.999996704102
501,308,129094,6,0,B|458:299|458:299|416:305|416:305|381:297|381:297|339:299,1,161.999995056153
308,325,129437,1,0,0:0:0:0:
266,173,129609,1,0,0:0:0:0:
242,151,129694,1,0,0:0:0:0:
199,144,129780,2,0,L|219:94,1,53.9999983520508
137,269,129952,1,0,0:0:0:0:
176,269,130037,1,0,0:0:0:0:
212,249,130123,1,0,0:0:0:0:
115,186,130294,6,0,B|114:150|114:150|129:122|129:122|118:89|118:89|128:31,1,161.999995056153
161,17,130638,1,0,0:0:0:0:
482,164,130809,2,0,B|410:163|410:163|356:177|356:177|284:161|284:161|211:162,1,269.999991760254
180,120,131323,1,0,0:0:0:0:
168,155,131409,1,0,0:0:0:0:
141,181,131494,1,0,0:0:0:0:
70,306,131666,6,0,B|127:301|127:301|170:318|170:318|232:308|232:308|300:310,1,215.999993408203
433,287,132181,1,0,0:0:0:0:
333,158,132352,1,0,0:0:0:0:
482,212,132523,5,0,0:0:0:0:
245,241,132694,1,0,0:0:0:0:
431,117,132866,5,0,0:0:0:0:
324,327,133037,1,0,0:0:0:0:
295,25,133209,6,0,B|301:67|301:67|291:105|291:105|302:125|302:125|302:183,1,135
316,193,133552,1,0,0:0:0:0:
455,152,133723,1,0,0:0:0:0:
447,121,133809,1,0,0:0:0:0:
453,79,133895,1,0,0:0:0:0:
479,46,133981,1,0,0:0:0:0:
505,63,134066,2,0,B|500:108|500:108|511:159|511:159|497:209|497:209|507:269,1,180
421,343,134581,5,0,0:0:0:0:
347,202,134752,1,0,0:0:0:0:
336,161,134838,1,0,0:0:0:0:
344,124,134923,1,0,0:0:0:0:
169,321,135181,1,0,0:0:0:0:
135,309,135266,1,0,0:0:0:0:
110,272,135352,1,0,0:0:0:0:
116,232,135438,2,0,L|43:233,1,45
142,208,135609,1,0,0:0:0:0:
88,37,135781,1,0,0:0:0:0:
392,124,135952,6,0,B|345:120|345:120|301:127|301:127|258:120,1,135
61,122,136295,1,0,0:0:0:0:
149,230,136466,1,0,0:0:0:0:
307,99,136638,1,0,0:0:0:0:
312,143,136723,1,0,0:0:0:0:
328,173,136809,1,0,0:0:0:0:
360,197,136895,2,0,L|429:191,1,45
467,278,137066,2,0,L|422:275,1,45
219,327,137323,5,0,0:0:0:0:
333,280,137495,1,0,0:0:0:0:
215,78,137666,2,0,B|211:118|211:118|214:143|214:143|213:194,1,90
233,351,138009,1,0,0:0:0:0:
109,45,138181,2,0,B|105:85|105:85|108:110|108:110|107:161,1,90
118,327,138523,1,0,0:0:0:0:
61,162,138695,6,0,B|114:157|114:157|191:164,1,90
465,75,139038,2,0,B|420:83|420:83|385:65|385:65|340:77|340:77|285:72,1,180
184,188,139552,1,0,0:0:0:0:
176,220,139638,1,0,0:0:0:0:
156,251,139723,2,0,L|235:246,1,45
127,273,139895,1,0,0:0:0:0:
462,219,140066,6,0,B|415:212|415:212|372:221,1,90
97,299,140409,1,0,0:0:0:0:
304,301,140581,1,0,0:0:0:0:
315,325,140666,1,0,0:0:0:0:
340,350,140752,1,0,0:0:0:0:
311,145,140923,1,0,0:0:0:0:
331,118,141009,1,0,0:0:0:0:
361,103,141095,2,0,B|412:109|412:109|481:107,1,90
244,219,141438,5,0,0:0:0:0:
264,81,141609,1,0,0:0:0:0:
442,236,141781,2,0,B|396:239|396:239|353:228,1,90
114,142,142123,1,0,0:0:0:0:
96,121,142209,1,0,0:0:0:0:
95,89,142295,1,0,0:0:0:0:
114,62,142381,1,0,0:0:0:0:
157,68,142466,2,0,B|145:120|145:120|156:164|156:164|143:206|143:206|145:264,1,180
61,334,142981,5,0,0:0:0:0:
116,189,143152,2,0,L|212:193,1,90
378,224,143495,5,0,0:0:0:0:
390,80,143666,1,0,0:0:0:0:
290,219,143838,5,0,0:0:0:0:
483,125,144009,1,0,0:0:0:0:
279,77,144181,6,0,B|237:83|237:83|198:74|198:74|179:85|179:85|121:86,1,135
159,64,144524,1,0,0:0:0:0:
324,143,144695,1,0,0:0:0:0:
208,182,144867,1,0,0:0:0:0:
366,340,145038,2,0,B|360:309|360:309|374:259|374:259|363:208|363:208|368:163,1,180
483,22,145553,5,0,0:0:0:0:
457,201,145724,1,0,0:0:0:0:
473,231,145810,1,0,0:0:0:0:
502,247,145895,1,0,0:0:0:0:
247,193,146153,1,0,0:0:0:0:
264,218,146238,1,0,0:0:0:0:
279,256,146324,1,0,0:0:0:0:
276,291,146410,2,0,L|203:292,1,45
303,321,146581,1,0,0:0:0:0:
367,132,146753,1,0,0:0:0:0:
113,189,146924,6,0,B|156:196|156:196|200:189|200:189|247:193,1,135
475,275,147267,1,0,0:0:0:0:
298,290,147438,1,0,0:0:0:0:
378,175,147610,1,0,0:0:0:0:
396,147,147695,1,0,0:0:0:0:
429,130,147781,1,0,0:0:0:0:
462,126,147867,2,0,L|452:60,1,45
361,208,148123,1,0,0:0:0:0:
320,71,148295,5,0,0:0:0:0:
231,280,148467,1,0,0:0:0:0:
64,141,148638,2,0,B|121:139|121:139|190:148,1,90
364,166,148981,1,0,0:0:0:0:
229,258,149152,2,0,B|172:260|172:260|103:251,1,90
50,60,149495,1,0,0:0:0:0:
179,181,149667,6,0,B|177:134|177:134|183:91,1,90
323,312,150010,2,0,B|325:259|325:259|311:214|311:214|321:171|321:171|319:105,1,180
431,226,150523,1,0,0:0:0:0:
436,256,150610,1,0,0:0:0:0:
437,287,150695,2,0,L|516:282,1,45
426,319,150867,1,0,0:0:0:0:
120,262,151038,6,0,B|161:257|161:257|221:259,1,90
352,274,151381,1,0,0:0:0:0:
243,174,151553,1,0,0:0:0:0:
223,155,151638,1,0,0:0:0:0:
228,120,151724,1,0,0:0:0:0:
85,166,151895,1,0,0:0:0:0:
75,193,151981,1,0,0:0:0:0:
51,213,152067,2,0,B|44:251|44:251|49:274|49:274|44:321,1,90
159,250,152409,5,0,0:0:0:0:
101,146,152581,1,0,0:0:0:0:
226,180,152753,2,0,B|274:182|274:182|346:192,1,90
435,234,153095,1,0,0:0:0:0:
431,260,153181,1,0,0:0:0:0:
416,286,153267,1,0,0:0:0:0:
388,310,153353,1,0,0:0:0:0:
345,294,153438,2,0,B|366:253|366:253|373:206|373:206|409:167|409:167|435:120,1,180
372,13,153953,5,0,0:0:0:0:
267,205,154124,2,0,B|293:148|293:148|323:112,1,90
347,33,154467,1,0,0:0:0:0:
395,133,154638,1,0,0:0:0:0:
447,50,154810,1,0,0:0:0:0:
220,96,154981,1,0,0:0:0:0:
310,299,155152,6,0,B|311:229|311:229|297:188|297:188|312:153|312:153|311:109,1,180
271,22,155666,1,0,0:0:0:0:
176,153,155838,1,0,0:0:0:0:
169,171,155923,1,0,0:0:0:0:
166,189,156009,2,0,B|156:235|156:235|157:300,1,90
222,352,156352,1,0,0:0:0:0:
357,243,156523,6,0,B|310:238|310:238|267:242,1,90
478,146,156866,2,0,B|433:148|433:148|388:143,1,90
255,111,157209,1,0,0:0:0:0:
220,105,157295,1,0,0:0:0:0:
191,91,157381,1,0,0:0:0:0:
171,71,157466,2,0,L|167:144,1,45
129,304,157723,1,0,0:0:0:0:
57,40,157895,6,0,B|49:101|49:101|59:143|59:143|48:185|48:185|50:222,1,180
59,349,158409,1,0,0:0:0:0:
224,278,158581,1,0,0:0:0:0:
252,288,158666,1,0,0:0:0:0:
289,282,158752,2,0,L|303:359,1,45
317,260,158923,1,0,0:0:0:0:
380,159,159095,1,0,0:0:0:0:
465,324,159266,6,0,B|471:270|471:270|465:205,1,90
375,102,159609,2,0,B|372:134|372:134|379:192,1,90
364,304,159952,1,0,0:0:0:0:
311,224,160124,1,0,0:0:0:0:
381,325,160295,1,0,0:0:0:0:
291,191,160466,1,0,0:0:0:0:
94,114,160638,6,0,B|101:173|101:173|91:218|91:218|117:252|117:252|112:316,1,180
30,362,161152,1,0,0:0:0:0:
216,227,161324,1,0,0:0:0:0:
246,229,161409,1,0,0:0:0:0:
273,239,161495,2,0,B|316:243|316:243|375:240,1,90
448,167,161838,1,0,0:0:0:0:
196,112,162009,6,0,B|246:123|246:123|315:113,1,90
72,11,162352,2,0,B|60:63|60:63|64:115,1,90
61,212,162695,1,0,0:0:0:0:
60,245,162781,1,0,0:0:0:0:
73,269,162867,1,0,0:0:0:0:
104,284,162952,2,0,L|163:290,1,45
293,298,163209,1,0,0:0:0:0:
508,212,163381,6,0,B|455:217|455:217|421:198|421:198|378:212|378:212|328:212,1,180
211,226,163895,1,0,0:0:0:0:
302,121,164067,1,0,0:0:0:0:
331,101,164152,1,0,0:0:0:0:
358,96,164238,2,0,L|370:154,1,45
387,75,164409,1,0,0:0:0:0:
262,40,164581,1,0,0:0:0:0:
43,103,164752,6,0,B|98:114|98:114|162:104,1,90
108,240,165095,2,0,L|204:243,1,90
302,183,165438,1,0,0:0:0:0:
302,183,165610,1,0,0:0:0:0:
330,299,165781,1,0,0:0:0:0:
330,299,165952,1,0,0:0:0:0:
0,161,166123,6,0,B|-13:226|44:231|70:234|85:231|86:216|104:225|141:211|135:175|142:152|148:88|139:12|139:12|117:125|11:24|10:55|9:84|52:110|76:190|191:160,1,697.5
177,162,168866,6,0,B|244:154|275:101|275:101|320:97|348:132|348:132|464:111|382:191|382:191|455:271|382:264|380:305|380:305|336:270|286:316,1,562.5
299,305,171095,6,0,B|273:304|273:304|253:313|253:313|217:304|217:304|186:310,1,112.5
190,309,171609,2,0,B|109:192|109:192|321:210|321:210|226:291,1,472.5
231,286,173495,6,0,L|161:314,1,67.5
168,311,173838,2,0,L|297:326,1,112.5
279,323,174352,6,0,P|455:178|248:184,1,562.5
258,174,176581,2,0,L|353:235,1,112.5
352,234,177095,5,0,0:0:0:0:
367,247,177181,2,0,B|449:274|449:274|476:350,2,157.5
367,247,178466,6,0,P|300:263|232:232,1,135
306,92,179152,2,0,L|307:186,1,90
307,334,179666,1,0,0:0:0:0:
100,243,179838,6,0,P|166:230|251:248,1,135
37,149,180523,2,0,L|171:158,1,135
242,78,181209,6,0,P|270:148|252:225,1,157.5
238,239,181895,2,0,L|321:241,1,67.5
234,321,182238,2,0,L|303:329,1,67.5
478,284,182581,6,0,L|388:272,1,90
103,227,183095,2,0,L|237:238,1,135
97,130,183781,6,0,L|191:140,1,90
218,128,184209,2,0,P|221:80|206:20,2,90
221,150,184981,5,0,0:0:0:0:
143,280,185152,2,0,P|133:199|143:122,1,157.5
288,174,185923,5,0,0:0:0:0:
290,193,186009,1,0,0:0:0:0:
292,209,186095,1,0,0:0:0:0:
293,225,186181,1,0,0:0:0:0:
291,240,186266,1,0,0:0:0:0:
285,255,186352,1,0,0:0:0:0:
374,116,186523,1,0,0:0:0:0:
383,104,186609,1,0,0:0:0:0:
400,96,186695,6,0,L|412:154,1,45
377,251,186866,2,0,L|362:198,1,45
355,181,187038,1,0,0:0:0:0:
237,99,187209,1,0,0:0:0:0:
204,85,187295,1,0,0:0:0:0:
165,90,187381,1,0,0:0:0:0:
86,26,187552,1,0,0:0:0:0:
72,56,187638,1,0,0:0:0:0:
75,89,187723,1,0,0:0:0:0:
90,120,187809,1,0,0:0:0:0:
117,152,187895,1,0,0:0:0:0:
216,286,188066,5,0,0:0:0:0:
253,260,188152,1,0,0:0:0:0:
270,225,188238,1,0,0:0:0:0:
272,184,188323,1,0,0:0:0:0:
258,147,188409,1,0,0:0:0:0:
393,97,188581,1,0,0:0:0:0:
393,97,188666,1,0,0:0:0:0:
272,184,188838,1,0,0:0:0:0:
253,192,188923,1,0,0:0:0:0:
222,195,189009,1,0,0:0:0:0:
189,195,189095,2,0,P|180:156|195:87,1,90
95,283,189438,5,0,0:0:0:0:
125,294,189523,1,0,0:0:0:0:
155,290,189609,1,0,0:0:0:0:
187,269,189695,1,0,0:0:0:0:
217,288,189781,1,0,0:0:0:0:
217,288,189952,2,0,L|227:357,1,45
338,275,190123,2,0,L|329:160,1,90
353,155,190381,1,0,0:0:0:0:
356,116,190466,1,0,0:0:0:0:
235,59,190638,1,0,0:0:0:0:
224,89,190723,1,0,0:0:0:0:
200,101,190809,5,0,0:0:0:0:
173,90,190895,1,0,0:0:0:0:
178,58,190981,1,0,0:0:0:0:
182,31,191066,1,0,0:0:0:0:
191,9,191152,1,0,0:0:0:0:
54,222,191409,1,0,0:0:0:0:
62,251,191495,2,0,L|51:309,1,45
166,360,191666,2,0,L|165:310,1,45
164,285,191838,1,0,0:0:0:0:
253,149,192009,1,0,0:0:0:0:
271,126,192095,1,0,0:0:0:0:
297,118,192181,5,0,0:0:0:0:
326,124,192266,1,0,0:0:0:0:
348,143,192352,1,0,0:0:0:0:
354,166,192438,1,0,0:0:0:0:
345,189,192523,1,0,0:0:0:0:
456,140,192695,1,0,0:0:0:0:
445,100,192781,1,0,0:0:0:0:
437,67,192866,1,0,0:0:0:0:
442,238,193038,1,0,0:0:0:0:
428,263,193123,1,0,0:0:0:0:
408,288,193209,2,0,L|431:355,1,45
264,244,193381,2,0,L|286:302,1,45
103,134,193552,6,0,P|91:219|182:266,1,180
209,55,194066,2,0,L|211:121,1,45
212,199,194323,1,0,0:0:0:0:
213,217,194409,1,0,0:0:0:0:
349,150,194581,1,0,0:0:0:0:
137,115,194752,1,0,0:0:0:0:
113,87,194838,1,0,0:0:0:0:
106,56,194923,5,0,0:0:0:0:
92,37,195009,1,0,0:0:0:0:
77,60,195095,1,0,0:0:0:0:
51,81,195181,1,0,0:0:0:0:
24,88,195266,1,0,0:0:0:0:
88,200,195438,2,0,P|190:220|292:201,1,180
379,251,195952,1,0,0:0:0:0:
379,251,196123,1,0,0:0:0:0:
370,143,196295,5,0,0:0:0:0:
348,122,196381,1,0,0:0:0:0:
315,117,196466,1,0,0:0:0:0:
281,124,196552,1,0,0:0:0:0:
248,129,196638,1,0,0:0:0:0:
187,50,196809,1,0,0:0:0:0:
131,155,196981,1,0,0:0:0:0:
123,179,197066,1,0,0:0:0:0:
132,204,197152,1,0,0:0:0:0:
152,225,197238,1,0,0:0:0:0:
178,232,197323,1,0,0:0:0:0:
0,165,197495,5,0,0:0:0:0:
0,165,197581,1,0,0:0:0:0:
0,165,197666,6,0,P|293:84|225:355,1,675
220,315,199038,6,0,P|235:265|221:209,1,101.250003862381
113,140,199381,2,0,P|98:190|112:246,1,101.250003862381
299,257,199723,2,0,P|286:206|245:165,1,101.250003862381
96,172,200066,2,0,P|108:222|149:263,1,101.250003862381
453,215,200409,6,0,P|403:230|347:216,1,101.250003862381
266,51,200752,2,0,P|316:36|372:50,1,101.250003862381
465,137,201095,2,0,P|440:182|390:212,1,101.250003862381
206,155,201438,2,0,P|230:109|280:79,1,101.250003862381
256,192,201781,12,0,204181,0:0:0:0:
61,284,204523,6,0,B|110:279|110:279|166:289,1,90
371,331,204866,1,0,0:0:0:0:
180,364,205038,1,0,0:0:0:0:
243,105,205209,2,0,B|246:152|246:152|241:213,1,90
348,33,205552,2,0,B|337:76|337:76|343:139,1,90
350,232,205895,5,0,0:0:0:0:
437,151,206066,1,0,0:0:0:0:
455,298,206238,5,0,0:0:0:0:
333,135,206409,1,0,0:0:0:0:
496,223,206581,5,0,0:0:0:0:
282,285,206752,1,0,0:0:0:0:
399,65,206923,5,0,0:0:0:0:
374,315,207095,1,0,0:0:0:0:
222,156,207266,5,0,0:0:0:0:
186,144,207352,1,0,0:0:0:0:
147,147,207438,1,0,0:0:0:0:
111,158,207523,1,0,0:0:0:0:
84,183,207609,1,0,0:0:0:0:
82,213,207695,1,0,0:0:0:0:
55,194,207781,1,0,0:0:0:0:
19,188,207866,1,0,0:0:0:0:
8,167,207952,2,0,L|4:122,1,45
119,0,208123,2,0,L|124:64,1,45
160,214,208295,5,0,0:0:0:0:
177,242,208381,1,0,0:0:0:0:
203,261,208466,1,0,0:0:0:0:
235,271,208552,1,0,0:0:0:0:
272,258,208638,2,0,L|333:259,1,45
508,156,208809,2,0,L|463:154,1,45
166,62,208981,2,0,L|254:65,1,45
287,67,209152,1,0,0:0:0:0:
294,93,209495,1,0,0:0:0:0:
275,0,210009,6,0,B|262:51|309:76|309:76|294:137|294:137|358:165|358:221|358:221|341:306,1,306.000005836487
204,175,210524,1,0,0:0:0:0:
217,203,210609,1,0,0:0:0:0:
214,255,210695,2,0,L|284:210,1,76.5000014591217
202,283,210866,1,0,0:0:0:0:
39,97,211038,2,0,B|129:90|129:90|219:95,1,153.000002918243
347,122,211381,5,0,0:0:0:0:
205,26,211552,1,0,0:0:0:0:
168,202,211724,1,0,0:0:0:0:
296,42,211895,1,0,0:0:0:0:
315,38,211981,1,0,0:0:0:0:
338,42,212066,2,0,L|444:61,1,76.5000014591217
130,149,212238,2,0,L|237:142,1,76.5000014591217
327,347,212409,2,0,P|307:277|344:166,1,153.000002918243
209,30,212752,6,0,L|196:215,1,153.000002918243
120,353,213095,1,0,0:0:0:0:
244,268,213266,1,0,0:0:0:0:
276,270,213352,1,0,0:0:0:0:
301,271,213438,2,0,P|305:227|321:180,1,76.5000014591217
316,304,213609,1,0,0:0:0:0:
177,24,213781,2,0,P|156:97|166:173,1,153.000002918243
202,315,214124,5,0,0:0:0:0:
413,112,214295,2,0,L|260:107,1,153.000002918243
60,106,214638,1,0,0:0:0:0:
27,105,214724,1,0,0:0:0:0:
16,88,214809,1,0,0:0:0:0:
113,217,214981,1,0,0:0:0:0:
223,68,215238,1,0,0:0:0:0:
227,39,215324,1,0,0:0:0:0:
193,229,215495,6,0,B|246:241|295:215|295:215|401:255|401:255|451:227|521:243,1,306.000005836487
384,138,216009,1,0,0:0:0:0:
323,328,216181,1,0,0:0:0:0:
257,188,216352,1,0,0:0:0:0:
58,317,216524,2,0,B|144:315|144:315|230:330,1,153.000002918243
273,44,216866,6,0,P|229:132|286:275,1,229.500004377365
283,253,217209,1,0,0:0:0:0:
323,142,217381,1,0,0:0:0:0:
328,118,217466,1,0,0:0:0:0:
353,98,217552,2,0,L|430:190,1,76.5000014591217
279,307,217723,2,0,L|226:251,1,76.5000014591217
195,275,217895,1,0,0:0:0:0:
510,210,218066,6,0,B|408:158|307:241|204:196,1,306.000005836487
80,65,218581,1,0,0:0:0:0:
29,294,218752,2,0,P|106:363|113:224,1,306.000005836487
183,169,219181,1,0,0:0:0:0:
179,201,219266,1,0,0:0:0:0:
304,98,219438,6,0,P|381:29|388:168,1,306.000005836487
308,242,219952,1,0,0:0:0:0:
374,100,220124,1,0,0:0:0:0:
234,158,220295,1,0,0:0:0:0:
390,199,220466,1,0,0:0:0:0:
177,93,220638,1,0,0:0:0:0:
99,293,220809,1,0,0:0:0:0:
144,122,220981,6,0,L|312:126,1,153.000002918243
413,47,221324,1,0,0:0:0:0:
397,170,221495,1,0,0:0:0:0:
369,197,221580,1,0,0:0:0:0:
337,212,221666,2,0,L|431:224,1,76.5000014591217
299,209,221837,1,0,0:0:0:0:
186,37,222009,2,0,P|180:149|155:216,1,153.000002918243
110,312,222352,5,0,0:0:0:0:
236,297,222523,1,0,0:0:0:0:
60,199,222695,1,0,0:0:0:0:
247,133,222866,1,0,0:0:0:0:
275,119,222952,1,0,0:0:0:0:
287,102,223037,2,0,L|389:117,1,76.5000014591217
484,226,223209,2,0,L|407:229,1,76.5000014591217
146,212,223380,2,0,P|209:236|317:221,1,153.000002918243
234,0,223723,6,0,L|236:168,1,153.000002918243
198,328,224066,1,0,0:0:0:0:
128,151,224237,1,0,0:0:0:0:
101,132,224323,1,0,0:0:0:0:
82,118,224409,2,0,L|177:135,1,76.5000014591217
44,119,224580,1,0,0:0:0:0:
371,256,224752,2,0,P|305:261|218:245,1,153.000002918243
44,192,225095,5,0,0:0:0:0:
275,106,225266,2,0,P|194:119|243:172,1,153.000002918243
265,308,225609,1,0,0:0:0:0:
264,333,225695,1,0,0:0:0:0:
263,355,225780,1,0,0:0:0:0:
312,183,225952,1,0,0:0:0:0:
422,165,226124,1,0,0:0:0:0:
454,166,226209,1,0,0:0:0:0:
490,173,226295,1,0,0:0:0:0:
6,164,226466,6,0,B|75:188|129:166|129:166|191:199|231:182|231:182|321:183,1,306.000005836487
362,82,226980,1,0,0:0:0:0:
372,262,227152,1,0,0:0:0:0:
479,157,227323,1,0,0:0:0:0:
257,191,227495,2,0,P|217:136|215:43,1,153.000002918243
368,276,227837,6,0,L|350:48,1,229.500004377365
366,22,228180,1,0,0:0:0:0:
255,138,228352,1,0,0:0:0:0:
225,144,228437,1,0,0:0:0:0:
192,144,228523,2,0,L|273:230,1,76.5000014591217
198,363,228695,2,0,L|126:257,1,76.5000014591217
138,269,228866,1,0,0:0:0:0:
8,142,229037,6,0,L|202:142,1,153.000002918243
299,120,229381,1,0,0:0:0:0:
310,273,229552,2,0,P|212:316|277:205,1,306.000005836487
389,198,230066,1,0,0:0:0:0:
426,197,230152,1,0,0:0:0:0:
464,201,230237,1,0,0:0:0:0:
65,177,230409,6,0,B|157:185|157:185|227:149|227:149|331:187|331:187|407:185,1,306.000005836487
432,52,230923,1,0,0:0:0:0:
317,86,231095,1,0,0:0:0:0:
464,201,231266,1,0,0:0:0:0:
447,27,231437,1,0,0:0:0:0:
277,166,231609,1,0,0:0:0:0:
512,137,231780,1,0,0:0:0:0:
312,167,231952,6,0,P|154:165|26:289,1,306.000005836487
210,295,232467,1,0,0:0:0:0:
212,258,232552,1,0,0:0:0:0:
214,222,232638,2,0,L|128:182,1,76.5000014591217
240,205,232809,1,0,0:0:0:0:
503,237,232981,2,0,P|426:256|350:236,1,153.000002918243
218,155,233324,5,0,0:0:0:0:
235,329,233495,1,0,0:0:0:0:
342,168,233667,1,0,0:0:0:0:
122,254,233838,1,0,0:0:0:0:
115,217,233924,1,0,0:0:0:0:
91,200,234009,2,0,P|82:158|92:113,1,76.5000014591217
268,26,234181,2,0,P|272:63|264:100,1,76.5000014591217
365,200,234352,2,0,L|212:193,1,153.000002918243
47,291,234695,6,0,L|218:302,1,153.000002918243
359,311,235038,1,0,0:0:0:0:
362,135,235209,1,0,0:0:0:0:
331,118,235295,1,0,0:0:0:0:
303,101,235381,2,0,L|402:118,1,76.5000014591217
279,103,235552,1,0,0:0:0:0:
157,343,235724,2,0,P|142:279|171:180,1,153.000002918243
238,73,236067,5,0,0:0:0:0:
387,274,236238,2,0,L|234:269,1,153.000002918243
55,280,236581,5,0,0:0:0:0:
21,285,236667,1,0,0:0:0:0:
0,282,236752,1,0,0:0:0:0:
287,192,236924,1,0,0:0:0:0:
129,102,237181,1,0,0:0:0:0:
130,76,237267,1,0,0:0:0:0:
400,140,237438,6,0,P|369:259|293:163,1,306.000005836487
368,38,237952,1,0,0:0:0:0:
356,194,238124,1,0,0:0:0:0:
493,92,238295,1,0,0:0:0:0:
272,107,238467,2,0,L|119:94,1,153.000002918243
407,207,238809,6,0,P|296:230|189:191,1,229.500004377365
189,148,239152,1,0,0:0:0:0:
116,292,239324,1,0,0:0:0:0:
91,315,239409,1,0,0:0:0:0:
63,323,239495,2,0,L|152:418,1,76.5000014591217
214,200,239666,2,0,L|137:200,1,76.5000014591217
116,219,239838,1,0,0:0:0:0:
131,77,240009,6,0,P|293:40|394:170,1,306.000005836487
437,231,240524,1,0,0:0:0:0:
279,334,240695,2,0,P|186:185|266:143,1,306.000005836487
442,142,241209,1,0,0:0:0:0:
373,291,241381,6,0,P|367:393|325:286,1,306.000005836487
358,97,241895,1,0,0:0:0:0:
149,307,242067,1,0,0:0:0:0:
180,123,242238,6,0,B|198:160|198:160|167:193|167:193|178:131,1,144
