osu file format v14

[General]
AudioFilename: audio.mp3
AudioLeadIn: 0
PreviewTime: -1
Countdown: 0
SampleSet: Soft
StackLeniency: 0.8
Mode: 0
LetterboxInBreaks: 1
EpilepsyWarning: 1
CountdownOffset: 3
WidescreenStoryboard: 1

[Editor]
DistanceSpacing: 1
BeatDivisor: 4
GridSize: 4
TimelineZoom: 1

[Metadata]
Title:XO
TitleUnicode:XO
Artist:The Eden Project
ArtistUnicode:The Eden Project
Creator:mdm604
Version:Insane
Source:
Tags:
BeatmapID:0
BeatmapSetID:680476

[Difficulty]
HPDrainRate:6
CircleSize:4
OverallDifficulty:8
ApproachRate:8
SliderMultiplier:2.2
SliderTickRate:3

[Events]
//Background and Video events
0,0,"167937-trinity-seven-lilith-asami.png",0,0
//Break Periods
//Storyboard Layer 0 (Background)
//Storyboard Layer 1 (Fail)
//Storyboard Layer 2 (Pass)
//Storyboard Layer 3 (Foreground)
//Storyboard Sound Samples

[TimingPoints]
1811.74716336065,365.853658536585,4,2,0,100,1,0

[Colours]
Combo1 : 138,230,186
Combo2 : 54,134,254
Combo3 : 166,66,204
Combo4 : 123,221,232

[HitObjects]
72,104,3000,5,0,0:0:0:0:
440,100,3549,1,0,0:0:0:0:
176,208,4098,1,0,0:0:0:0:
256,268,4281,1,0,0:0:0:0:
336,208,4464,1,0,0:0:0:0:
176,112,4830,5,0,0:0:0:0:
256,48,5012,1,0,0:0:0:0:
340,112,5195,1,0,0:0:0:0:
256,192,5561,1,0,0:0:0:0:
120,192,5927,2,0,B|248:76|276:80|408:192,1,330
256,192,6842,6,0,L|256:72,1,110
256,16,7208,1,0,0:0:0:0:
256,92,7391,1,0,0:0:0:0:
256,192,7756,1,0,0:0:0:0:
256,256,8122,2,0,L|256:376,1,110
184,368,8488,2,0,P|184:20|204:12,1,440
216,16,9403,1,0,0:0:0:0:
312,112,9769,5,0,0:0:0:0:
312,196,9951,2,0,B|312:268|256:276|260:288,1,110
196,328,10317,1,0,0:0:0:0:
112,304,10500,2,0,P|80:200|100:168,1,110
68,148,10866,2,0,P|124:116|172:144,1,110
232,96,11232,1,0,0:0:0:0:
316,88,11415,1,0,0:0:0:0:
256,192,11781,5,0,0:0:0:0:
256,268,11964,1,0,0:0:0:0:
256,344,12147,1,0,0:0:0:0:
256,192,12330,1,0,0:0:0:0:
80,192,12695,5,0,0:0:0:0:
280,148,12878,1,0,0:0:0:0:
208,336,13061,1,0,0:0:0:0:
276,276,13244,2,0,L|128:100,1,220
256,96,13793,5,0,0:0:0:0:
256,192,13976,2,0,B|324:192|392:192|312:116|296:100,1,165
296,96,14342,1,0,0:0:0:0:
176,144,14525,1,0,0:0:0:0:
172,244,14708,2,0,B|248:244|236:188|236:192,2,55
208,312,15073,2,0,P|316:324|316:256,2,165
200,228,16720,5,0,0:0:0:0:
244,144,16903,1,0,0:0:0:0:
304,180,17086,1,0,0:0:0:0:
352,204,17269,1,0,0:0:0:0:
416,232,17451,1,0,0:0:0:0:
436,308,17543,6,0,B|348:336|288:332|228:308,1,165
176,256,18183,1,0,0:0:0:0:
120,152,18366,1,0,0:0:0:0:
244,176,18549,1,0,0:0:0:0:
60,256,18732,2,0,L|144:336,2,110
192,288,19281,2,0,L|100:204,2,110
124,284,19830,1,0,0:0:0:0:
144,192,20378,6,0,B|228:108|316:136|376:224,1,275
248,260,21019,1,0,0:0:0:0:
332,340,21384,1,0,0:0:0:0:
256,192,22573,5,0,0:0:0:0:
304,120,22756,2,0,L|208:52,1,110
152,132,23122,1,0,0:0:0:0:
176,232,23305,1,0,0:0:0:0:
288,200,23488,1,0,0:0:0:0:
264,104,23671,1,0,0:0:0:0:
176,152,23854,5,0,0:0:0:0:
196,216,24037,1,0,0:0:0:0:
256,192,24220,1,0,0:0:0:0:
236,128,24403,1,0,0:0:0:0:
196,168,24586,5,0,0:0:0:0:
208,208,24769,1,0,0:0:0:0:
240,196,24951,1,0,0:0:0:0:
228,156,25134,1,0,0:0:0:0:
236,260,25317,2,0,L|292:280,2,55
368,208,25683,5,0,0:0:0:0:
276,128,25866,1,0,0:0:0:0:
252,248,26049,1,0,0:0:0:0:
100,268,26232,2,0,P|220:308|248:388,1,220
124,380,26781,2,0,P|16:284|32:192,1,220
152,240,27330,1,0,0:0:0:0:
152,112,28427,5,0,0:0:0:0:
232,120,28610,2,0,L|344:160,2,110
308,232,29159,2,0,L|248:268,2,55
208,204,29525,2,0,L|192:144,2,55
256,120,29891,2,0,L|300:160,2,55
232,192,30256,2,0,L|180:236,2,55
160,160,30622,2,0,L|176:96,2,55
252,116,30988,2,0,L|300:152,2,55
304,232,31354,2,0,L|248:240,2,55
184,200,31720,2,0,L|192:140,2,55
288,120,32086,5,0,0:0:0:0:
364,180,32269,1,0,0:0:0:0:
404,212,32360,1,0,0:0:0:0:
440,236,32451,1,0,0:0:0:0:
408,320,32634,5,0,0:0:0:0:
308,248,32817,1,0,0:0:0:0:
232,168,33000,1,0,0:0:0:0:
172,92,33183,1,0,0:0:0:0:
112,16,33366,1,0,0:0:0:0:
256,192,34281,5,0,0:0:0:0:
168,108,34464,2,0,P|296:108|380:152,1,220
256,192,35012,1,0,0:0:0:0:
224,296,35195,1,0,0:0:0:0:
120,248,35561,1,0,0:0:0:0:
120,116,35927,1,0,0:0:0:0:
256,192,36659,1,0,0:0:0:0:
132,80,37025,5,0,0:0:0:0:
256,80,37208,2,0,L|368:80,1,110
368,212,37573,1,0,0:0:0:0:
256,212,37939,1,0,0:0:0:0:
92,144,38122,5,0,0:0:0:0:
160,104,38305,1,0,0:0:0:0:
200,96,38397,1,0,0:0:0:0:
240,88,38488,1,0,0:0:0:0:
336,68,38671,1,0,0:0:0:0:
432,40,38854,1,0,0:0:0:0:
440,132,39037,2,0,P|432:200|392:180,1,110
292,192,39403,1,0,0:0:0:0:
204,160,39586,6,0,B|124:168|68:216|76:284|164:308,1,220
212,332,40134,1,0,0:0:0:0:
300,336,40317,6,0,L|388:248,1,110
416,176,40683,1,0,0:0:0:0:
408,80,40866,1,0,0:0:0:0:
328,36,41049,2,0,L|208:64,1,110
164,96,41415,2,0,L|132:208,1,110
140,284,41781,1,0,0:0:0:0:
216,328,41964,1,0,0:0:0:0:
312,332,42147,2,0,P|416:288|456:176,1,220
436,88,42695,1,0,0:0:0:0:
340,52,42878,5,0,0:0:0:0:
328,52,42970,1,0,0:0:0:0:
316,52,43061,1,0,0:0:0:0:
240,56,43244,1,0,0:0:0:0:
36,248,43793,5,0,0:0:0:0:
96,288,43976,2,0,P|168:328|204:304,1,110
272,288,44342,1,0,0:0:0:0:
344,248,44525,1,0,0:0:0:0:
408,196,44708,2,0,L|408:136,2,55
404,60,45073,1,0,0:0:0:0:
316,84,45256,2,0,L|120:192,1,220
156,296,45805,1,0,0:0:0:0:
252,256,46537,5,0,0:0:0:0:
316,188,46720,1,0,0:0:0:0:
372,124,46903,2,0,L|288:212,1,110
252,256,47302,1,0,0:0:0:0:
192,328,47451,1,0,0:0:0:0:
116,360,47634,2,0,P|144:228|288:200,1,275
296,200,48275,1,0,0:0:0:0:
364,224,48549,1,0,0:0:0:0:
188,148,49098,6,0,P|236:120|252:160,2,110
208,212,49647,1,0,0:0:0:0:
160,248,49830,2,0,P|204:288|240:248,2,110
208,212,50378,1,0,0:0:0:0:
236,128,50561,1,0,0:0:0:0:
432,192,50927,6,0,L|360:280,1,110
300,328,51293,1,0,0:0:0:0:
208,320,51476,1,0,0:0:0:0:
192,224,51659,1,0,0:0:0:0:
204,112,51842,1,0,0:0:0:0:
308,148,52025,6,0,P|384:164|388:192,2,110
280,224,52756,2,0,L|380:280,1,110
464,228,53122,1,0,0:0:0:0:
432,132,53305,1,0,0:0:0:0:
364,80,53488,2,0,L|300:92,1,55
248,120,53854,2,0,P|172:128|144:88,1,110
212,36,54403,1,0,0:0:0:0:
72,48,54586,5,0,0:0:0:0:
40,168,54769,2,0,P|76:272|192:296,2,220
56,84,55683,1,0,0:0:0:0:
156,124,56232,1,0,0:0:0:0:
328,120,56598,5,0,0:0:0:0:
416,148,56781,1,0,0:0:0:0:
404,228,56964,2,0,P|352:268|288:272,1,110
232,248,57330,2,0,P|160:268|124:320,1,110
80,200,57695,1,0,0:0:0:0:
128,128,57878,1,0,0:0:0:0:
212,136,58061,1,0,0:0:0:0:
312,136,58244,1,0,0:0:0:0:
388,172,58610,6,0,P|284:244|104:148,1,330
256,64,59525,5,0,0:0:0:0:
256,192,59708,1,0,0:0:0:0:
176,300,59891,1,0,0:0:0:0:
264,344,60073,1,0,0:0:0:0:
352,284,60256,1,0,0:0:0:0:
256,192,60439,1,0,0:0:0:0:
160,116,60622,2,0,P|256:64|356:144,1,220
256,192,61171,1,0,0:0:0:0:
256,192,61537,12,0,63000,0:0:0:0:
