osu file format v14

[General]
AudioFilename: audio.mp3
AudioLeadIn: 0
PreviewTime: -1
Countdown: 0
SampleSet: None
StackLeniency: 0.7
Mode: 0
LetterboxInBreaks: 0
WidescreenStoryboard: 1

[Editor]
DistanceSpacing: 1
BeatDivisor: 4
GridSize: 4
TimelineZoom: 1

[Metadata]
Title:XO
TitleUnicode:XO
Artist:The EDEN Project
ArtistUnicode:The EDEN Project
Creator:mdm604
Version:Hard
Source:
Tags:
BeatmapID:1447656
BeatmapSetID:680476

[Difficulty]
HPDrainRate:5
CircleSize:5
OverallDifficulty:5
ApproachRate:8
SliderMultiplier:1.4
SliderTickRate:1

[Events]
//Background and Video events
0,0,"anime guitar.jpg",0,0
//Break Periods
//Storyboard Layer 0 (Background)
//Storyboard Layer 1 (Fail)
//Storyboard Layer 2 (Pass)
//Storyboard Layer 3 (Foreground)
//Storyboard Sound Samples

[TimingPoints]
120,365.853658536585,4,1,0,100,1,0

[Colours]
Combo1 : 255,128,0
Combo2 : 255,255,0
Combo3 : 255,255,255
Combo4 : 0,255,255
Combo5 : 0,255,0
Combo6 : 255,0,0

[HitObjects]
72,104,3046,5,8,0:0:0:0:
440,100,3595,1,8,0:0:0:0:
176,208,4144,1,4,0:0:0:0:
256,268,4327,1,4,0:0:0:0:
336,208,4510,1,4,0:0:0:0:
176,112,4876,5,4,0:0:0:0:
256,48,5058,1,4,0:0:0:0:
340,112,5241,1,4,0:0:0:0:
256,192,5607,1,8,0:0:0:0:
120,192,5973,2,0,B|224:96|360:104|352:140,1,245
256,192,6979,6,0,L|256:96,1,70
256,92,7437,1,8,0:0:0:0:
256,192,7802,1,4,0:0:0:0:
256,256,8168,2,0,L|256:352,1,70
184,368,8534,2,0,P|72:292|16:220,1,210
52,164,9449,1,8,0:0:0:0:
312,112,9815,5,0,0:0:0:0:
312,196,9997,2,2,B|312:228|292:240|256:272,2,70
112,304,10546,2,2,P|92:284|76:232,1,70
68,148,10912,2,2,P|124:116|172:144,1,110
244,96,11369,1,0,0:0:0:0:
256,192,11827,5,2,0:0:0:0:
256,268,12010,1,0,0:0:0:0:
256,344,12193,1,0,0:0:0:0:
256,192,12376,1,0,0:0:0:0:
80,192,12741,5,0,0:0:0:0:
280,148,12924,1,0,0:0:0:0:
208,336,13107,1,0,0:0:0:0:
276,276,13290,2,2,L|128:100,1,220
256,96,14022,5,0,0:0:0:0:
256,192,14205,2,2,B|324:192|392:192|360:136|328:120,1,140
296,96,14754,1,0,0:0:0:0:
172,244,14937,2,0,B|248:244|236:188|236:192,2,55
208,312,15577,2,0,P|316:324|316:256,2,165
200,228,16766,5,0,0:0:0:0:
244,144,16949,1,8,0:0:0:0:
304,180,17132,1,8,0:0:0:0:
352,204,17315,1,8,0:0:0:0:
416,232,17498,1,2,0:0:0:0:
436,308,17680,6,0,B|432:324|416:332|316:328,1,105
256,288,18138,1,4,0:0:0:0:
168,240,18321,1,4,0:0:0:0:
244,176,18504,1,4,0:0:0:0:
60,256,18687,2,0,L|128:320,2,70
192,288,19235,2,0,L|120:224,2,70
124,284,19876,1,2,0:0:0:0:
212,144,20424,6,0,B|228:108|316:136|376:224,1,175
248,260,21065,1,0,0:0:0:0:
332,340,21248,1,8,0:0:0:0:
256,192,22619,5,0,0:0:0:0:
304,120,22802,2,0,L|220:64,1,70
152,132,23168,1,2,0:0:0:0:
176,232,23351,1,0,0:0:0:0:
288,200,23534,1,2,0:0:0:0:
264,104,23717,1,0,0:0:0:0:
176,152,23900,5,2,0:0:0:0:
196,216,24083,1,0,0:0:0:0:
256,192,24266,1,2,0:0:0:0:
236,128,24449,1,0,0:0:0:0:
196,168,24632,5,2,0:0:0:0:
208,208,24815,1,0,0:0:0:0:
240,196,24997,1,2,0:0:0:0:
228,156,25180,1,0,0:0:0:0:
244,264,25363,2,0,L|292:280,2,35
368,208,25729,5,8,0:0:0:0:
276,128,25912,1,0,0:0:0:0:
252,248,26095,1,8,0:0:0:0:
148,284,26278,2,8,P|220:308|248:388,1,140
124,380,26827,2,8,P|40:344|32:276,1,140
152,240,27376,1,0,0:0:0:0:
152,112,28473,5,0,0:0:0:0:
248,116,28656,2,0,L|328:152,2,70
308,232,29205,2,2,L|252:264,2,35
208,204,29571,2,2,L|192:156,2,35
256,120,29937,2,2,L|292:152,2,35
232,192,30302,2,2,L|184:232,2,35
160,160,30668,2,2,L|172:108,2,35
252,116,31034,2,2,L|292:144,2,35
304,232,31400,2,2,L|256:240,2,35
184,200,31766,2,2,L|192:152,2,35
288,120,32132,5,0,0:0:0:0:
364,180,32315,1,4,0:0:0:0:
404,212,32406,1,4,0:0:0:0:
440,236,32497,1,4,0:0:0:0:
408,320,32680,5,0,0:0:0:0:
308,248,32863,1,0,0:0:0:0:
232,168,33046,1,0,0:0:0:0:
172,92,33229,1,0,0:0:0:0:
112,16,33412,1,0,0:0:0:0:
256,192,34327,5,0,0:0:0:0:
168,108,34510,2,0,P|252:96|296:116,1,105
256,192,35059,1,0,0:0:0:0:
224,296,35241,1,0,0:0:0:0:
120,248,35607,1,0,0:0:0:0:
120,116,35973,1,0,0:0:0:0:
256,192,36705,1,0,0:0:0:0:
132,80,37071,5,0,0:0:0:0:
256,80,37254,2,0,L|348:80,1,70
368,212,37619,1,0,0:0:0:0:
256,212,37985,1,0,0:0:0:0:
92,144,38168,5,0,0:0:0:0:
160,104,38351,1,4,0:0:0:0:
200,96,38443,1,4,0:0:0:0:
240,88,38534,1,4,0:0:0:0:
336,68,38717,1,0,0:0:0:0:
432,40,38900,1,0,0:0:0:0:
440,132,39083,2,0,P|460:164|420:188,1,70
292,192,39449,1,0,0:0:0:0:
204,160,39632,6,0,B|124:168|108:184|96:224|100:260,1,140
212,332,40180,1,0,0:0:0:0:
300,336,40363,6,0,L|368:268,1,70
416,176,40729,1,0,0:0:0:0:
408,80,40912,1,0,0:0:0:0:
328,36,41095,2,0,L|232:60,1,70
164,96,41461,2,0,L|136:192,1,70
140,284,41827,1,0,0:0:0:0:
216,328,42010,1,0,0:0:0:0:
312,332,42193,2,0,P|380:320|428:240,1,140
436,88,42741,1,0,0:0:0:0:
340,52,42924,5,4,0:0:0:0:
328,52,43016,1,4,0:0:0:0:
316,52,43107,1,4,0:0:0:0:
240,56,43290,1,0,0:0:0:0:
36,248,43839,5,0,0:0:0:0:
96,288,44022,2,0,P|132:324|176:328,1,70
272,288,44388,1,0,0:0:0:0:
344,248,44571,1,0,0:0:0:0:
408,196,44754,2,4,L|408:148,2,35
404,60,45119,1,0,0:0:0:0:
316,84,45302,2,0,L|204:156,1,105
156,296,45851,1,0,0:0:0:0:
252,256,46583,5,0,0:0:0:0:
316,188,46766,1,0,0:0:0:0:
372,124,46949,2,2,L|296:200,1,105
252,256,47348,1,0,0:0:0:0:
192,328,47497,1,0,0:0:0:0:
116,360,47680,2,2,P|144:228|192:196,1,175
296,200,48321,1,0,0:0:0:0:
364,224,48595,1,4,0:0:0:0:
192,152,49144,6,4,P|236:136|252:176,2,70
208,212,49693,1,8,0:0:0:0:
160,248,49876,2,4,P|204:288|224:272,2,70
208,212,50424,1,0,0:0:0:0:
236,128,50607,1,8,0:0:0:0:
432,192,50973,6,0,L|364:268,1,70
300,328,51339,1,2,0:0:0:0:
208,320,51522,1,8,0:0:0:0:
192,224,51705,1,2,0:0:0:0:
204,112,51888,1,0,0:0:0:0:
308,148,52071,6,0,P|348:136|384:172,2,70
280,224,52802,2,2,L|368:272,1,70
464,228,53168,1,0,0:0:0:0:
432,132,53351,1,0,0:0:0:0:
364,80,53534,2,8,L|300:92,1,55
248,120,53900,2,4,P|172:128|152:104,1,105
212,36,54449,1,0,0:0:0:0:
72,48,54632,5,0,0:0:0:0:
40,168,54815,2,8,P|76:272|116:304,2,140
56,84,55729,1,0,0:0:0:0:
156,124,56278,1,8,0:0:0:0:
328,120,56644,5,0,0:0:0:0:
416,148,56827,1,0,0:0:0:0:
404,228,57010,2,4,P|352:268|320:272,1,70
232,248,57376,2,4,P|160:268|144:280,1,70
80,200,57741,1,0,0:0:0:0:
128,128,57924,1,8,0:0:0:0:
212,136,58107,1,8,0:0:0:0:
312,136,58290,1,8,0:0:0:0:
388,172,58656,6,0,P|284:244|128:184,1,280
256,64,59571,5,0,0:0:0:0:
252,156,59754,1,0,0:0:0:0:
176,232,59937,1,4,0:0:0:0:
256,292,60119,1,4,0:0:0:0:
328,232,60302,1,4,0:0:0:0:
256,192,60485,1,4,0:0:0:0:
192,100,60668,2,2,P|264:72|324:120,1,140
256,192,61217,1,12,0:0:0:0:
256,192,61583,12,0,63046,0:0:0:0:
