osu file format v14

[General]
AudioFilename: e06f48484a0556.mp3
AudioLeadIn: 0
PreviewTime: 68716
Countdown: 0
SampleSet: Normal
StackLeniency: 0.2
Mode: 1
LetterboxInBreaks: 0
WidescreenStoryboard: 0

[Editor]
Bookmarks: 46156,92236,145996
DistanceSpacing: 1.3
BeatDivisor: 4
GridSize: 32
TimelineZoom: 0.9999997

[Metadata]
Title:Riders On The Storm // (Infected Mushroom Remix)
TitleUnicode:Riders On The Storm // (Infected Mushroom Remix)
Artist:The Doors
ArtistUnicode:The Doors
Creator:Vulkin
Version:Oni
Source:
Tags:Legend of the Black Shawarma L.A. Woman Cut Electronic Experimental Psy-Trance Agu Grimbow [_Eon_Fox_]
BeatmapID:1839801
BeatmapSetID:641775

[Difficulty]
HPDrainRate:5.5
CircleSize:7
OverallDifficulty:5.5
ApproachRate:10
SliderMultiplier:1.4
SliderTickRate:1

[Events]
//Background and Video events
0,0,"bg.jpg",0,-75
//Break Periods
//Storyboard Layer 0 (Background)
//Storyboard Layer 1 (Fail)
//Storyboard Layer 2 (Pass)
//Storyboard Layer 3 (Foreground)
//Storyboard Layer 4 (Overlay)
//Storyboard Sound Samples

[TimingPoints]
76,480,4,1,0,60,1,0
76,-111.111111111111,4,1,0,60,0,0
53836,-100,4,1,0,70,0,0
68236,-102.040816326531,4,1,0,70,0,0
68356,-103.092783505155,4,1,0,70,0,0
68476,-104.166666666667,4,1,0,70,0,0
68716,-106.382978723404,4,1,0,70,0,0
68836,-107.52688172043,4,1,0,70,0,0
68956,-108.695652173913,4,1,0,70,0,0
69196,-111.111111111111,4,1,0,60,0,0
76876,-100,4,1,0,80,0,1
107596,-100,4,1,0,70,0,0
121996,-102.040816326531,4,1,0,70,0,0
122236,-104.166666666667,4,1,0,70,0,0
122356,-105.263157894737,4,1,0,70,0,0
122476,-106.382978723404,4,1,0,70,0,0
122596,-107.52688172043,4,1,0,70,0,0
122716,-108.695652173913,4,1,0,70,0,0
122956,-111.111111111111,4,1,0,60,0,0
130636,-100,4,1,0,80,0,1
161356,-100,4,1,0,80,0,0

[Colours]
Combo1 : 241,155,103
Combo2 : 190,95,95
Combo3 : 247,216,208
Combo4 : 219,149,119

[HitObjects]
256,192,46156,5,0,0:0:0:0:
256,192,46636,1,0,0:0:0:0:
256,192,47116,1,8,0:0:0:0:
256,192,47836,1,8,0:0:0:0:
256,192,48076,1,0,0:0:0:0:
256,192,48316,1,8,0:0:0:0:
256,192,48556,1,0,0:0:0:0:
256,192,49036,1,8,0:0:0:0:
256,192,49756,1,8,0:0:0:0:
256,192,49996,1,0,0:0:0:0:
256,192,50476,1,0,0:0:0:0:
256,192,50956,1,8,0:0:0:0:
256,192,51676,1,0,0:0:0:0:
256,192,51916,1,0,0:0:0:0:
256,192,52156,1,8,0:0:0:0:
256,192,52396,1,4,0:0:0:0:
256,192,52876,1,12,0:0:0:0:
256,192,53836,1,4,0:0:0:0:
256,192,54316,1,8,0:0:0:0:
256,192,54556,1,8,0:0:0:0:
256,192,54796,1,0,0:0:0:0:
256,192,55276,1,8,0:0:0:0:
256,192,55516,1,8,0:0:0:0:
256,192,55636,1,8,0:0:0:0:
256,192,55756,1,0,0:0:0:0:
256,192,55996,1,0,0:0:0:0:
256,192,56236,1,8,0:0:0:0:
256,192,56716,1,0,0:0:0:0:
256,192,56956,1,0,0:0:0:0:
256,192,57196,1,8,0:0:0:0:
256,192,57676,1,0,0:0:0:0:
256,192,57916,1,0,0:0:0:0:
256,192,58036,1,0,0:0:0:0:
256,192,58156,1,8,0:0:0:0:
256,192,58396,1,8,0:0:0:0:
256,192,58636,1,0,0:0:0:0:
256,192,59116,1,8,0:0:0:0:
256,192,59356,1,8,0:0:0:0:
256,192,59476,1,8,0:0:0:0:
256,192,59596,1,0,0:0:0:0:
256,192,59836,1,0,0:0:0:0:
256,192,60076,1,8,0:0:0:0:
256,192,60556,1,0,0:0:0:0:
256,192,60676,1,8,0:0:0:0:
256,192,60796,1,0,0:0:0:0:
256,192,61036,1,8,0:0:0:0:
256,192,61276,1,0,0:0:0:0:
256,192,61396,1,0,0:0:0:0:
256,192,61516,1,8,0:0:0:0:
256,192,61996,1,8,0:0:0:0:
256,192,62236,1,0,0:0:0:0:
256,192,62476,1,8,0:0:0:0:
256,192,62956,1,8,0:0:0:0:
256,192,63196,1,8,0:0:0:0:
256,192,63316,1,8,0:0:0:0:
256,192,63436,1,0,0:0:0:0:
256,192,63676,1,0,0:0:0:0:
256,192,63916,1,8,0:0:0:0:
256,192,64396,1,0,0:0:0:0:
256,192,64636,1,0,0:0:0:0:
256,192,64876,1,8,0:0:0:0:
256,192,65116,1,8,0:0:0:0:
256,192,65356,1,0,0:0:0:0:
256,192,65596,1,0,0:0:0:0:
256,192,65716,1,0,0:0:0:0:
256,192,65836,1,8,0:0:0:0:
256,192,66076,1,8,0:0:0:0:
256,192,66316,1,0,0:0:0:0:
256,192,66796,1,8,0:0:0:0:
256,192,67036,1,8,0:0:0:0:
256,192,67156,1,8,0:0:0:0:
256,192,67276,1,0,0:0:0:0:
256,192,67516,1,0,0:0:0:0:
256,192,67756,1,8,0:0:0:0:
256,192,68236,1,0,0:0:0:0:
256,192,68356,1,8,0:0:0:0:
256,192,68476,1,0,0:0:0:0:
256,192,68716,1,8,0:0:0:0:
256,192,68836,1,8,0:0:0:0:
256,192,68956,1,0,0:0:0:0:
256,192,69196,1,4,0:0:0:0:
256,192,69916,1,0,0:0:0:0:
256,192,70156,1,8,0:0:0:0:
256,192,70636,1,8,0:0:0:0:
256,192,71116,1,0,0:0:0:0:
256,192,71356,1,0,0:0:0:0:
256,192,71596,1,0,0:0:0:0:
256,192,72076,1,8,0:0:0:0:
256,192,73036,1,0,0:0:0:0:
256,192,73756,1,0,0:0:0:0:
256,192,73996,1,8,0:0:0:0:
256,192,74716,1,8,0:0:0:0:
256,192,74956,1,0,0:0:0:0:
256,192,75436,1,0,0:0:0:0:
256,192,75916,1,8,0:0:0:0:
256,192,76156,1,8,0:0:0:0:
256,192,76876,1,4,0:0:0:0:
256,192,77356,1,8,0:0:0:0:
256,192,77476,1,8,0:0:0:0:
256,192,77596,1,0,0:0:0:0:
256,192,77836,1,8,0:0:0:0:
256,192,78076,1,0,0:0:0:0:
256,192,78196,1,0,0:0:0:0:
256,192,78316,1,8,0:0:0:0:
256,192,78556,1,8,0:0:0:0:
256,192,78796,1,0,0:0:0:0:
256,192,79276,1,8,0:0:0:0:
256,192,79396,1,8,0:0:0:0:
256,192,79516,1,0,0:0:0:0:
256,192,79756,1,0,0:0:0:0:
256,192,79996,1,8,0:0:0:0:
256,192,80116,1,0,0:0:0:0:
256,192,80236,1,8,0:0:0:0:
256,192,80476,1,8,0:0:0:0:
256,192,80716,1,0,0:0:0:0:
256,192,81196,1,8,0:0:0:0:
256,192,81316,1,8,0:0:0:0:
256,192,81436,1,0,0:0:0:0:
256,192,81676,1,8,0:0:0:0:
256,192,81916,1,0,0:0:0:0:
256,192,82036,1,0,0:0:0:0:
256,192,82156,1,8,0:0:0:0:
256,192,82396,1,8,0:0:0:0:
256,192,82636,1,0,0:0:0:0:
256,192,82876,1,0,0:0:0:0:
256,192,82996,1,0,0:0:0:0:
256,192,83116,1,8,0:0:0:0:
256,192,83236,1,8,0:0:0:0:
256,192,83356,1,0,0:0:0:0:
256,192,83596,1,0,0:0:0:0:
256,192,83836,1,8,0:0:0:0:
256,192,83956,1,0,0:0:0:0:
256,192,84076,1,8,0:0:0:0:
256,192,84196,1,8,0:0:0:0:
256,192,84316,1,0,0:0:0:0:
256,192,84556,1,4,0:0:0:0:
256,192,85036,1,8,0:0:0:0:
256,192,85156,1,8,0:0:0:0:
256,192,85276,1,0,0:0:0:0:
256,192,85516,1,8,0:0:0:0:
256,192,85756,1,0,0:0:0:0:
256,192,85876,1,0,0:0:0:0:
256,192,85996,1,8,0:0:0:0:
256,192,86236,1,8,0:0:0:0:
256,192,86476,1,0,0:0:0:0:
256,192,86956,1,8,0:0:0:0:
256,192,87076,1,8,0:0:0:0:
256,192,87196,1,0,0:0:0:0:
256,192,87436,1,0,0:0:0:0:
256,192,87676,1,8,0:0:0:0:
256,192,87796,1,0,0:0:0:0:
256,192,87916,1,8,0:0:0:0:
256,192,88156,1,0,0:0:0:0:
256,192,88396,1,8,0:0:0:0:
256,192,88876,1,8,0:0:0:0:
256,192,89116,1,0,0:0:0:0:
256,192,89236,1,0,0:0:0:0:
256,192,89356,1,8,0:0:0:0:
256,192,89596,1,0,0:0:0:0:
256,192,89716,1,0,0:0:0:0:
256,192,89836,1,8,0:0:0:0:
256,192,89956,1,0,0:0:0:0:
256,192,90076,1,8,0:0:0:0:
256,192,90316,1,0,0:0:0:0:
256,192,90556,1,8,0:0:0:0:
256,192,90676,1,8,0:0:0:0:
256,192,90796,1,0,0:0:0:0:
256,192,91036,1,0,0:0:0:0:
256,192,91276,1,8,0:0:0:0:
256,192,91516,1,0,0:0:0:0:
256,192,91636,1,0,0:0:0:0:
256,192,91756,1,8,0:0:0:0:
256,192,91876,1,8,0:0:0:0:
256,192,91996,1,0,0:0:0:0:
256,192,92236,1,4,0:0:0:0:
256,192,92716,1,8,0:0:0:0:
256,192,92956,1,0,0:0:0:0:
256,192,93076,1,0,0:0:0:0:
256,192,93196,1,0,0:0:0:0:
256,192,93436,1,0,0:0:0:0:
256,192,93556,1,0,0:0:0:0:
256,192,93676,1,8,0:0:0:0:
256,192,93916,1,8,0:0:0:0:
256,192,94156,1,0,0:0:0:0:
256,192,94636,1,8,0:0:0:0:
256,192,94876,1,0,0:0:0:0:
256,192,94996,1,0,0:0:0:0:
256,192,95116,1,0,0:0:0:0:
256,192,95356,1,8,0:0:0:0:
256,192,95476,1,8,0:0:0:0:
256,192,95596,1,8,0:0:0:0:
256,192,95836,1,8,0:0:0:0:
256,192,96076,1,0,0:0:0:0:
256,192,96556,1,8,0:0:0:0:
256,192,96796,1,0,0:0:0:0:
256,192,96916,1,0,0:0:0:0:
256,192,97036,1,0,0:0:0:0:
256,192,97276,1,0,0:0:0:0:
256,192,97396,1,0,0:0:0:0:
256,192,97516,1,8,0:0:0:0:
256,192,97756,1,8,0:0:0:0:
256,192,97996,1,0,0:0:0:0:
256,192,98236,1,0,0:0:0:0:
256,192,98356,1,0,0:0:0:0:
256,192,98476,1,8,0:0:0:0:
256,192,98716,1,0,0:0:0:0:
256,192,98836,1,0,0:0:0:0:
256,192,98956,1,0,0:0:0:0:
256,192,99076,1,8,0:0:0:0:
256,192,99196,1,0,0:0:0:0:
256,192,99436,1,8,0:0:0:0:
256,192,99676,1,8,0:0:0:0:
256,192,99916,1,4,0:0:0:0:
256,192,100396,1,8,0:0:0:0:
256,192,100636,1,0,0:0:0:0:
256,192,100756,1,0,0:0:0:0:
256,192,100876,1,0,0:0:0:0:
256,192,101116,1,0,0:0:0:0:
256,192,101236,1,0,0:0:0:0:
256,192,101356,1,8,0:0:0:0:
256,192,101596,1,8,0:0:0:0:
256,192,101836,1,0,0:0:0:0:
256,192,102316,1,8,0:0:0:0:
256,192,102556,1,0,0:0:0:0:
256,192,102676,1,0,0:0:0:0:
256,192,102796,1,0,0:0:0:0:
256,192,103036,1,8,0:0:0:0:
256,192,103156,1,0,0:0:0:0:
256,192,103276,1,8,0:0:0:0:
256,192,103516,1,8,0:0:0:0:
256,192,103756,1,0,0:0:0:0:
256,192,104236,1,8,0:0:0:0:
256,192,104476,1,0,0:0:0:0:
256,192,104596,1,0,0:0:0:0:
256,192,104716,1,8,0:0:0:0:
256,192,104956,1,0,0:0:0:0:
256,192,105196,1,8,0:0:0:0:
256,192,105436,1,0,0:0:0:0:
256,192,105676,1,0,0:0:0:0:
256,192,105796,1,0,0:0:0:0:
256,192,105916,1,8,0:0:0:0:
256,192,106036,1,0,0:0:0:0:
256,192,106156,1,8,0:0:0:0:
256,192,106396,1,0,0:0:0:0:
256,192,106636,1,0,0:0:0:0:
256,192,106756,1,0,0:0:0:0:
256,192,106876,1,0,0:0:0:0:
256,192,106996,1,0,0:0:0:0:
256,192,107116,1,8,0:0:0:0:
256,192,107236,1,8,0:0:0:0:
256,192,107356,1,0,0:0:0:0:
256,192,107596,1,4,0:0:0:0:
256,192,107836,1,8,0:0:0:0:
256,192,107956,1,0,0:0:0:0:
256,192,108076,1,8,0:0:0:0:
256,192,108316,1,8,0:0:0:0:
256,192,108556,1,0,0:0:0:0:
256,192,109036,1,8,0:0:0:0:
256,192,109276,1,0,0:0:0:0:
256,192,109396,1,0,0:0:0:0:
256,192,109516,1,0,0:0:0:0:
256,192,109756,1,0,0:0:0:0:
256,192,109996,1,8,0:0:0:0:
256,192,110236,1,8,0:0:0:0:
256,192,110476,1,0,0:0:0:0:
256,192,110956,1,8,0:0:0:0:
256,192,111436,1,0,0:0:0:0:
256,192,111676,1,8,0:0:0:0:
256,192,111796,1,0,0:0:0:0:
256,192,111916,1,8,0:0:0:0:
256,192,112156,1,8,0:0:0:0:
256,192,112396,1,0,0:0:0:0:
256,192,112876,1,8,0:0:0:0:
256,192,113116,1,0,0:0:0:0:
256,192,113236,1,0,0:0:0:0:
256,192,113356,1,0,0:0:0:0:
256,192,113596,1,0,0:0:0:0:
256,192,113836,1,8,0:0:0:0:
256,192,114076,1,8,0:0:0:0:
256,192,114316,1,0,0:0:0:0:
256,192,114556,1,0,0:0:0:0:
256,192,114796,1,8,0:0:0:0:
256,192,115276,1,4,0:0:0:0:
256,192,115516,1,8,0:0:0:0:
256,192,115636,1,8,0:0:0:0:
256,192,115756,1,8,0:0:0:0:
256,192,115996,1,0,0:0:0:0:
256,192,116236,1,8,0:0:0:0:
256,192,116716,1,8,0:0:0:0:
256,192,116956,1,8,0:0:0:0:
256,192,117196,1,0,0:0:0:0:
256,192,117436,1,0,0:0:0:0:
256,192,117556,1,8,0:0:0:0:
256,192,117676,1,8,0:0:0:0:
256,192,117916,1,0,0:0:0:0:
256,192,118156,1,8,0:0:0:0:
256,192,118636,1,8,0:0:0:0:
256,192,119116,1,0,0:0:0:0:
256,192,119356,1,8,0:0:0:0:
256,192,119476,1,0,0:0:0:0:
256,192,119596,1,8,0:0:0:0:
256,192,119836,1,8,0:0:0:0:
256,192,120076,1,0,0:0:0:0:
256,192,120556,1,8,0:0:0:0:
256,192,120796,1,0,0:0:0:0:
256,192,120916,1,0,0:0:0:0:
256,192,121036,1,0,0:0:0:0:
256,192,121276,1,0,0:0:0:0:
256,192,121516,1,8,0:0:0:0:
256,192,121756,1,8,0:0:0:0:
256,192,121996,1,0,0:0:0:0:
256,192,122236,1,0,0:0:0:0:
256,192,122356,1,0,0:0:0:0:
256,192,122476,1,8,0:0:0:0:
256,192,122596,1,8,0:0:0:0:
256,192,122716,1,0,0:0:0:0:
256,192,122956,1,4,0:0:0:0:
256,192,123676,1,0,0:0:0:0:
256,192,123916,1,8,0:0:0:0:
256,192,124396,1,8,0:0:0:0:
256,192,124876,1,0,0:0:0:0:
256,192,125116,1,0,0:0:0:0:
256,192,125356,1,0,0:0:0:0:
256,192,125836,1,8,0:0:0:0:
256,192,126796,1,0,0:0:0:0:
256,192,127276,1,0,0:0:0:0:
256,192,127516,1,0,0:0:0:0:
256,192,127756,1,8,0:0:0:0:
256,192,128476,1,8,0:0:0:0:
256,192,128716,1,0,0:0:0:0:
256,192,128956,1,8,0:0:0:0:
256,192,129196,1,0,0:0:0:0:
256,192,129676,1,8,0:0:0:0:
256,192,129916,1,8,0:0:0:0:
256,192,130636,1,4,0:0:0:0:
256,192,131116,1,8,0:0:0:0:
256,192,131236,1,8,0:0:0:0:
256,192,131356,1,0,0:0:0:0:
256,192,131596,1,8,0:0:0:0:
256,192,131836,1,0,0:0:0:0:
256,192,131956,1,0,0:0:0:0:
256,192,132076,1,8,0:0:0:0:
256,192,132316,1,8,0:0:0:0:
256,192,132556,1,0,0:0:0:0:
256,192,133036,1,8,0:0:0:0:
256,192,133156,1,8,0:0:0:0:
256,192,133276,1,0,0:0:0:0:
256,192,133516,1,0,0:0:0:0:
256,192,133756,1,8,0:0:0:0:
256,192,133876,1,0,0:0:0:0:
256,192,133996,1,8,0:0:0:0:
256,192,134236,1,8,0:0:0:0:
256,192,134476,1,0,0:0:0:0:
256,192,134956,1,8,0:0:0:0:
256,192,135076,1,8,0:0:0:0:
256,192,135196,1,0,0:0:0:0:
256,192,135436,1,8,0:0:0:0:
256,192,135676,1,0,0:0:0:0:
256,192,135796,1,0,0:0:0:0:
256,192,135916,1,8,0:0:0:0:
256,192,136156,1,8,0:0:0:0:
256,192,136396,1,0,0:0:0:0:
256,192,136636,1,0,0:0:0:0:
256,192,136756,1,0,0:0:0:0:
256,192,136876,1,8,0:0:0:0:
256,192,136996,1,8,0:0:0:0:
256,192,137116,1,0,0:0:0:0:
256,192,137356,1,0,0:0:0:0:
256,192,137596,1,8,0:0:0:0:
256,192,137716,1,0,0:0:0:0:
256,192,137836,1,8,0:0:0:0:
256,192,137956,1,8,0:0:0:0:
256,192,138076,1,0,0:0:0:0:
256,192,138316,1,4,0:0:0:0:
256,192,138796,1,8,0:0:0:0:
256,192,138916,1,8,0:0:0:0:
256,192,139036,1,0,0:0:0:0:
256,192,139276,1,8,0:0:0:0:
256,192,139516,1,0,0:0:0:0:
256,192,139636,1,0,0:0:0:0:
256,192,139756,1,8,0:0:0:0:
256,192,139996,1,8,0:0:0:0:
256,192,140236,1,0,0:0:0:0:
256,192,140716,1,8,0:0:0:0:
256,192,140836,1,8,0:0:0:0:
256,192,140956,1,0,0:0:0:0:
256,192,141196,1,0,0:0:0:0:
256,192,141436,1,8,0:0:0:0:
256,192,141556,1,0,0:0:0:0:
256,192,141676,1,8,0:0:0:0:
256,192,141916,1,0,0:0:0:0:
256,192,142156,1,8,0:0:0:0:
256,192,142636,1,8,0:0:0:0:
256,192,142876,1,0,0:0:0:0:
256,192,142996,1,0,0:0:0:0:
256,192,143116,1,8,0:0:0:0:
256,192,143356,1,0,0:0:0:0:
256,192,143596,1,8,0:0:0:0:
256,192,143716,1,0,0:0:0:0:
256,192,143836,1,8,0:0:0:0:
256,192,144076,1,0,0:0:0:0:
256,192,144316,1,8,0:0:0:0:
256,192,144436,1,8,0:0:0:0:
256,192,144556,1,0,0:0:0:0:
256,192,144796,1,0,0:0:0:0:
256,192,145036,1,8,0:0:0:0:
256,192,145276,1,0,0:0:0:0:
256,192,145396,1,0,0:0:0:0:
256,192,145516,1,8,0:0:0:0:
256,192,145636,1,8,0:0:0:0:
256,192,145756,1,0,0:0:0:0:
256,192,145996,1,4,0:0:0:0:
256,192,146476,1,8,0:0:0:0:
256,192,146716,1,0,0:0:0:0:
256,192,146836,1,0,0:0:0:0:
256,192,146956,1,0,0:0:0:0:
256,192,147196,1,0,0:0:0:0:
256,192,147316,1,0,0:0:0:0:
256,192,147436,1,8,0:0:0:0:
256,192,147676,1,8,0:0:0:0:
256,192,147916,1,0,0:0:0:0:
256,192,148396,1,8,0:0:0:0:
256,192,148636,1,0,0:0:0:0:
256,192,148756,1,0,0:0:0:0:
256,192,148876,1,0,0:0:0:0:
256,192,149116,1,8,0:0:0:0:
256,192,149236,1,8,0:0:0:0:
256,192,149356,1,8,0:0:0:0:
256,192,149596,1,8,0:0:0:0:
256,192,149836,1,0,0:0:0:0:
256,192,150316,1,8,0:0:0:0:
256,192,150556,1,0,0:0:0:0:
256,192,150676,1,0,0:0:0:0:
256,192,150796,1,0,0:0:0:0:
256,192,151036,1,0,0:0:0:0:
256,192,151156,1,0,0:0:0:0:
256,192,151276,1,8,0:0:0:0:
256,192,151516,1,8,0:0:0:0:
256,192,151756,1,0,0:0:0:0:
256,192,151996,1,8,0:0:0:0:
256,192,152116,1,0,0:0:0:0:
256,192,152236,1,8,0:0:0:0:
256,192,152356,1,8,0:0:0:0:
256,192,152476,1,0,0:0:0:0:
256,192,152716,1,0,0:0:0:0:
256,192,152836,1,8,0:0:0:0:
256,192,152956,1,0,0:0:0:0:
256,192,153196,1,8,0:0:0:0:
256,192,153436,1,8,0:0:0:0:
256,192,153676,1,4,0:0:0:0:
256,192,154156,1,8,0:0:0:0:
256,192,154396,1,0,0:0:0:0:
256,192,154516,1,0,0:0:0:0:
256,192,154636,1,0,0:0:0:0:
256,192,154876,1,0,0:0:0:0:
256,192,154996,1,0,0:0:0:0:
256,192,155116,1,8,0:0:0:0:
256,192,155356,1,8,0:0:0:0:
256,192,155596,1,0,0:0:0:0:
256,192,156076,1,8,0:0:0:0:
256,192,156316,1,0,0:0:0:0:
256,192,156436,1,0,0:0:0:0:
256,192,156556,1,0,0:0:0:0:
256,192,156796,1,8,0:0:0:0:
256,192,156916,1,0,0:0:0:0:
256,192,157036,1,8,0:0:0:0:
256,192,157276,1,8,0:0:0:0:
256,192,157516,1,0,0:0:0:0:
256,192,157996,1,8,0:0:0:0:
256,192,158236,1,0,0:0:0:0:
256,192,158356,1,0,0:0:0:0:
256,192,158476,1,8,0:0:0:0:
256,192,158716,1,0,0:0:0:0:
256,192,158956,1,8,0:0:0:0:
256,192,159196,1,0,0:0:0:0:
256,192,159436,1,0,0:0:0:0:
256,192,159556,1,0,0:0:0:0:
256,192,159676,1,8,0:0:0:0:
256,192,159796,1,0,0:0:0:0:
256,192,159916,1,8,0:0:0:0:
256,192,160156,1,0,0:0:0:0:
256,192,160396,1,0,0:0:0:0:
256,192,160516,1,0,0:0:0:0:
256,192,160636,1,0,0:0:0:0:
256,192,160756,1,0,0:0:0:0:
256,192,160876,1,8,0:0:0:0:
256,192,161116,1,0,0:0:0:0:
256,192,161356,1,12,0:0:0:0:
